<?xml version="1.0" standalone="no"?>
<!DOCTYPE svg PUBLIC "-//W3C//DTD SVG 1.1//EN" "http://www.w3.org/Graphics/SVG/1.1/DTD/svg11.dtd" >
<svg xmlns="http://www.w3.org/2000/svg" xmlns:xlink="http://www.w3.org/1999/xlink" version="1.1">
<metadata></metadata>
<defs>
<font id="indivisa_display_sansthin" horiz-adv-x="600" >
<font-face units-per-em="1000" ascent="815" descent="-185" />
<missing-glyph horiz-adv-x="200" />
<glyph unicode="&#x2f;symbol&#x33;&#x2f;" horiz-adv-x="957" d="M505 638l68 -270h270l-203 -135l136 -270l-271 135l-270 -270l135 405l-270 203l338 -68zM814 87q18 0 30.5 -12.5t12.5 -31.5q0 -18 -12.5 -30.5t-30.5 -12.5t-30.5 12.5t-12.5 30.5q0 19 12.5 31.5t30.5 12.5zM854 43q0 17 -11.5 29t-28.5 12t-28.5 -12t-11.5 -29 t12 -28.5t28 -11.5t28 11.5t12 28.5zM796 68h18q8 0 11 -2q6 -3 6 -10q0 -5 -4 -9q-3 -3 -6 -3q7 -3 8 -10q2 -14 3 -16h-7q-1 2 -2 7.5t-1 6.5q0 9 -10 9h-9v-23h-7v50zM803 47h10q5 0 7 1q3 3 3 6q0 9 -10 9h-10v-16z" />
<glyph unicode="&#x2f;symbol&#x32;&#x2f;" horiz-adv-x="932" d="M494 570l52 -90l-137 -240h-103l137 240l-52 90h103zM357 570l52 -90l-138 -240h-103l138 240l-52 90h103zM752 120h-103l-137 240l51 90l137 -240h103zM683 0h-103l-137 240l51 90l138 -240h103zM100 120l51 90h275l51 -90h-274l-52 -90zM168 0l52 90h274l52 -90h-275 l-51 -90zM789 88q18 0 30.5 -13t12.5 -31t-12.5 -31t-30.5 -13t-30.5 13t-12.5 31t12.5 31t30.5 13zM829 44q0 16 -11.5 28t-28.5 12t-28.5 -12t-11.5 -28t11.5 -28t28.5 -12t28.5 12t11.5 28zM771 69h18q7 0 11 -2q5 -4 5 -11q0 -5 -3 -8q-1 -2 -6 -4q7 -1 8 -9q0 -8 3 -16 h-8q-1 2 -1.5 6.5t-0.5 6.5q-1 10 -11 10h-8v-23h-7v50zM778 47h10q5 0 7 1q3 3 3 7q0 8 -10 8h-10v-16z" />
<glyph unicode="&#x2f;symbol&#x31;&#x2f;" horiz-adv-x="5534" d="M1865 412q-25 0 -40.5 14.5t-15.5 37.5q0 35 32.5 64t70.5 29q24 0 39 -13.5t15 -37.5q0 -36 -31 -65t-70 -29zM1284 412q-26 0 -41.5 14.5t-15.5 37.5q0 35 33 64t71 29q24 0 38.5 -13.5t14.5 -37.5q0 -36 -31 -65t-69 -29zM959 0q0 42 11 108q-16 -50 -51.5 -82.5 t-78.5 -32.5q-41 0 -63 29.5t-22 82.5q0 62 27 121t84 101t132 42q17 0 25 -1l16 73l6 102l136 7q0 -67 -46 -273t-46 -277h-130zM100 0l78 364q17 86 21 136l128 7l11 -15l-104 -492h-134zM3503 492l-57 -492h-131l20 175q5 50 33 215h-3q-31 -102 -81 -215l-76 -175h-149 l-2 175q-2 121 9 215h-2q-32 -130 -59 -215l-53 -175h-109l154 500l184 6l1 -137q2 -134 -15 -259h2q39 126 94 259l56 131l169 7zM5316 300q-37 -177 -37 -183q0 -34 36 -34q25 0 59 18l-9 -79q-52 -29 -114 -29q-105 0 -105 100q0 20 40 210l-47 1l9 44l54 14l53 95l81 6 l13 -15l-20 -86h99l6 -14l-17 -51zM336 0q0 79 41 260l6 102l137 7q0 -31 -7 -89h2q52 89 134 89q34 0 53 -19.5t19 -51.5q0 -27 -26 -147q-18 -85 -18 -151h-131q0 55 19 150q15 78 15 87q0 24 -17 24q-34 0 -64 -82.5t-32 -178.5h-131zM1170 0q0 72 27 193l14 67l6 102 l137 7q0 -46 -27 -177t-27 -192h-130zM1399 362l140 7q13 -129 -5 -289h2q76 151 91 284q22 5 50 5q32 0 48.5 -8.5t16.5 -33.5q0 -46 -51 -147.5t-116 -179.5h-149q-5 228 -27 362zM1752 0q0 69 26 193l15 67l6 102l137 7q0 -46 -27 -177t-27 -192h-130zM4716 0 q0 79 41 260l6 102l137 7q0 -12 -7 -89h2q52 89 134 89q34 0 53 -19.5t19 -51.5q0 -27 -26 -147q-19 -90 -19 -151h-130q0 55 19 150q15 78 15 87q0 24 -17 24q-35 0 -65 -82t-32 -179h-130zM2245 256q-52 30 -97 30q-18 0 -30 -7t-12 -19q0 -14 20 -26.5t44 -22t44 -33 t20 -56.5q0 -57 -53 -93t-128 -36q-78 0 -118 28l27 93q57 -38 111 -38q19 0 29.5 7.5t10.5 18.5q0 13 -20 26t-44 23t-44 33t-20 55q0 56 54.5 93t128.5 37q58 0 104 -18zM2525 369q88 0 146 -32l-29 -128q-31 -145 -31 -209h-130q0 37 12 112q-15 -52 -51 -85.5t-81 -33.5 q-41 0 -62.5 29.5t-21.5 83.5q0 62 26.5 120.5t85 100.5t136.5 42zM4653 51q-67 -58 -159 -58q-65 0 -103.5 35t-38.5 102q0 94 68.5 166.5t167.5 72.5q54 0 86.5 -23.5t32.5 -64.5q0 -57 -60 -96.5t-161 -43.5v-1q0 -64 63 -64q42 0 90 28zM3936 0q0 74 42 260l5 102l137 7 q0 -31 -7 -89h2q53 89 134 89q34 0 53 -19.5t19 -51.5q0 -27 -26 -147q-18 -85 -18 -151h-131q0 55 19 150q15 71 15 87q0 24 -17 24q-34 0 -64 -82.5t-32 -178.5h-131zM3768 369q87 0 145 -32l-28 -128q-31 -145 -31 -209h-130q0 45 12 112q-15 -52 -51 -85.5t-81 -33.5 q-41 0 -63 29.5t-22 83.5q0 46 16 91.5t46 84t79 63t108 24.5zM4490 177q47 10 73 34t26 59q0 31 -22 31q-28 0 -48.5 -38.5t-28.5 -85.5zM3677 101q23 0 47 43t38 101q1 8 4.5 24.5t4.5 19.5q-16 8 -27 8q-34 0 -62.5 -54.5t-28.5 -101.5q0 -40 24 -40zM913 101 q22 0 44.5 39.5t37.5 94.5q1 9 8 40l3 14q-14 8 -27 8q-33 0 -61.5 -54.5t-28.5 -101.5q0 -40 24 -40zM2435 101q23 0 47 43.5t37 100.5q3 14 9 44q-14 8 -27 8q-34 0 -62 -54.5t-28 -101.5q0 -40 24 -40z" />
<glyph unicode="&#x2f;symbol&#x35;&#x2f;" horiz-adv-x="705" d="M232 -6l-132 136l124 234l129 -136zM474 -6l-121 234l128 136l124 -234z" />
<glyph unicode="&#x2f;symbol&#x34;&#x2f;" horiz-adv-x="2607" d="M1684 406q0 65 -11 128l126 14l15 -15v-533h-130v406zM1889 406q0 62 -10 128l126 14l14 -15v-533h-130v406zM427 101v-101h-320v362q0 80 -7 135l126 7l14 -14v-396zM925 21l7 109q62 -36 144 -36q50 0 50 36q0 20 -31.5 41.5t-69 40.5t-69 57t-31.5 88q0 69 55 108 t138 39q80 0 127 -18l-14 -111q-56 29 -111 29q-27 0 -42.5 -11t-15.5 -29q0 -20 20.5 -38t50 -34t59.5 -35t50.5 -51t20.5 -72q0 -66 -53.5 -103.5t-139.5 -37.5q-41 0 -83.5 8t-61.5 20zM795 0l-106 -7q-11 16 -21 49h-4q-34 -49 -104 -49q-43 0 -70 23t-27 66 q0 113 191 118v20q0 54 -58 54q-55 0 -108 -29l-8 97q72 26 150 26q154 0 154 -135q0 -25 -2 -69t-2 -70q0 -51 15 -94zM1626 0l-107 -7q-12 20 -21 49h-3q-34 -49 -105 -49q-43 0 -69.5 23t-26.5 66q0 113 191 118v20q0 54 -58 54q-54 0 -109 -29l-7 97q72 26 150 26 q153 0 153 -135q0 -25 -1.5 -69.5t-1.5 -69.5q0 -51 15 -94zM2405 213q0 -24 -1 -36l-11 -11h-191q14 -83 98 -83q44 0 84 21l7 -81q-46 -30 -127 -30q-90 0 -144 47.5t-54 134.5q0 85 52 139t132 54q72 0 113.5 -43t41.5 -112zM2199 207l78 4q2 14 2 26q0 59 -34 59 q-44 0 -46 -89zM654 74v88q-29 -3 -47 -18t-18 -39q0 -18 10 -29t27 -11q16 0 28 9zM1485 74v88q-29 -3 -47 -18t-18 -39q0 -18 10 -29t27 -11q16 0 28 9zM2464 85q18 0 30.5 -13t12.5 -31t-12.5 -31t-30.5 -13t-31 13t-13 31t13 31t31 13zM2504 41q0 17 -12 28.5t-28 11.5 t-28 -11.5t-12 -28.5t12 -28.5t28 -11.5t28 11.5t12 28.5zM2446 66h18q7 0 11 -3q5 -3 5 -10q0 -5 -3 -9q-3 -3 -6 -3q7 -1 8 -10q0 -7 3 -15h-8q-1 2 -1.5 6.5t-0.5 6.5q-1 9 -11 9h-8v-22h-7v50zM2453 44h10q5 0 7 1q3 3 3 7q0 8 -10 8h-10v-16z" />
<glyph unicode=" "  horiz-adv-x="200" />
<glyph unicode="&#x09;" horiz-adv-x="200" />
<glyph unicode="&#xa0;" horiz-adv-x="200" />
<glyph unicode="!" horiz-adv-x="258" d="M143 123h-25q0 421 -5 527l37 10q3 -57 3 -157q0 -120 -10 -380zM158 1q0 -44 -30 -44q-13 0 -20.5 10.5t-7.5 26.5q0 18 8.5 30.5t22.5 12.5q27 0 27 -36z" />
<glyph unicode="&#x22;" horiz-adv-x="316" d="M106 695l-13 -234h-20l-13 234h46zM256 695l-13 -234h-20l-13 234h46z" />
<glyph unicode="#" horiz-adv-x="703" d="M607 193h-164l-50 -203l-22 1l-6 6l48 196h-180l-50 -203l-22 1l-6 6l48 196h-147l-6 5l2 20h157l53 215h-162l-6 5l2 20h172l50 202l22 -1l6 -6l-48 -195h180l50 202l22 -1l6 -6l-48 -195h139l6 -5l-2 -20h-149l-53 -215h154l6 -5zM239 218h180l53 215h-180z" />
<glyph unicode="$" horiz-adv-x="461" d="M214 -122v112q-82 1 -149 36l5 35q67 -47 152 -47q68 0 105 36.5t37 89.5q0 45 -29 82t-70.5 64t-83 55t-70.5 69t-29 92q0 61 37.5 103t104.5 52v112l30 3v-112h7q69 0 127 -29l-6 -35q-18 14 -53 27t-74 13q-66 0 -103.5 -36.5t-37.5 -90.5q0 -45 29 -83t70.5 -66.5 t83 -57.5t70.5 -69.5t29 -88.5q0 -61 -41 -103.5t-111 -49.5v-110z" />
<glyph unicode="%" horiz-adv-x="930" d="M277 -10h-31l400 670h30zM361 474q0 -91 -42.5 -140t-105.5 -49q-62 0 -100 48t-38 134q0 91 42 140.5t106 49.5q62 0 100 -48.5t38 -134.5zM106 472q0 -74 29 -121t81 -47q50 0 81.5 43.5t31.5 121.5q0 75 -28.5 121.5t-81.5 46.5q-50 0 -81.5 -43.5t-31.5 -121.5z M855 182q0 -91 -42.5 -140t-105.5 -49q-62 0 -100 48t-38 134q0 91 42 140.5t106 49.5q62 0 100 -48.5t38 -134.5zM600 180q0 -74 29 -121t81 -47q50 0 81.5 43.5t31.5 121.5q0 75 -28.5 121.5t-81.5 46.5q-50 0 -81.5 -43.5t-31.5 -121.5z" />
<glyph unicode="&#x26;" horiz-adv-x="709" d="M565 365q11 -85 -9.5 -159t-66.5 -125q61 -67 107 -67q36 0 60 24l8 -22q-28 -26 -73 -26q-64 0 -123 69q-77 -69 -182 -69q-88 0 -142 48t-54 122q0 59 33.5 112t89.5 81q-67 92 -67 164q0 62 44 102.5t111 40.5q54 0 95 -30t59 -79l-22 -19q-20 48 -58.5 76t-81.5 28 q-47 0 -81 -31.5t-34 -87.5q0 -54 31 -105.5t89 -116.5l167 -188q1 -1 2 -2.5t2.5 -2.5t2.5 -2q66 79 66 191q0 38 -5 65zM122 165q0 -67 47 -109t123 -42q91 0 160 64q-2 3 -6 7l-171 193q-34 38 -47 56q-50 -26 -78 -72.5t-28 -96.5z" />
<glyph unicode="'" horiz-adv-x="166" d="M106 695l-13 -234h-20l-13 234h46z" />
<glyph unicode="(" horiz-adv-x="305" d="M269 -133q-104 79 -154 186t-50 228t50 228t154 186l16 -21q-180 -157 -180 -393t180 -393z" />
<glyph unicode=")" horiz-adv-x="305" d="M240 281q0 -121 -50 -228t-154 -186l-16 21q180 157 180 393t-180 393l16 21q104 -79 154 -186t50 -228z" />
<glyph unicode="*" horiz-adv-x="392" d="M178 449l12 112l-92 -66l-18 31l105 46l-105 46l18 31l92 -66l-12 112h36l-12 -113l92 67l18 -31l-103 -46l103 -46l-18 -31l-92 67l12 -113h-36z" />
<glyph unicode="+" horiz-adv-x="589" d="M484 312h-175v-182h-28v182h-181v23q84 2 181 2v183h28v-183q67 1 176 1z" />
<glyph unicode="," horiz-adv-x="208" d="M133 16q0 -36 -19.5 -86t-53.5 -89l-10 9q45 66 52 140h-1q-29 6 -29 33q0 15 8.5 25t22.5 10q30 0 30 -42z" />
<glyph unicode="-" horiz-adv-x="321" d="M30 277v26h261v-26h-261z" />
<glyph unicode="." horiz-adv-x="210" d="M104 -10q-13 0 -21 9.5t-8 22.5q0 14 9 25t23 11q28 0 28 -31q0 -15 -8 -26t-23 -11z" />
<glyph unicode="/" horiz-adv-x="342" d="M245 695l27 -6l-175 -700l-27 6z" />
<glyph unicode="0" horiz-adv-x="614" d="M539 332q0 -165 -68.5 -253.5t-171.5 -88.5q-101 0 -162.5 87t-61.5 241q0 164 68.5 253t171.5 89q101 0 162.5 -86.5t61.5 -241.5zM107 326q0 -138 52 -225t145 -87q89 0 146 81.5t57 229.5q0 137 -52 224t-145 87q-89 0 -146 -81t-57 -229z" />
<glyph unicode="1" horiz-adv-x="350" d="M210 0h-30v623l-123 -53l-7 25l155 65l5 -2v-658z" />
<glyph unicode="2" horiz-adv-x="525" d="M435 0h-384l-6 16q63 58 97.5 90.5t83 81t74.5 82t52.5 74t38 76.5t11.5 71q0 68 -44 106.5t-117 38.5q-83 0 -178 -61l-9 30q90 55 191 55q84 0 136.5 -45.5t52.5 -125.5q0 -43 -18.5 -88.5t-44 -84.5t-76.5 -93.5t-92.5 -93.5t-114.5 -106h129q114 0 228 14z" />
<glyph unicode="3" horiz-adv-x="500" d="M430 173q0 -81 -64.5 -132t-179.5 -51q-76 0 -146 24l5 27q75 -26 145 -26q99 0 153.5 44.5t54.5 111.5q0 71 -60.5 106t-147.5 35q-35 0 -64 -7v24q119 26 180.5 77.5t61.5 114.5q0 52 -39.5 83.5t-107.5 31.5q-73 0 -160 -48l-5 26q72 46 171 46q77 0 125 -36.5 t48 -100.5q0 -59 -45.5 -109t-141.5 -81q104 -5 160.5 -45t56.5 -115z" />
<glyph unicode="4" horiz-adv-x="570" d="M385 0h-30v164h-307l-6 15l322 481l21 -10v-459q38 2 105 10l-10 -37h-95v-164zM355 600l-276 -414l183 1q31 0 93 2v411z" />
<glyph unicode="5" horiz-adv-x="520" d="M440 195q0 -90 -64.5 -147.5t-171.5 -57.5q-74 0 -144 24l5 24q74 -24 146 -24q88 0 142.5 48.5t54.5 129.5q0 79 -51.5 120t-129.5 41q-79 0 -122 -23l-10 8v312h171q90 0 163 10l-9 -33h-295v-269q49 19 110 19q94 0 149.5 -49.5t55.5 -132.5z" />
<glyph unicode="6" horiz-adv-x="541" d="M284 -10q-99 0 -154 76t-55 215q0 174 83 276.5t213 102.5q56 0 84 -14l-9 -25q-32 15 -83 15q-110 0 -182 -90.5t-75 -279.5h1q32 51 85 78t107 27q78 0 130 -50t52 -134q0 -86 -55 -141.5t-142 -55.5zM283 14q73 0 119.5 47.5t46.5 125.5q0 73 -41 116.5t-112 43.5 q-54 0 -104 -28t-83 -85q5 -97 48.5 -158.5t125.5 -61.5z" />
<glyph unicode="7" horiz-adv-x="503" d="M173 0h-32q9 155 95.5 335.5t183.5 291.5h-137q-114 0 -228 -14l10 37h383l5 -5v-12q-103 -121 -186 -297.5t-94 -335.5z" />
<glyph unicode="8" horiz-adv-x="554" d="M75 142q0 61 49 109.5t119 73.5q-65 32 -107 78.5t-42 102.5q0 67 55.5 110.5t131.5 43.5q74 0 126.5 -42.5t52.5 -107.5q0 -57 -43.5 -106t-113.5 -76q176 -70 176 -180q0 -67 -59 -112.5t-145 -45.5q-85 0 -142.5 43.5t-57.5 108.5zM126 511q0 -54 43.5 -100t105.5 -73 q68 27 110.5 73.5t42.5 100.5t-42.5 89t-104.5 35q-63 0 -109 -36t-46 -89zM107 142q0 -54 48 -91t120 -37q73 0 122 39t50 97q1 53 -45 90.5t-135 74.5q-67 -27 -113.5 -72t-46.5 -101z" />
<glyph unicode="9" horiz-adv-x="541" d="M466 367q0 -172 -83 -274.5t-214 -102.5q-55 0 -83 14l9 25q32 -15 83 -15q110 0 182 85.5t75 264.5h-1q-32 -51 -85 -78t-107 -27q-78 0 -130 53t-52 142q0 91 54.5 148.5t140.5 57.5q98 0 154.5 -77t56.5 -216zM92 453q0 -77 41 -123.5t112 -46.5q54 0 104 28t83 85 q-5 106 -48.5 173t-125.5 67q-73 0 -119.5 -50.5t-46.5 -132.5z" />
<glyph unicode=":" horiz-adv-x="210" d="M104 420q-13 0 -21 9.5t-8 22.5q0 14 9 25t23 11q28 0 28 -31q0 -15 -8 -26t-23 -11zM104 -10q-13 0 -21 9.5t-8 22.5q0 14 9 25t23 11q28 0 28 -31q0 -15 -8 -26t-23 -11z" />
<glyph unicode=";" horiz-adv-x="216" d="M110 420q-13 0 -21 9.5t-8 22.5q0 14 9 25t23 11q28 0 28 -31q0 -15 -8 -26t-23 -11zM138 16q0 -36 -19.5 -86t-53.5 -89l-10 9q45 66 52 140h-1q-29 6 -29 33q0 15 8.5 25t22.5 10q30 0 30 -42z" />
<glyph unicode="&#x3c;" horiz-adv-x="557" d="M457 133l-377 187l1 16q201 103 375 182v-30l-334 -160l335 -165v-30z" />
<glyph unicode="=" horiz-adv-x="589" d="M484 413h-384v23q132 3 385 3zM484 211h-384v23q132 3 385 3z" />
<glyph unicode="&#x3e;" horiz-adv-x="557" d="M100 133v30l335 165l-334 160v30q174 -79 375 -182l1 -16z" />
<glyph unicode="?" horiz-adv-x="500" d="M242 131h-25q-10 28 -10 73q0 33 19 66.5t46 63t54 59.5t46 67t19 74q0 60 -42.5 96.5t-100.5 36.5q-44 0 -89.5 -20t-79.5 -55l-16 19q82 84 190 84q74 0 122 -44.5t48 -117.5q0 -44 -19 -83t-46 -68t-54 -57t-46 -62.5t-19 -70.5q0 -10 3 -61zM266 1q0 -44 -30 -44 q-13 0 -20.5 10.5t-7.5 26.5q0 18 8.5 30.5t22.5 12.5q27 0 27 -36z" />
<glyph unicode="@" horiz-adv-x="1122" d="M727 -123q-106 -72 -239 -72q-165 0 -269 105.5t-104 270.5q0 105 45 201t118.5 164t170 108.5t196.5 40.5q160 0 261 -97t101 -248q0 -83 -29.5 -164.5t-88.5 -138.5t-131 -57q-53 0 -84 30.5t-34.5 78.5t11.5 107h-4q-16 -38 -35.5 -72t-46 -68.5t-59.5 -55t-67 -20.5 q-48 0 -76 38.5t-28 105.5q0 83 41 169.5t116 146.5t160 60q48 0 90 -15l-46 -187q-1 -2 -2 -8q-7 -29 -11.5 -48.5t-11 -59t-4.5 -66.5t9 -55.5t28 -43.5t53 -15q59 0 111 49t82 126t30 159q0 146 -95 236.5t-243 90.5q-91 0 -180.5 -36.5t-160.5 -99t-115 -155t-44 -195.5 q0 -158 96.5 -259t254.5 -101q115 0 224 66zM435 14q41 0 84.5 43t77.5 107t59 128t38 117l16 67q-35 10 -69 10q-71 0 -134.5 -51.5t-101.5 -134t-38 -171.5q0 -115 68 -115z" />
<glyph unicode="A" horiz-adv-x="560" d="M68 0h-33l179 532l39 118l52 10l220 -660h-33l-61 182h-302zM280 628l-140 -416h281l-140 416h-1z" />
<glyph unicode="B" horiz-adv-x="579" d="M266 0h-146v535l-8 115h144q97 0 151 -44t54 -115q0 -54 -30.5 -94t-84.5 -57q69 -13 108.5 -56.5t39.5 -106.5q0 -81 -61.5 -129t-166.5 -48zM152 624v-274h104q81 0 126 38.5t45 102.5q0 61 -46 97t-131 36h-98zM152 324v-298h120q89 0 138.5 41t49.5 110 q0 70 -51 108.5t-143 38.5h-114z" />
<glyph unicode="C" horiz-adv-x="533" d="M482 57l6 -28q-64 -39 -152 -39q-123 0 -193 92.5t-68 242.5q2 151 72 243t192 92q84 0 147 -34l-11 -34q-60 44 -142 44q-107 0 -166.5 -85.5t-57.5 -225.5q2 -139 63.5 -224.5t167.5 -85.5q88 0 142 42z" />
<glyph unicode="D" horiz-adv-x="636" d="M120 535l-8 115h146q144 0 224.5 -89.5t78.5 -235.5t-83.5 -235.5t-225.5 -89.5h-132v535zM252 624h-100v-598h106q129 0 200 82t69 217t-74 217t-201 82z" />
<glyph unicode="E" horiz-adv-x="496" d="M436 0h-316v535l-8 115h329l-5 -31l-284 5v-289l199 3l-5 -31l-194 2v-283l289 5z" />
<glyph unicode="F" horiz-adv-x="461" d="M152 0h-32v535l-8 115h329l-5 -31l-284 5v-304l199 3l-5 -31l-194 2v-294z" />
<glyph unicode="G" horiz-adv-x="612" d="M512 29q-66 -39 -158 -39q-131 0 -206 92.5t-73 242.5t77.5 242.5t206.5 92.5q83 0 148 -34l-11 -34q-61 44 -148 44q-112 0 -176.5 -86t-62.5 -225t68.5 -224.5t182.5 -85.5q68 0 120 26v102l-8 115l40 10v-239z" />
<glyph unicode="H" horiz-adv-x="668" d="M152 0h-32v535l-8 115l40 10v-333h364v208l-8 115l40 10v-660h-32v297h-364v-297z" />
<glyph unicode="I" horiz-adv-x="272" d="M152 0h-32v535l-8 115l40 10v-660z" />
<glyph unicode="J" horiz-adv-x="270" d="M19 -171q101 45 101 162v544l-8 115l38 10v-660q0 -151 -127 -195z" />
<glyph unicode="K" horiz-adv-x="529" d="M120 535l-8 115l41 10v-328h90l212 328l34 -10l-218 -333l218 -317l-34 -10l-212 312h-90v-302h-33v535z" />
<glyph unicode="L" horiz-adv-x="466" d="M436 0h-316v535l-8 115l40 10v-634l289 5z" />
<glyph unicode="M" horiz-adv-x="873" d="M202 620h-1l-77 -620h-34l88 650l45 10l212 -635h2l211 625l43 10l92 -660h-35l-78 620h-1l-211 -620h-44z" />
<glyph unicode="N" horiz-adv-x="670" d="M120 535l-8 115l50 10l357 -632h2l-6 622l35 10v-660h-49l-352 623h-2l6 -623h-33v535z" />
<glyph unicode="O" horiz-adv-x="661" d="M586 325q-2 -149 -72.5 -242t-185.5 -93q-116 0 -185.5 93t-67.5 242t72.5 242t186.5 93q115 0 184.5 -93t67.5 -242zM109 325q2 -139 63 -225t162 -86q100 0 160 86.5t58 224.5q-2 139 -63 225t-161 86q-101 0 -161 -86t-58 -225z" />
<glyph unicode="P" horiz-adv-x="516" d="M152 0h-32v535l-8 115h127q104 0 163 -54.5t59 -142.5q0 -93 -61.5 -148t-166.5 -55h-81v-250zM233 624h-81v-348h87q89 0 138.5 48t49.5 129q0 79 -50 125t-144 46z" />
<glyph unicode="Q" horiz-adv-x="661" d="M512 -124q-96 0 -146.5 25.5t-56.5 89.5q-108 7 -172 99t-62 235q2 149 72.5 242t186.5 93q115 0 184.5 -93t67.5 -242q-2 -145 -69 -237.5t-177 -97.5q8 -90 153 -90q74 0 128 15v-31q-54 -8 -109 -8zM109 325q2 -139 63 -225t162 -86q100 0 160 86.5t58 224.5 q-2 139 -63 225t-161 86q-101 0 -161 -86t-58 -225z" />
<glyph unicode="R" horiz-adv-x="539" d="M152 0h-32v535l-8 115h127q104 0 163 -51.5t59 -135.5q0 -69 -39 -117t-108 -66l175 -280l-34 -10l-176 283q-23 -3 -46 -3h-81v-270zM233 624h-81v-328h87q89 0 138.5 45.5t49.5 121.5q0 74 -50 117.5t-144 43.5z" />
<glyph unicode="S" horiz-adv-x="479" d="M414 144q0 -67 -51.5 -110.5t-137.5 -43.5q-83 0 -160 36l6 35q26 -18 69.5 -32.5t90.5 -14.5q71 0 110 36.5t39 89.5q0 38 -22 70.5t-55 54.5t-71.5 48t-71.5 49.5t-55 60t-22 79.5q0 69 51 113.5t138 44.5q73 0 133 -29l-6 -35q-19 14 -55.5 27t-78.5 13 q-69 0 -108.5 -36.5t-39.5 -90.5q0 -45 30.5 -83t74.5 -66.5t87.5 -57.5t74 -69.5t30.5 -88.5z" />
<glyph unicode="T" horiz-adv-x="470" d="M252 0h-32v624l-195 -5l5 31h410l5 -31l-193 5v-624z" />
<glyph unicode="U" horiz-adv-x="638" d="M321 14q77 0 123.5 51.5t46.5 134.5v335l-8 115l40 10v-460q0 -93 -57.5 -151.5t-150.5 -58.5q-91 0 -145.5 58.5t-54.5 151.5v335l-8 115l40 10v-460q0 -82 48 -134t126 -52z" />
<glyph unicode="V" horiz-adv-x="553" d="M489 660l29 -10l-217 -650h-49l-217 650l29 10l212 -635h1z" />
<glyph unicode="W" horiz-adv-x="873" d="M217 0l-182 650l29 10l177 -635h1l179 625h32l178 -625h1l177 635l29 -10l-182 -650h-47l-171 600h-2l-172 -600h-47z" />
<glyph unicode="X" horiz-adv-x="558" d="M45 0l212 327l-199 323l29 10l192 -313l192 313l29 -10l-198 -324l211 -326h-35l-199 307l-199 -307h-35z" />
<glyph unicode="Y" horiz-adv-x="517" d="M274 0h-32v212l-217 438l29 10l204 -410h1l204 410l29 -10l-218 -438v-212z" />
<glyph unicode="Z" horiz-adv-x="503" d="M453 0h-402l-6 18l367 604q-286 0 -359 -7l5 35h388l6 -18l-367 -604q138 0 180.5 0.5t92 4t100.5 12.5z" />
<glyph unicode="[" horiz-adv-x="298" d="M80 685h176v-24h-143v-772h143v-24h-176v820z" />
<glyph unicode="\" horiz-adv-x="342" d="M245 -11l-175 700l27 6l175 -700z" />
<glyph unicode="]" horiz-adv-x="298" d="M218 685v-820h-176v24h143v772h-143v24h176z" />
<glyph unicode="^" horiz-adv-x="525" d="M124 190h-34l160 335h20l165 -335h-33l-142 299z" />
<glyph unicode="_" horiz-adv-x="340" d="M0 -143v26h340v-26h-340z" />
<glyph unicode="`" horiz-adv-x="255" d="M182 587l-14 -5q-59 62 -94 149l36 2q25 -78 72 -146z" />
<glyph unicode="a" horiz-adv-x="491" d="M378 -10q-21 43 -24 74q-30 -29 -76 -51.5t-96 -22.5q-56 0 -89 31.5t-33 79.5q0 56 44.5 96.5t109 58.5t139.5 19v93q0 118 -114 118q-78 0 -148 -54l-10 28q70 50 158 50q69 0 106.5 -35.5t37.5 -103.5q0 -7 -1 -120t-1 -130q0 -67 25 -121zM92 104q0 -40 27 -65 t74 -25q41 0 88 23.5t72 54.5v160q-111 -2 -186 -39t-75 -109z" />
<glyph unicode="b" horiz-adv-x="525" d="M85 685l38 10v-244q64 59 145 59q87 0 139.5 -66t52.5 -181q0 -128 -64.5 -200.5t-175.5 -72.5q-65 0 -101 9l-26 -9v580zM261 486q-85 0 -138 -73v-379q50 -20 106 -20q87 0 143 63.5t56 180.5q0 105 -45.5 166.5t-121.5 61.5z" />
<glyph unicode="c" horiz-adv-x="464" d="M403 477l-6 -35q-47 43 -119 43q-78 0 -129.5 -61.5t-51.5 -176.5q0 -111 48 -171.5t131 -60.5q69 0 128 37l-2 -31q-60 -31 -129 -31q-99 0 -153.5 65.5t-54.5 181.5q0 131 65 202t162 71q65 0 111 -33z" />
<glyph unicode="d" horiz-adv-x="542" d="M429 -10q-14 27 -22 62q-61 -62 -150 -62q-87 0 -139.5 65t-52.5 179q0 131 66 203.5t159 72.5q63 0 112 -36v96l-8 115l38 10v-549q0 -79 25 -146zM97 240q0 -106 46 -166t122 -60q86 0 137 70v6v347q-46 49 -119 49q-83 0 -134.5 -67t-51.5 -179z" />
<glyph unicode="e" horiz-adv-x="487" d="M402 21q-60 -31 -130 -31q-98 0 -152.5 65.5t-54.5 181.5q0 120 55.5 196.5t144.5 76.5q73 0 117.5 -50.5t44.5 -132.5q0 -38 -1 -57l-5 -15h-324v-6q0 -113 48 -173.5t131 -60.5q69 0 128 37zM265 486q-69 0 -114.5 -54t-52.5 -153l296 6q1 14 1 41q0 75 -34 117.5 t-96 42.5z" />
<glyph unicode="f" horiz-adv-x="276" d="M125 0h-30v455l-65 1v15l65 5v2q-18 54 -18 99q0 55 34 86.5t92 31.5q43 0 73 -14l-6 -28q-39 17 -80 17q-81 0 -81 -94q0 -54 14 -100h147l-2 -25l-143 3v-454z" />
<glyph unicode="g" horiz-adv-x="471" d="M119 114q0 35 39 56q-40 19 -63 59t-23 95q0 80 47 133t122 53q121 0 210 5v-31l-143 4v-1q37 -17 59.5 -60t22.5 -94q0 -79 -46.5 -128.5t-116.5 -49.5q-24 0 -50 8q-28 -20 -28 -45q0 -43 87 -51l56 -5q158 -14 158 -111q0 -63 -64.5 -104.5t-167.5 -41.5 q-88 0 -138 31t-50 84q0 49 39.5 84.5t92.5 52.5q-43 19 -43 57zM104 330q0 -65 34.5 -108t95.5 -43q60 0 92 41.5t32 112.5q0 67 -30.5 110t-90.5 43q-62 0 -97.5 -45t-35.5 -111zM62 -75q0 -44 42 -70t116 -26q87 0 142.5 33.5t55.5 85.5q0 39 -35 62.5t-99 28.5l-79 7 q-61 -11 -102 -44t-41 -77z" />
<glyph unicode="h" horiz-adv-x="524" d="M123 0h-30v570l-8 115l38 10v-264q74 79 169 79q74 0 108 -48t34 -121v-341h-30v330q0 77 -30.5 116.5t-87.5 39.5q-90 0 -163 -88v-398z" />
<glyph unicode="i" horiz-adv-x="213" d="M140 659q0 -44 -30 -44q-13 0 -20.5 10.5t-7.5 26.5q0 18 8.5 30.5t22.5 12.5q27 0 27 -36zM123 0h-30v385l-8 115l38 10v-510z" />
<glyph unicode="j" horiz-adv-x="213" d="M135 659q0 -44 -30 -44q-13 0 -20.5 10.5t-7.5 26.5q0 18 8.5 30.5t22.5 12.5q27 0 27 -36zM11 -177q42 33 62 69t20 95v398l-8 115l38 10v-526q0 -112 -101 -180z" />
<glyph unicode="k" horiz-adv-x="457" d="M123 0h-30v570l-8 115l38 10v-414h86l187 229l24 -10l-188 -232l210 -268l-29 -10l-204 266h-86v-256z" />
<glyph unicode="l" horiz-adv-x="213" d="M123 0h-30v570l-8 115l38 10v-695z" />
<glyph unicode="m" horiz-adv-x="803" d="M123 0h-30v385l-8 115l38 10v-79q73 79 161 79q91 0 122 -92q36 44 82.5 68t90.5 24q67 0 100.5 -49t33.5 -120v-341h-30v330q0 76 -30 116t-80 40q-39 0 -82 -24.5t-78 -69.5q5 -27 5 -51v-341h-30v330q0 76 -30 116t-80 40q-38 0 -80 -23t-75 -65v-398z" />
<glyph unicode="n" horiz-adv-x="524" d="M123 0h-30v385l-8 115l38 10v-79q74 79 169 79q74 0 108 -48t34 -121v-341h-30v330q0 77 -30.5 116.5t-87.5 39.5q-90 0 -163 -88v-398z" />
<glyph unicode="o" horiz-adv-x="547" d="M482 264q0 -131 -66 -202.5t-159 -71.5q-87 0 -139.5 65t-52.5 179q0 131 66 203.5t159 72.5q87 0 139.5 -65.5t52.5 -180.5zM97 240q0 -106 46 -166t122 -60q78 0 131.5 63.5t53.5 179.5q0 105 -45.5 167t-122.5 62q-78 0 -131.5 -64.5t-53.5 -181.5z" />
<glyph unicode="p" horiz-adv-x="525" d="M93 385l-8 115l38 10v-57q60 57 145 57q87 0 139.5 -65t52.5 -179q0 -131 -66 -203.5t-159 -72.5q-63 0 -112 36v-65q0 -82 10 -146l-40 -10v580zM260 486q-86 0 -137 -70v-353q46 -49 119 -49q83 0 134.5 67t51.5 179q0 106 -46 166t-122 60z" />
<glyph unicode="q" horiz-adv-x="527" d="M442 -185l-40 -10v244q-64 -59 -147 -59q-85 0 -137.5 66t-52.5 180q0 128 67 201t180 73q58 0 95 -8l25 8v-549q0 -82 10 -146zM97 242q0 -105 45.5 -166.5t121.5 -61.5q85 0 138 73v380q-49 19 -99 19q-89 0 -147.5 -63.5t-58.5 -180.5z" />
<glyph unicode="r" horiz-adv-x="327" d="M123 0h-30v385l-8 115l38 10v-119q24 59 63.5 89t87.5 30q18 0 38 -4l-6 -32q-16 6 -38 6q-93 0 -145 -124v-356z" />
<glyph unicode="s" horiz-adv-x="409" d="M359 116q0 -56 -45.5 -91t-120.5 -35t-143 36l6 35q63 -47 144 -47q60 0 93.5 28t33.5 71q0 24 -9.5 42.5t-32.5 35.5t-37.5 25t-48.5 25q-30 14 -48.5 25t-39.5 28t-31 38.5t-10 48.5q0 56 44.5 92.5t119.5 36.5q66 0 118 -29l-6 -35q-48 40 -120 40q-57 0 -90.5 -28.5 t-33.5 -71.5q0 -40 28 -66.5t83 -54.5q80 -42 104 -63q42 -37 42 -86z" />
<glyph unicode="t" horiz-adv-x="369" d="M328 451l-193 3v-320q0 -27 1.5 -41.5t9.5 -36t28 -32t52 -10.5q59 0 107 34l6 -27q-50 -31 -118 -31q-116 0 -116 130v335l-55 1v15l56 5l9 155l20 3v-158h195z" />
<glyph unicode="u" horiz-adv-x="525" d="M90 159v341l30 10v-340q0 -76 30 -116t80 -40q38 0 80 23t75 65v398l30 10v-405q0 -63 25 -105l-28 -10q-23 37 -26 79q-73 -79 -162 -79q-67 0 -100.5 49t-33.5 120z" />
<glyph unicode="v" horiz-adv-x="441" d="M411 501q-71 -218 -176 -501h-29l-176 501l30 9l162 -476h2l162 476z" />
<glyph unicode="w" horiz-adv-x="708" d="M184 0l-154 501l30 9l140 -476h2l138 476h31l140 -476h2l140 476l25 -9q-66 -233 -154 -501h-29l-140 475h-1q-54 -200 -141 -475h-29z" />
<glyph unicode="x" horiz-adv-x="461" d="M372 0l-143 233l-143 -233h-30q49 85 155 247l-156 253l26 10l152 -244l144 244l28 -5q-62 -108 -154 -252l155 -253h-34z" />
<glyph unicode="y" horiz-adv-x="445" d="M11 -195q-33 0 -65 9v28q39 -13 82 -13q62 0 111.5 44t77.5 127h-7l-176 501l30 9l162 -476h2l162 476l25 -9q-66 -205 -175 -502q-41 -108 -94.5 -151t-134.5 -43z" />
<glyph unicode="z" horiz-adv-x="420" d="M370 0h-321l-6 16l286 461h-77q-112 0 -212 -9l12 32h306l6 -16l-285 -461h74q113 0 227 14z" />
<glyph unicode="{" horiz-adv-x="289" d="M158 163q0 91 -108 102v30q108 11 108 105q0 32 -18.5 87t-18.5 92q0 59 35.5 87.5t109.5 28.5l1 -24q-60 -1 -87 -23.5t-27 -67.5q0 -32 18.5 -91.5t18.5 -90.5q0 -47 -26.5 -78t-67.5 -41q40 -10 67 -40t27 -75q0 -28 -18.5 -89.5t-18.5 -94.5q0 -45 27 -67.5t87 -23.5 l-1 -24q-75 0 -110 28.5t-35 87.5q0 38 18.5 96t18.5 86z" />
<glyph unicode="|" horiz-adv-x="224" d="M124 -202l-24 -3v897l24 3v-897z" />
<glyph unicode="}" horiz-adv-x="289" d="M239 265l-108 -102q0 -28 18.5 -86t18.5 -96q0 -59 -35 -87.5t-110 -28.5l-1 24q60 1 87 23.5t27 67.5q0 33 -18.5 94.5t-18.5 89.5q0 45 27 75t67 40q-41 10 -67.5 41t-26.5 78q0 31 18.5 90.5t18.5 91.5q0 45 -27 67.5t-87 23.5l1 24q74 0 109.5 -28.5t35.5 -87.5 q0 -37 -18.5 -92t-18.5 -87q0 -94 108 -105v-30z" />
<glyph unicode="~" horiz-adv-x="618" d="M181 279q-16 0 -67 -66l-14 8q14 26 23 40t26 30.5t33 16.5q22 0 126 -30.5t129 -30.5q16 0 67 66l14 -8q-46 -87 -82 -87q-22 0 -128.5 30.5t-126.5 30.5z" />
<glyph unicode="&#xa0;" />
<glyph unicode="&#xa1;" horiz-adv-x="258" d="M100 499q0 44 30 44q13 0 20.5 -10.5t7.5 -26.5q0 -18 -8.5 -30.5t-22.5 -12.5q-27 0 -27 36zM115 377h25q0 -421 5 -527l-37 -10q-3 57 -3 157q0 120 10 380z" />
<glyph unicode="&#xa2;" horiz-adv-x="464" d="M286 -119l-30 -3v113q-91 5 -141 70t-50 176q0 126 60 196t151 76v110l30 3v-112q58 -5 97 -33l-6 -35q-47 43 -119 43q-78 0 -129.5 -61.5t-51.5 -176.5q0 -111 48 -171.5t131 -60.5q69 0 128 37l-2 -31q-52 -27 -116 -31v-109z" />
<glyph unicode="&#xa3;" horiz-adv-x="494" d="M416 320l-183 3l-6 -83q-6 -81 -35.5 -141.5t-73.5 -88.5q11 -6 52.5 -28t65 -33t63 -22.5t74.5 -11.5q60 0 90 16l-12 -32q-25 -10 -75 -10q-63 0 -129 29.5t-149 81.5q-21 -10 -47 -10q-36 0 -36 20q0 22 34 22q19 0 46 -11q36 19 66 76.5t36 141.5l6 84l-108 2v17 l109 5h1q5 72 10.5 115t18 93t31 77t50.5 45t77 18q41 0 87 -19l-11 -38q-40 32 -94 32q-79 0 -107 -80q-18 -49 -29 -199q-3 -29 -4 -44h184z" />
<glyph unicode="&#xa4;" horiz-adv-x="543" d="M457 66l-81 82q-46 -46 -114 -46q-61 0 -104 35l-71 -72l-21 21l71 71q-39 47 -39 110q0 67 44 119l-77 77l21 21q14 -14 40 -40.5t37 -37.5q46 36 105 36q60 0 106 -39l80 81l21 -21l-82 -82q37 -46 37 -106q0 -58 -35 -106q62 -60 83 -80zM128 270q0 -59 36.5 -98.5 t99.5 -39.5t99.5 42t36.5 99q0 56 -37 97.5t-97 41.5q-62 0 -100 -41.5t-38 -100.5z" />
<glyph unicode="&#xa5;" horiz-adv-x="517" d="M71 114v23h171v74h-171v23h160l-206 416l29 10l204 -410h1l204 410l29 -10l-207 -416h156v-23h-167v-74h167v-23h-167v-114h-32v114h-171z" />
<glyph unicode="&#xa6;" horiz-adv-x="324" d="M174 347l-24 -3v348l24 3v-348zM174 -202l-24 -3v352l24 3v-352z" />
<glyph unicode="&#xa7;" horiz-adv-x="511" d="M446 30q0 -90 -55.5 -145t-151.5 -55q-73 0 -132 36l6 55q16 -17 47.5 -32t67.5 -15q49 0 81.5 30t32.5 80q0 44 -28.5 87t-69.5 81t-81.5 79.5t-69 99t-28.5 123.5q0 95 55.5 150.5t151.5 55.5q68 0 115 -29l-6 -55q-37 40 -100 40q-50 0 -81 -30.5t-31 -80.5 q0 -33 15.5 -65.5t39.5 -61t53.5 -57.5t59.5 -60.5t54 -65t39.5 -76.5t15.5 -89zM328 -125l1 -1q87 51 87 156q0 55 -28.5 107t-69 93t-81.5 82t-69.5 90t-28.5 101q0 61 39 105l-1 1q-82 -49 -82 -154q0 -58 28.5 -111t69.5 -93.5t81.5 -79.5t69 -86.5t28.5 -98.5 q0 -64 -44 -111z" />
<glyph unicode="&#xa8;" d="M130 659q0 -41 -31 -41q-29 0 -29 34q0 17 8.5 29t23.5 12q13 0 20.5 -9.5t7.5 -24.5zM295 659q0 -41 -31 -41q-29 0 -29 34q0 17 8.5 29t23.5 12q13 0 20.5 -9.5t7.5 -24.5z" />
<glyph unicode="&#xa9;" horiz-adv-x="652" d="M323 -22q-114 0 -193.5 78.5t-79.5 191.5q0 115 81 194.5t197 79.5q114 0 194 -79.5t80 -191.5q0 -113 -81 -193t-198 -80zM324 0q105 0 178.5 73.5t73.5 176.5q0 104 -73 177t-177 73q-103 0 -176.5 -73.5t-73.5 -178.5q0 -104 72 -176t176 -72zM417 126l4 -22 q-38 -19 -87 -19q-71 0 -110.5 47t-38.5 123q1 78 41.5 125t109.5 47q46 0 84 -18l-7 -24q-37 21 -79 21q-57 0 -89 -41.5t-31 -108.5t34 -108.5t91 -41.5q49 0 78 20z" />
<glyph unicode="&#xaa;" horiz-adv-x="437" d="M318 365q-14 29 -17 53q-55 -53 -125 -53q-40 0 -64.5 22.5t-24.5 57.5q0 60 64.5 92.5t148.5 32.5v63q0 83 -82 83q-56 0 -108 -38l-7 26q53 35 118 35q52 0 80.5 -26.5t28.5 -76.5q0 -6 -1 -84.5t-1 -90.5q0 -49 18 -89zM118 450q0 -29 19 -46.5t52 -17.5q29 0 62 16.5 t49 37.5v113q-79 -2 -130.5 -27.5t-51.5 -75.5z" />
<glyph unicode="&#xab;" horiz-adv-x="464" d="M226 288v8q86 89 167 199l11 -7q-45 -77 -139 -196q94 -119 139 -196l-11 -7q-81 110 -167 199zM60 288v8q86 89 167 199l11 -7q-45 -77 -139 -196q94 -119 139 -196l-11 -7q-81 110 -167 199z" />
<glyph unicode="&#xac;" horiz-adv-x="566" d="M495 333v-201h-29v171h-359v25q143 5 388 5z" />
<glyph unicode="&#xae;" horiz-adv-x="652" d="M323 -22q-114 0 -193.5 78.5t-79.5 191.5q0 115 81 194.5t197 79.5q114 0 194 -79.5t80 -191.5q0 -113 -81 -193t-198 -80zM324 0q105 0 178.5 73.5t73.5 176.5q0 104 -73 177t-177 73q-103 0 -176.5 -73.5t-73.5 -178.5q0 -104 72 -176t176 -72zM262 89h-27v272l-5 60 h78q59 0 93 -27t34 -71q0 -35 -21 -59.5t-59 -34.5l95 -140l-29 -5l-93 140q-8 -1 -24 -1h-42v-134zM304 402h-42v-161h45q48 0 74 22.5t26 59.5q0 36 -26.5 57.5t-76.5 21.5z" />
<glyph unicode="&#xaf;" horiz-adv-x="340" d="M70 646v26h200v-26h-200z" />
<glyph unicode="&#xb0;" horiz-adv-x="367" d="M183 324q-49 0 -81 32t-32 80q0 50 31.5 84t82.5 34t82 -31.5t31 -78.5q0 -52 -31.5 -86t-82.5 -34zM184 526q-37 0 -60 -26t-23 -63t23 -61t59 -24q37 0 60 25.5t23 65.5q0 36 -22.5 59.5t-59.5 23.5z" />
<glyph unicode="&#xb1;" horiz-adv-x="589" d="M484 348h-175v-162h-28v162h-181v23q84 2 181 2v163h28v-163q67 1 176 1zM484 71h-384v23q132 3 385 3z" />
<glyph unicode="&#xb2;" horiz-adv-x="369" d="M283 372h-234l-4 16q103 84 154.5 141.5t51.5 109.5q0 35 -25 55.5t-66 20.5q-50 0 -104 -33l-6 25q54 30 117 30q52 0 84.5 -26t32.5 -71q0 -54 -51.5 -109.5t-157.5 -135.5h79q66 0 135 8z" />
<glyph unicode="&#xb3;" horiz-adv-x="348" d="M278 467q0 -45 -39.5 -73.5t-109.5 -28.5q-48 0 -89 13l4 21q44 -14 84 -14q55 0 86 23.5t31 59.5t-34.5 54.5t-82.5 18.5q-19 0 -39 -4v16q69 14 104.5 42t35.5 59q0 27 -22.5 44t-61.5 17q-45 0 -93 -25l-3 21q44 26 105 26q48 0 77.5 -21t29.5 -57q0 -33 -28.5 -60 t-86.5 -43q132 -5 132 -89z" />
<glyph unicode="&#xb4;" horiz-adv-x="256" d="M182 731q-35 -87 -94 -149l-14 5q47 68 72 146z" />
<glyph unicode="&#xb6;" horiz-adv-x="590" d="M267 -147q153 0 153 193v582h-50v-433h-31q-96 0 -160.5 61.5t-64.5 168.5t65.5 166t164.5 59h106v-604q0 -105 -44.5 -161t-130.5 -56q-71 0 -147 24l4 26q76 -26 135 -26z" />
<glyph unicode="&#xb7;" horiz-adv-x="210" d="M104 208q-13 0 -21 9.5t-8 22.5q0 14 9 25t23 11q28 0 28 -31q0 -15 -8 -26t-23 -11z" />
<glyph unicode="&#xb8;" horiz-adv-x="280" d="M171 -110q0 31 -67 39l25 71h24l-19 -54q69 -14 69 -53q0 -30 -34.5 -47.5t-79.5 -19.5l-1 18q83 11 83 46z" />
<glyph unicode="&#xb9;" horiz-adv-x="297" d="M157 372h-30v337l-72 -28l-5 19l104 37l3 -2v-363z" />
<glyph unicode="&#xba;" horiz-adv-x="485" d="M397 562q0 -94 -49 -145.5t-117 -51.5q-65 0 -104 46.5t-39 129.5q0 94 48.5 146t117.5 52q64 0 103.5 -47t39.5 -130zM120 545q0 -74 32 -116.5t85 -42.5q54 0 91 44.5t37 126.5q0 75 -31.5 118t-85.5 43t-91 -45t-37 -128z" />
<glyph unicode="&#xbb;" horiz-adv-x="464" d="M238 288q-86 -89 -167 -199l-11 7q45 77 139 196q-94 119 -139 196l11 7q81 -110 167 -199v-8zM404 288q-86 -89 -167 -199l-11 7q45 77 139 196q-94 119 -139 196l11 7q81 -110 167 -199v-8z" />
<glyph unicode="&#xbc;" horiz-adv-x="827" d="M162 -10h-31l400 670h30zM157 292h-30v337l-72 -28l-5 19l104 37l3 -2v-363zM626 0h-30v85h-181l-4 14l193 266l22 -5v-249q25 1 61 5l-6 -31h-55v-85zM596 322l-157 -214h111q30 0 46 1v213z" />
<glyph unicode="&#xbd;" horiz-adv-x="812" d="M161 -10h-31l400 670h30zM157 292h-30v337l-72 -28l-5 19l104 37l3 -2v-363zM726 0h-234l-4 16q103 84 154.5 141.5t51.5 109.5q0 35 -25 55.5t-66 20.5q-50 0 -104 -33l-6 25q54 30 117 30q52 0 84.5 -26t32.5 -71q0 -54 -51.5 -109.5t-157.5 -135.5h79q66 0 135 8z" />
<glyph unicode="&#xbe;" horiz-adv-x="848" d="M243 -10h-31l400 670h30zM278 387q0 -45 -39.5 -73.5t-109.5 -28.5q-48 0 -89 13l4 21q44 -14 84 -14q55 0 86 23.5t31 59.5t-34.5 54.5t-82.5 18.5q-19 0 -39 -4v16q69 14 104.5 42t35.5 59q0 27 -22.5 44t-61.5 17q-45 0 -93 -25l-3 21q44 26 105 26q48 0 77.5 -21 t29.5 -57q0 -33 -28.5 -60t-86.5 -43q132 -5 132 -89zM707 0h-30v85h-181l-4 14l193 266l22 -5v-249q25 1 61 5l-6 -31h-55v-85zM677 322l-157 -214h111q30 0 46 1v213z" />
<glyph unicode="&#xbf;" horiz-adv-x="500" d="M234 499q0 44 30 44q13 0 20.5 -10.5t7.5 -26.5q0 -18 -8.5 -30.5t-22.5 -12.5q-27 0 -27 36zM258 369h25q10 -28 10 -73q0 -33 -19 -66.5t-46 -63t-54 -59.5t-46 -67t-19 -74q0 -60 42.5 -96.5t100.5 -36.5q44 0 89.5 20t79.5 55l16 -19q-82 -84 -190 -84 q-74 0 -122 44.5t-48 117.5q0 44 19 83t46 68t54 57t46 62.5t19 70.5q0 10 -3 61z" />
<glyph unicode="&#xc0;" horiz-adv-x="560" d="M365 748l-9 -17q-92 27 -162 84l35 25q63 -55 136 -92zM68 0h-33l179 532l39 118l52 10l220 -660h-33l-61 182h-302zM280 628l-140 -416h281l-140 416h-1z" />
<glyph unicode="&#xc1;" horiz-adv-x="560" d="M365 816q-70 -57 -162 -84l-9 17q73 37 136 92zM68 0h-33l179 532l39 118l52 10l220 -660h-33l-61 182h-302zM280 628l-140 -416h281l-140 416h-1z" />
<glyph unicode="&#xc2;" horiz-adv-x="560" d="M175 732l-10 13q61 46 96 92l36 6q36 -50 97 -98l-10 -13q-58 29 -104 75q-48 -47 -105 -75zM68 0h-33l179 532l39 118l52 10l220 -660h-33l-61 182h-302zM280 628l-140 -416h281l-140 416h-1z" />
<glyph unicode="&#xc3;" horiz-adv-x="560" d="M229 825q23 0 55 -21.5t50 -21.5q34 0 58 47l16 -5q-7 -29 -28 -51t-51 -22q-24 0 -55 21.5t-49 21.5q-35 0 -58 -47l-16 5q8 29 28 51t50 22zM68 0h-33l179 532l39 118l52 10l220 -660h-33l-61 182h-302zM280 628l-140 -416h281l-140 416h-1z" />
<glyph unicode="&#xc4;" horiz-adv-x="560" d="M212 790q0 -41 -31 -41q-29 0 -29 34q0 17 8.5 29t23.5 12q13 0 20.5 -9.5t7.5 -24.5zM407 790q0 -41 -31 -41q-29 0 -29 34q0 17 8.5 29t23.5 12q13 0 20.5 -9.5t7.5 -24.5zM68 0h-33l179 532l39 118l52 10l220 -660h-33l-61 182h-302zM280 628l-140 -416h281l-140 416 h-1z" />
<glyph unicode="&#xc5;" horiz-adv-x="560" d="M355 792q0 -31 -23 -53t-55 -22q-31 0 -52 19.5t-21 47.5q0 31 23.5 53t56.5 22q31 0 51 -19t20 -48zM235 787q0 -19 12 -31.5t31 -12.5q18 0 32 13.5t14 32.5t-12 31.5t-31 12.5t-32.5 -13.5t-13.5 -32.5zM68 0h-33l179 532l39 118l52 10l220 -660h-33l-61 182h-302z M280 628l-140 -416h281l-140 416h-1z" />
<glyph unicode="&#xc6;" horiz-adv-x="839" d="M68 0h-33l279 532l57 118h323l-5 -31l-262 5l33 -289l230 3l-5 -31l-222 2l32 -283l289 5l-5 -31h-314l-19 182h-282zM398 628l-219 -416h264l-44 416h-1z" />
<glyph unicode="&#xc7;" horiz-adv-x="533" d="M375 -110q0 31 -67 39l22 61q-120 3 -188.5 95t-66.5 240q2 151 72 243t192 92q84 0 147 -34l-11 -34q-60 44 -142 44q-107 0 -166.5 -85.5t-57.5 -225.5q2 -139 63.5 -224.5t167.5 -85.5q88 0 142 42l6 -28q-59 -35 -134 -38l-16 -45q69 -14 69 -53q0 -30 -34.5 -47.5 t-79.5 -19.5l-1 18q83 11 83 46z" />
<glyph unicode="&#xc8;" horiz-adv-x="496" d="M362 748l-9 -17q-92 27 -162 84l35 25q63 -55 136 -92zM436 0h-316v535l-8 115h329l-5 -31l-284 5v-289l199 3l-5 -31l-194 2v-283l289 5z" />
<glyph unicode="&#xc9;" horiz-adv-x="496" d="M362 816q-70 -57 -162 -84l-9 17q73 37 136 92zM436 0h-316v535l-8 115h329l-5 -31l-284 5v-289l199 3l-5 -31l-194 2v-283l289 5z" />
<glyph unicode="&#xca;" horiz-adv-x="496" d="M172 732l-10 13q61 46 96 92l36 6q36 -50 97 -98l-10 -13q-58 29 -104 75q-48 -47 -105 -75zM436 0h-316v535l-8 115h329l-5 -31l-284 5v-289l199 3l-5 -31l-194 2v-283l289 5z" />
<glyph unicode="&#xcb;" horiz-adv-x="496" d="M209 790q0 -41 -31 -41q-29 0 -29 34q0 17 8.5 29t23.5 12q13 0 20.5 -9.5t7.5 -24.5zM404 790q0 -41 -31 -41q-29 0 -29 34q0 17 8.5 29t23.5 12q13 0 20.5 -9.5t7.5 -24.5zM436 0h-316v535l-8 115h329l-5 -31l-284 5v-289l199 3l-5 -31l-194 2v-283l289 5z" />
<glyph unicode="&#xcc;" horiz-adv-x="272" d="M221 748l-9 -17q-92 27 -162 84l35 25q63 -55 136 -92zM152 0h-32v535l-8 115l40 10v-660z" />
<glyph unicode="&#xcd;" horiz-adv-x="272" d="M221 816q-70 -57 -162 -84l-9 17q73 37 136 92zM152 0h-32v535l-8 115l40 10v-660z" />
<glyph unicode="&#xce;" horiz-adv-x="272" d="M31 732l-10 13q61 46 96 92l36 6q36 -50 97 -98l-10 -13q-58 29 -104 75q-48 -47 -105 -75zM152 0h-32v535l-8 115l40 10v-660z" />
<glyph unicode="&#xcf;" horiz-adv-x="272" d="M103 775q0 -41 -31 -41q-29 0 -29 34q0 17 8.5 29t23.5 12q13 0 20.5 -9.5t7.5 -24.5zM228 775q0 -41 -31 -41q-29 0 -29 34q0 17 8.5 29t23.5 12q13 0 20.5 -9.5t7.5 -24.5zM152 0h-32v535l-8 115l40 10v-660z" />
<glyph unicode="&#xd0;" horiz-adv-x="636" d="M120 535l-8 115h146q144 0 224.5 -89.5t78.5 -235.5t-83.5 -235.5t-225.5 -89.5h-132v314h-96v22h96v199zM384 314h-232v-288h106q129 0 200 82t69 217t-74 217t-201 82h-100v-288h232v-22z" />
<glyph unicode="&#xd1;" horiz-adv-x="670" d="M284 825q24 0 56 -21.5t49 -21.5q35 0 58 47l16 -5q-7 -29 -28 -51t-51 -22q-24 0 -55 21.5t-49 21.5q-34 0 -58 -47l-16 5q8 29 28 51t50 22zM120 535l-8 115l50 10l357 -632h2l-6 622l35 10v-660h-49l-352 623h-2l6 -623h-33v535z" />
<glyph unicode="&#xd2;" horiz-adv-x="661" d="M416 748l-9 -17q-92 27 -162 84l35 25q63 -55 136 -92zM586 325q-2 -149 -72.5 -242t-185.5 -93q-116 0 -185.5 93t-67.5 242t72.5 242t186.5 93q115 0 184.5 -93t67.5 -242zM109 325q2 -139 63 -225t162 -86q100 0 160 86.5t58 224.5q-2 139 -63 225t-161 86 q-101 0 -161 -86t-58 -225z" />
<glyph unicode="&#xd3;" horiz-adv-x="661" d="M416 816q-70 -57 -162 -84l-9 17q73 37 136 92zM586 325q-2 -149 -72.5 -242t-185.5 -93q-116 0 -185.5 93t-67.5 242t72.5 242t186.5 93q115 0 184.5 -93t67.5 -242zM109 325q2 -139 63 -225t162 -86q100 0 160 86.5t58 224.5q-2 139 -63 225t-161 86q-101 0 -161 -86 t-58 -225z" />
<glyph unicode="&#xd4;" horiz-adv-x="661" d="M226 732l-10 13q61 46 96 92l36 6q36 -50 97 -98l-10 -13q-58 29 -104 75q-48 -47 -105 -75zM586 325q-2 -149 -72.5 -242t-185.5 -93q-116 0 -185.5 93t-67.5 242t72.5 242t186.5 93q115 0 184.5 -93t67.5 -242zM109 325q2 -139 63 -225t162 -86q100 0 160 86.5 t58 224.5q-2 139 -63 225t-161 86q-101 0 -161 -86t-58 -225z" />
<glyph unicode="&#xd5;" horiz-adv-x="661" d="M586 325q-2 -149 -72.5 -242t-185.5 -93q-116 0 -185.5 93t-67.5 242t72.5 242t186.5 93q115 0 184.5 -93t67.5 -242zM109 325q2 -139 63 -225t162 -86q100 0 160 86.5t58 224.5q-2 139 -63 225t-161 86q-101 0 -161 -86t-58 -225z" />
<glyph unicode="&#xd6;" horiz-adv-x="661" d="M263 790q0 -41 -31 -41q-29 0 -29 34q0 17 8.5 29t23.5 12q13 0 20.5 -9.5t7.5 -24.5zM458 790q0 -41 -31 -41q-29 0 -29 34q0 17 8.5 29t23.5 12q13 0 20.5 -9.5t7.5 -24.5zM586 325q-2 -149 -72.5 -242t-185.5 -93q-116 0 -185.5 93t-67.5 242t72.5 242t186.5 93 q115 0 184.5 -93t67.5 -242zM109 325q2 -139 63 -225t162 -86q100 0 160 86.5t58 224.5q-2 139 -63 225t-161 86q-101 0 -161 -86t-58 -225z" />
<glyph unicode="&#xd7;" horiz-adv-x="566" d="M447 140l-163 166l-159 -158l-19 19l159 159l-165 168l17 16q55 -52 167 -166l159 159l19 -19l-159 -159q124 -126 163 -165l-1 -6z" />
<glyph unicode="&#xd8;" horiz-adv-x="661" d="M586 325q-2 -149 -72.5 -242t-185.5 -93q-114 0 -184 91l-88 -101l-21 19l93 107q-54 89 -53 219q2 149 72.5 242t186.5 93q119 0 189 -99l89 102l22 -18l-95 -110q48 -88 47 -210zM109 325q1 -112 43 -192l348 401q-62 102 -172 102q-101 0 -161 -86t-58 -225zM552 325 q-2 106 -38 182l-347 -400q63 -93 167 -93q100 0 160 86.5t58 224.5z" />
<glyph unicode="&#xd9;" horiz-adv-x="638" d="M404 748l-9 -17q-92 27 -162 84l35 25q63 -55 136 -92zM321 14q77 0 123.5 51.5t46.5 134.5v335l-8 115l40 10v-460q0 -93 -57.5 -151.5t-150.5 -58.5q-91 0 -145.5 58.5t-54.5 151.5v335l-8 115l40 10v-460q0 -82 48 -134t126 -52z" />
<glyph unicode="&#xda;" horiz-adv-x="638" d="M404 816q-70 -57 -162 -84l-9 17q73 37 136 92zM321 14q77 0 123.5 51.5t46.5 134.5v335l-8 115l40 10v-460q0 -93 -57.5 -151.5t-150.5 -58.5q-91 0 -145.5 58.5t-54.5 151.5v335l-8 115l40 10v-460q0 -82 48 -134t126 -52z" />
<glyph unicode="&#xdb;" horiz-adv-x="638" d="M214 732l-10 13q61 46 96 92l36 6q36 -50 97 -98l-10 -13q-58 29 -104 75q-48 -47 -105 -75zM321 14q77 0 123.5 51.5t46.5 134.5v335l-8 115l40 10v-460q0 -93 -57.5 -151.5t-150.5 -58.5q-91 0 -145.5 58.5t-54.5 151.5v335l-8 115l40 10v-460q0 -82 48 -134t126 -52z " />
<glyph unicode="&#xdc;" horiz-adv-x="638" d="M251 790q0 -41 -31 -41q-29 0 -29 34q0 17 8.5 29t23.5 12q13 0 20.5 -9.5t7.5 -24.5zM446 790q0 -41 -31 -41q-29 0 -29 34q0 17 8.5 29t23.5 12q13 0 20.5 -9.5t7.5 -24.5zM321 14q77 0 123.5 51.5t46.5 134.5v335l-8 115l40 10v-460q0 -93 -57.5 -151.5t-150.5 -58.5 q-91 0 -145.5 58.5t-54.5 151.5v335l-8 115l40 10v-460q0 -82 48 -134t126 -52z" />
<glyph unicode="&#xdd;" horiz-adv-x="517" d="M344 816q-70 -57 -162 -84l-9 17q73 37 136 92zM274 0h-32v212l-217 438l29 10l204 -410h1l204 410l29 -10l-218 -438v-212z" />
<glyph unicode="&#xde;" horiz-adv-x="516" d="M152 0h-32v535l-8 115h40v-118h87q104 0 163 -54.5t59 -142.5q0 -93 -61.5 -148t-166.5 -55h-81v-132zM233 506h-81v-348h87q89 0 138.5 48t49.5 129q0 79 -50 125t-144 46z" />
<glyph unicode="&#xdf;" horiz-adv-x="524" d="M427 164q0 79 -58 136.5t-152 86.5v19q67 13 111.5 52t44.5 95q0 51 -34.5 84.5t-86.5 33.5q-23 0 -44 -7.5t-43 -25.5t-35 -55.5t-13 -90.5v-492h-30v455l-57 1v15l57 5v13q0 58 16 100.5t42.5 64.5t54 31.5t56.5 9.5q62 0 105.5 -39t43.5 -99q0 -58 -40.5 -103 t-102.5 -59q89 -30 143 -93.5t54 -142.5q0 -73 -45.5 -121t-122.5 -48q-51 0 -106 19v26q57 -21 104 -21q60 0 99 42t39 108z" />
<glyph unicode="&#xe0;" horiz-adv-x="491" d="M288 587l-14 -5q-59 62 -94 149l36 2q25 -78 72 -146zM378 -10q-21 43 -24 74q-30 -29 -76 -51.5t-96 -22.5q-56 0 -89 31.5t-33 79.5q0 56 44.5 96.5t109 58.5t139.5 19v93q0 118 -114 118q-78 0 -148 -54l-10 28q70 50 158 50q69 0 106.5 -35.5t37.5 -103.5 q0 -7 -1 -120t-1 -130q0 -67 25 -121zM92 104q0 -40 27 -65t74 -25q41 0 88 23.5t72 54.5v160q-111 -2 -186 -39t-75 -109z" />
<glyph unicode="&#xe1;" horiz-adv-x="491" d="M288 731q-35 -87 -94 -149l-14 5q47 68 72 146zM378 -10q-21 43 -24 74q-30 -29 -76 -51.5t-96 -22.5q-56 0 -89 31.5t-33 79.5q0 56 44.5 96.5t109 58.5t139.5 19v93q0 118 -114 118q-78 0 -148 -54l-10 28q70 50 158 50q69 0 106.5 -35.5t37.5 -103.5q0 -7 -1 -120 t-1 -130q0 -67 25 -121zM92 104q0 -40 27 -65t74 -25q41 0 88 23.5t72 54.5v160q-111 -2 -186 -39t-75 -109z" />
<glyph unicode="&#xe2;" horiz-adv-x="491" d="M140 582l-9 9q55 71 86 140l32 6q29 -67 87 -146l-9 -9q-50 46 -93 122q-46 -78 -94 -122zM378 -10q-21 43 -24 74q-30 -29 -76 -51.5t-96 -22.5q-56 0 -89 31.5t-33 79.5q0 56 44.5 96.5t109 58.5t139.5 19v93q0 118 -114 118q-78 0 -148 -54l-10 28q70 50 158 50 q69 0 106.5 -35.5t37.5 -103.5q0 -7 -1 -120t-1 -130q0 -67 25 -121zM92 104q0 -40 27 -65t74 -25q41 0 88 23.5t72 54.5v160q-111 -2 -186 -39t-75 -109z" />
<glyph unicode="&#xe3;" horiz-adv-x="491" d="M174 703q25 0 59.5 -24t51.5 -24q35 0 55 51l14 -4q-3 -29 -23.5 -53t-50.5 -24q-25 0 -58.5 24t-51.5 24q-35 0 -55 -51l-14 4q4 28 24 52.5t49 24.5zM378 -10q-21 43 -24 74q-30 -29 -76 -51.5t-96 -22.5q-56 0 -89 31.5t-33 79.5q0 56 44.5 96.5t109 58.5t139.5 19v93 q0 118 -114 118q-78 0 -148 -54l-10 28q70 50 158 50q69 0 106.5 -35.5t37.5 -103.5q0 -7 -1 -120t-1 -130q0 -67 25 -121zM92 104q0 -40 27 -65t74 -25q41 0 88 23.5t72 54.5v160q-111 -2 -186 -39t-75 -109z" />
<glyph unicode="&#xe4;" horiz-adv-x="491" d="M181 659q0 -41 -31 -41q-29 0 -29 34q0 17 8.5 29t23.5 12q13 0 20.5 -9.5t7.5 -24.5zM346 659q0 -41 -31 -41q-29 0 -29 34q0 17 8.5 29t23.5 12q13 0 20.5 -9.5t7.5 -24.5zM378 -10q-21 43 -24 74q-30 -29 -76 -51.5t-96 -22.5q-56 0 -89 31.5t-33 79.5q0 56 44.5 96.5 t109 58.5t139.5 19v93q0 118 -114 118q-78 0 -148 -54l-10 28q70 50 158 50q69 0 106.5 -35.5t37.5 -103.5q0 -7 -1 -120t-1 -130q0 -67 25 -121zM92 104q0 -40 27 -65t74 -25q41 0 88 23.5t72 54.5v160q-111 -2 -186 -39t-75 -109z" />
<glyph unicode="&#xe5;" horiz-adv-x="491" d="M309 664q0 -34 -23 -58t-55 -24q-31 0 -52 21.5t-21 52.5q0 34 23.5 58t56.5 24q31 0 51 -21t20 -53zM188 659q0 -23 12.5 -37.5t31.5 -14.5t33 15.5t14 38.5t-12.5 37.5t-31.5 14.5q-20 0 -33.5 -15.5t-13.5 -38.5zM378 -10q-21 43 -24 74q-30 -29 -76 -51.5t-96 -22.5 q-56 0 -89 31.5t-33 79.5q0 56 44.5 96.5t109 58.5t139.5 19v93q0 118 -114 118q-78 0 -148 -54l-10 28q70 50 158 50q69 0 106.5 -35.5t37.5 -103.5q0 -7 -1 -120t-1 -130q0 -67 25 -121zM92 104q0 -40 27 -65t74 -25q41 0 88 23.5t72 54.5v160q-111 -2 -186 -39t-75 -109z " />
<glyph unicode="&#xe6;" horiz-adv-x="772" d="M687 21q-60 -31 -130 -31q-123 0 -176 102q-31 -38 -85.5 -70t-113.5 -32q-56 0 -89 31.5t-33 79.5q0 82 87.5 127t205.5 47v5v88q0 118 -114 118q-78 0 -148 -54l-10 28q70 50 158 50q63 0 99.5 -32t40.5 -92q26 59 70.5 91.5t100.5 32.5q73 0 117.5 -50.5t44.5 -132.5 q0 -38 -1 -57l-5 -15h-324v-6q0 -113 48 -173.5t131 -60.5q69 0 128 37zM550 486q-69 0 -114.5 -54t-52.5 -153l296 6q1 14 1 41q0 75 -34 117.5t-96 42.5zM92 105q0 -41 26.5 -66t71.5 -25q48 0 99.5 28.5t82.5 70.5q-21 52 -21 124v15q-110 -2 -184.5 -39t-74.5 -108z" />
<glyph unicode="&#xe7;" horiz-adv-x="464" d="M319 -110q0 31 -67 39l21 61q-99 0 -153.5 65.5t-54.5 181.5q0 131 65 202t162 71q65 0 111 -33l-6 -35q-47 43 -119 43q-78 0 -129.5 -61.5t-51.5 -176.5q0 -111 48 -171.5t131 -60.5q69 0 128 37l-2 -31q-45 -25 -104 -30l-16 -45q69 -14 69 -53q0 -30 -34.5 -47.5 t-79.5 -19.5l-1 18q83 11 83 46z" />
<glyph unicode="&#xe8;" horiz-adv-x="487" d="M306 587l-14 -5q-59 62 -94 149l36 2q25 -78 72 -146zM402 21q-60 -31 -130 -31q-98 0 -152.5 65.5t-54.5 181.5q0 120 55.5 196.5t144.5 76.5q73 0 117.5 -50.5t44.5 -132.5q0 -38 -1 -57l-5 -15h-324v-6q0 -113 48 -173.5t131 -60.5q69 0 128 37zM265 486 q-69 0 -114.5 -54t-52.5 -153l296 6q1 14 1 41q0 75 -34 117.5t-96 42.5z" />
<glyph unicode="&#xe9;" horiz-adv-x="487" d="M306 731q-35 -87 -94 -149l-14 5q47 68 72 146zM402 21q-60 -31 -130 -31q-98 0 -152.5 65.5t-54.5 181.5q0 120 55.5 196.5t144.5 76.5q73 0 117.5 -50.5t44.5 -132.5q0 -38 -1 -57l-5 -15h-324v-6q0 -113 48 -173.5t131 -60.5q69 0 128 37zM265 486q-69 0 -114.5 -54 t-52.5 -153l296 6q1 14 1 41q0 75 -34 117.5t-96 42.5z" />
<glyph unicode="&#xea;" horiz-adv-x="487" d="M158 582l-9 9q55 71 86 140l32 6q29 -67 87 -146l-9 -9q-50 46 -93 122q-46 -78 -94 -122zM402 21q-60 -31 -130 -31q-98 0 -152.5 65.5t-54.5 181.5q0 120 55.5 196.5t144.5 76.5q73 0 117.5 -50.5t44.5 -132.5q0 -38 -1 -57l-5 -15h-324v-6q0 -113 48 -173.5t131 -60.5 q69 0 128 37zM265 486q-69 0 -114.5 -54t-52.5 -153l296 6q1 14 1 41q0 75 -34 117.5t-96 42.5z" />
<glyph unicode="&#xeb;" horiz-adv-x="487" d="M199 659q0 -41 -31 -41q-29 0 -29 34q0 17 8.5 29t23.5 12q13 0 20.5 -9.5t7.5 -24.5zM364 659q0 -41 -31 -41q-29 0 -29 34q0 17 8.5 29t23.5 12q13 0 20.5 -9.5t7.5 -24.5zM402 21q-60 -31 -130 -31q-98 0 -152.5 65.5t-54.5 181.5q0 120 55.5 196.5t144.5 76.5 q73 0 117.5 -50.5t44.5 -132.5q0 -38 -1 -57l-5 -15h-324v-6q0 -113 48 -173.5t131 -60.5q69 0 128 37zM265 486q-69 0 -114.5 -54t-52.5 -153l296 6q1 14 1 41q0 75 -34 117.5t-96 42.5z" />
<glyph unicode="&#xec;" horiz-adv-x="213" d="M165 587l-14 -5q-59 62 -94 149l36 2q25 -78 72 -146zM123 0h-30v385l-8 115l38 10v-510z" />
<glyph unicode="&#xed;" horiz-adv-x="213" d="M165 731q-35 -87 -94 -149l-14 5q47 68 72 146zM123 0h-30v385l-8 115l38 10v-510z" />
<glyph unicode="&#xee;" horiz-adv-x="213" d="M50 582l-11 7q28 61 55 142l32 6q25 -79 56 -148l-11 -7q-32 56 -60 120q-31 -68 -61 -120zM123 0h-30v385l-8 115l38 10v-510z" />
<glyph unicode="&#xef;" horiz-adv-x="213" d="M88 662q0 -41 -31 -41q-29 0 -29 34q0 17 8.5 29t23.5 12q13 0 20.5 -9.5t7.5 -24.5zM193 662q0 -41 -31 -41q-29 0 -29 34q0 17 8.5 29t23.5 12q13 0 20.5 -9.5t7.5 -24.5zM123 0h-30v385l-8 115l38 10v-510z" />
<glyph unicode="&#xf0;" horiz-adv-x="529" d="M147 695q76 -24 140 -77l136 66l13 -21l-129 -63q68 -64 107.5 -154t39.5 -192q0 -130 -61 -197t-148 -67q-82 0 -131 59.5t-49 164.5q0 121 61.5 188.5t146.5 67.5q91 0 132 -77q-39 113 -128 193l-128 -62l-11 21l118 58q-54 43 -121 67zM97 221q0 -98 42 -152.5 t114 -54.5q73 0 121 56.5t47 166.5q-2 97 -42.5 153t-110.5 56q-73 0 -122 -59t-49 -166z" />
<glyph unicode="&#xf1;" horiz-adv-x="524" d="M205 703q25 0 59.5 -24t51.5 -24q35 0 55 51l14 -4q-3 -29 -24 -53t-50 -24q-25 0 -58.5 24t-51.5 24q-35 0 -55 -51l-14 4q4 28 24 52.5t49 24.5zM123 0h-30v385l-8 115l38 10v-79q74 79 169 79q74 0 108 -48t34 -121v-341h-30v330q0 77 -30.5 116.5t-87.5 39.5 q-90 0 -163 -88v-398z" />
<glyph unicode="&#xf2;" horiz-adv-x="547" d="M328 587l-14 -5q-59 62 -94 149l36 2q25 -78 72 -146zM482 264q0 -131 -66 -202.5t-159 -71.5q-87 0 -139.5 65t-52.5 179q0 131 66 203.5t159 72.5q87 0 139.5 -65.5t52.5 -180.5zM97 240q0 -106 46 -166t122 -60q78 0 131.5 63.5t53.5 179.5q0 105 -45.5 167t-122.5 62 q-78 0 -131.5 -64.5t-53.5 -181.5z" />
<glyph unicode="&#xf3;" horiz-adv-x="547" d="M328 731q-35 -87 -94 -149l-14 5q47 68 72 146zM482 264q0 -131 -66 -202.5t-159 -71.5q-87 0 -139.5 65t-52.5 179q0 131 66 203.5t159 72.5q87 0 139.5 -65.5t52.5 -180.5zM97 240q0 -106 46 -166t122 -60q78 0 131.5 63.5t53.5 179.5q0 105 -45.5 167t-122.5 62 q-78 0 -131.5 -64.5t-53.5 -181.5z" />
<glyph unicode="&#xf4;" horiz-adv-x="547" d="M180 582l-9 9q55 71 86 140l32 6q29 -67 87 -146l-9 -9q-50 46 -93 122q-46 -78 -94 -122zM482 264q0 -131 -66 -202.5t-159 -71.5q-87 0 -139.5 65t-52.5 179q0 131 66 203.5t159 72.5q87 0 139.5 -65.5t52.5 -180.5zM97 240q0 -106 46 -166t122 -60q78 0 131.5 63.5 t53.5 179.5q0 105 -45.5 167t-122.5 62q-78 0 -131.5 -64.5t-53.5 -181.5z" />
<glyph unicode="&#xf5;" horiz-adv-x="547" d="M214 703q25 0 59.5 -24t51.5 -24q35 0 55 51l14 -4q-3 -29 -23.5 -53t-50.5 -24q-25 0 -58.5 24t-51.5 24q-35 0 -55 -51l-14 4q4 28 24 52.5t49 24.5zM482 264q0 -131 -66 -202.5t-159 -71.5q-87 0 -139.5 65t-52.5 179q0 131 66 203.5t159 72.5q87 0 139.5 -65.5 t52.5 -180.5zM97 240q0 -106 46 -166t122 -60q78 0 131.5 63.5t53.5 179.5q0 105 -45.5 167t-122.5 62q-78 0 -131.5 -64.5t-53.5 -181.5z" />
<glyph unicode="&#xf6;" horiz-adv-x="547" d="M221 659q0 -41 -31 -41q-29 0 -29 34q0 17 8.5 29t23.5 12q13 0 20.5 -9.5t7.5 -24.5zM386 659q0 -41 -31 -41q-29 0 -29 34q0 17 8.5 29t23.5 12q13 0 20.5 -9.5t7.5 -24.5zM482 264q0 -131 -66 -202.5t-159 -71.5q-87 0 -139.5 65t-52.5 179q0 131 66 203.5t159 72.5 q87 0 139.5 -65.5t52.5 -180.5zM97 240q0 -106 46 -166t122 -60q78 0 131.5 63.5t53.5 179.5q0 105 -45.5 167t-122.5 62q-78 0 -131.5 -64.5t-53.5 -181.5z" />
<glyph unicode="&#xf7;" horiz-adv-x="589" d="M328 491q0 -18 -8.5 -30.5t-25.5 -12.5q-15 0 -23.5 11t-8.5 28t10 30t25 13q31 0 31 -39zM484 312h-384v23q132 3 385 3zM328 164q0 -18 -8.5 -30.5t-25.5 -12.5q-15 0 -23.5 11t-8.5 28t10 30t25 13q31 0 31 -39z" />
<glyph unicode="&#xf8;" horiz-adv-x="547" d="M482 264q0 -131 -66 -202.5t-159 -71.5q-92 0 -144 71l-50 -54l-18 16l55 58q-35 61 -35 153q0 131 66 203.5t159 72.5q92 0 143 -71l51 54l19 -16l-56 -60q35 -59 35 -153zM97 240q0 -79 26 -133l288 308q-46 71 -129 71q-78 0 -131.5 -64.5t-53.5 -181.5zM450 257 q0 81 -27 135l-287 -307q45 -71 129 -71q78 0 131.5 63.5t53.5 179.5z" />
<glyph unicode="&#xf9;" horiz-adv-x="525" d="M319 587l-14 -5q-59 62 -94 149l36 2q25 -78 72 -146zM90 159v341l30 10v-340q0 -76 30 -116t80 -40q38 0 80 23t75 65v398l30 10v-405q0 -63 25 -105l-28 -10q-23 37 -26 79q-73 -79 -162 -79q-67 0 -100.5 49t-33.5 120z" />
<glyph unicode="&#xfa;" horiz-adv-x="525" d="M319 731q-35 -87 -94 -149l-14 5q47 68 72 146zM90 159v341l30 10v-340q0 -76 30 -116t80 -40q38 0 80 23t75 65v398l30 10v-405q0 -63 25 -105l-28 -10q-23 37 -26 79q-73 -79 -162 -79q-67 0 -100.5 49t-33.5 120z" />
<glyph unicode="&#xfb;" horiz-adv-x="525" d="M171 582l-9 9q55 71 86 140l32 6q29 -67 87 -146l-9 -9q-50 46 -93 122q-46 -78 -94 -122zM90 159v341l30 10v-340q0 -76 30 -116t80 -40q38 0 80 23t75 65v398l30 10v-405q0 -63 25 -105l-28 -10q-23 37 -26 79q-73 -79 -162 -79q-67 0 -100.5 49t-33.5 120z" />
<glyph unicode="&#xfc;" horiz-adv-x="525" d="M212 659q0 -41 -31 -41q-29 0 -29 34q0 17 8.5 29t23.5 12q13 0 20.5 -9.5t7.5 -24.5zM377 659q0 -41 -31 -41q-29 0 -29 34q0 17 8.5 29t23.5 12q13 0 20.5 -9.5t7.5 -24.5zM90 159v341l30 10v-340q0 -76 30 -116t80 -40q38 0 80 23t75 65v398l30 10v-405q0 -63 25 -105 l-28 -10q-23 37 -26 79q-73 -79 -162 -79q-67 0 -100.5 49t-33.5 120z" />
<glyph unicode="&#xfd;" horiz-adv-x="445" d="M284 731q-35 -87 -94 -149l-14 5q47 68 72 146zM11 -195q-33 0 -65 9v28q39 -13 82 -13q62 0 111.5 44t77.5 127h-7l-176 501l30 9l162 -476h2l162 476l25 -9q-66 -205 -175 -502q-41 -108 -94.5 -151t-134.5 -43z" />
<glyph unicode="&#xfe;" horiz-adv-x="525" d="M93 570l-8 115l38 10v-242q60 57 145 57q87 0 139.5 -65t52.5 -179q0 -131 -66 -203.5t-159 -72.5q-63 0 -112 36v-65q0 -82 10 -146l-40 -10v765zM260 486q-86 0 -137 -70v-353q46 -49 119 -49q83 0 134.5 67t51.5 179q0 106 -46 166t-122 60z" />
<glyph unicode="&#xff;" horiz-adv-x="445" d="M177 659q0 -41 -31 -41q-29 0 -29 34q0 17 8.5 29t23.5 12q13 0 20.5 -9.5t7.5 -24.5zM342 659q0 -41 -31 -41q-29 0 -29 34q0 17 8.5 29t23.5 12q13 0 20.5 -9.5t7.5 -24.5zM11 -195q-33 0 -65 9v28q39 -13 82 -13q62 0 111.5 44t77.5 127h-7l-176 501l30 9l162 -476h2 l162 476l25 -9q-66 -205 -175 -502q-41 -108 -94.5 -151t-134.5 -43z" />
<glyph unicode="&#x100;" horiz-adv-x="560" d="M170 770v33h220v-33h-220zM68 0h-33l179 532l39 118l52 10l220 -660h-33l-61 182h-302zM280 628l-140 -416h281l-140 416h-1z" />
<glyph unicode="&#x101;" horiz-adv-x="491" d="M134 646v26h200v-26h-200zM378 -10q-21 43 -24 74q-30 -29 -76 -51.5t-96 -22.5q-56 0 -89 31.5t-33 79.5q0 56 44.5 96.5t109 58.5t139.5 19v93q0 118 -114 118q-78 0 -148 -54l-10 28q70 50 158 50q69 0 106.5 -35.5t37.5 -103.5q0 -7 -1 -120t-1 -130q0 -67 25 -121z M92 104q0 -40 27 -65t74 -25q41 0 88 23.5t72 54.5v160q-111 -2 -186 -39t-75 -109z" />
<glyph unicode="&#x102;" horiz-adv-x="560" d="M280 737q-40 0 -71 30t-35 68l15 4q31 -68 91 -68q58 0 89 70l17 4q-5 -45 -35.5 -76.5t-70.5 -31.5zM68 0h-33l179 532l39 118l52 10l220 -660h-33l-61 182h-302zM280 628l-140 -416h281l-140 416h-1z" />
<glyph unicode="&#x103;" horiz-adv-x="491" d="M230 588q-40 0 -67.5 35.5t-29.5 99.5l18 4q17 -111 83 -111t84 113l17 4q-3 -67 -31.5 -106t-73.5 -39zM378 -10q-21 43 -24 74q-30 -29 -76 -51.5t-96 -22.5q-56 0 -89 31.5t-33 79.5q0 56 44.5 96.5t109 58.5t139.5 19v93q0 118 -114 118q-78 0 -148 -54l-10 28 q70 50 158 50q69 0 106.5 -35.5t37.5 -103.5q0 -7 -1 -120t-1 -130q0 -67 25 -121zM92 104q0 -40 27 -65t74 -25q41 0 88 23.5t72 54.5v160q-111 -2 -186 -39t-75 -109z" />
<glyph unicode="&#x104;" horiz-adv-x="560" d="M68 0h-33l179 532l39 118l52 10l220 -660h-1q-45 -17 -76 -49t-31 -62q0 -42 48 -42q24 0 51 15l7 -16q-26 -22 -69 -22q-31 0 -50 15t-19 42q0 35 29.5 69t75.5 55l-59 177h-302zM280 628l-140 -416h281l-140 416h-1z" />
<glyph unicode="&#x105;" horiz-adv-x="491" d="M406 0q-45 -17 -76 -49t-31 -62q0 -42 48 -42q24 0 51 15l7 -16q-26 -22 -69 -22q-31 0 -50 15t-19 42q0 35 29 68.5t75 54.5q-13 28 -17 60q-30 -29 -76 -51.5t-96 -22.5q-56 0 -89 31.5t-33 79.5q0 56 44.5 96.5t109 58.5t139.5 19v93q0 118 -114 118q-78 0 -148 -54 l-10 28q70 50 158 50q69 0 106.5 -35.5t37.5 -103.5q0 -7 -1 -120t-1 -130q0 -67 25 -121zM92 104q0 -40 27 -65t74 -25q41 0 88 23.5t72 54.5v160q-111 -2 -186 -39t-75 -109z" />
<glyph unicode="&#x106;" horiz-adv-x="533" d="M412 816q-70 -57 -162 -84l-9 17q73 37 136 92zM482 57l6 -28q-64 -39 -152 -39q-123 0 -193 92.5t-68 242.5q2 151 72 243t192 92q84 0 147 -34l-11 -34q-60 44 -142 44q-107 0 -166.5 -85.5t-57.5 -225.5q2 -139 63.5 -224.5t167.5 -85.5q88 0 142 42z" />
<glyph unicode="&#x107;" horiz-adv-x="464" d="M310 731q-35 -87 -94 -149l-14 5q47 68 72 146zM403 477l-6 -35q-47 43 -119 43q-78 0 -129.5 -61.5t-51.5 -176.5q0 -111 48 -171.5t131 -60.5q69 0 128 37l-2 -31q-60 -31 -129 -31q-99 0 -153.5 65.5t-54.5 181.5q0 131 65 202t162 71q65 0 111 -33z" />
<glyph unicode="&#x108;" horiz-adv-x="533" d="M222 732l-10 13q61 46 96 92l36 6q36 -50 97 -98l-10 -13q-58 29 -104 75q-48 -47 -105 -75zM482 57l6 -28q-64 -39 -152 -39q-123 0 -193 92.5t-68 242.5q2 151 72 243t192 92q84 0 147 -34l-11 -34q-60 44 -142 44q-107 0 -166.5 -85.5t-57.5 -225.5 q2 -139 63.5 -224.5t167.5 -85.5q88 0 142 42z" />
<glyph unicode="&#x109;" horiz-adv-x="464" d="M162 582l-9 9q55 71 86 140l32 6q29 -67 87 -146l-9 -9q-50 46 -93 122q-46 -78 -94 -122zM403 477l-6 -35q-47 43 -119 43q-78 0 -129.5 -61.5t-51.5 -176.5q0 -111 48 -171.5t131 -60.5q69 0 128 37l-2 -31q-60 -31 -129 -31q-99 0 -153.5 65.5t-54.5 181.5 q0 131 65 202t162 71q65 0 111 -33z" />
<glyph unicode="&#x10a;" horiz-adv-x="533" d="M356 792q0 -44 -30 -44q-13 0 -20.5 10.5t-7.5 26.5q0 18 8.5 30.5t22.5 12.5q27 0 27 -36zM482 57l6 -28q-64 -39 -152 -39q-123 0 -193 92.5t-68 242.5q2 151 72 243t192 92q84 0 147 -34l-11 -34q-60 44 -142 44q-107 0 -166.5 -85.5t-57.5 -225.5q2 -139 63.5 -224.5 t167.5 -85.5q88 0 142 42z" />
<glyph unicode="&#x10b;" horiz-adv-x="464" d="M285 659q0 -44 -30 -44q-13 0 -20.5 10.5t-7.5 26.5q0 18 8.5 30.5t22.5 12.5q27 0 27 -36zM403 477l-6 -35q-47 43 -119 43q-78 0 -129.5 -61.5t-51.5 -176.5q0 -111 48 -171.5t131 -60.5q69 0 128 37l-2 -31q-60 -31 -129 -31q-99 0 -153.5 65.5t-54.5 181.5 q0 131 65 202t162 71q65 0 111 -33z" />
<glyph unicode="&#x10c;" horiz-adv-x="533" d="M431 842l10 -13q-61 -46 -96 -92l-36 -6q-36 50 -97 98l10 13q58 -29 104 -75q48 47 105 75zM482 57l6 -28q-64 -39 -152 -39q-123 0 -193 92.5t-68 242.5q2 151 72 243t192 92q84 0 147 -34l-11 -34q-60 44 -142 44q-107 0 -166.5 -85.5t-57.5 -225.5 q2 -139 63.5 -224.5t167.5 -85.5q88 0 142 42z" />
<glyph unicode="&#x10d;" horiz-adv-x="464" d="M349 737l9 -9q-55 -71 -86 -140l-32 -6q-29 67 -87 146l9 9q50 -46 93 -122q46 78 94 122zM403 477l-6 -35q-47 43 -119 43q-78 0 -129.5 -61.5t-51.5 -176.5q0 -111 48 -171.5t131 -60.5q69 0 128 37l-2 -31q-60 -31 -129 -31q-99 0 -153.5 65.5t-54.5 181.5 q0 131 65 202t162 71q65 0 111 -33z" />
<glyph unicode="&#x10e;" horiz-adv-x="636" d="M420 842l10 -13q-61 -46 -96 -92l-36 -6q-36 50 -97 98l10 13q58 -29 104 -75q48 47 105 75zM120 535l-8 115h146q144 0 224.5 -89.5t78.5 -235.5t-83.5 -235.5t-225.5 -89.5h-132v535zM252 624h-100v-598h106q129 0 200 82t69 217t-74 217t-201 82z" />
<glyph unicode="&#x10f;" horiz-adv-x="542" d="M557 741q-21 -100 -68 -187l-14 6q32 87 49 183zM429 -10q-14 27 -22 62q-61 -62 -150 -62q-87 0 -139.5 65t-52.5 179q0 131 66 203.5t159 72.5q63 0 112 -36v96l-8 115l38 10v-549q0 -79 25 -146zM97 240q0 -106 46 -166t122 -60q86 0 137 70v6v347q-46 49 -119 49 q-83 0 -134.5 -67t-51.5 -179z" />
<glyph unicode="&#x110;" horiz-adv-x="636" d="M120 535l-8 115h146q144 0 224.5 -89.5t78.5 -235.5t-83.5 -235.5t-225.5 -89.5h-132v314h-96v22h96v199zM384 314h-232v-288h106q129 0 200 82t69 217t-74 217t-201 82h-100v-288h232v-22z" />
<glyph unicode="&#x111;" horiz-adv-x="542" d="M429 -10q-14 27 -22 62q-61 -62 -150 -62q-87 0 -139.5 65t-52.5 179q0 131 66 203.5t159 72.5q63 0 112 -36v96v1h-229v22h227l-6 92l38 10v-102h101v-22h-101v-425q0 -79 25 -146zM97 240q0 -106 46 -166t122 -60q86 0 137 70v6v347q-46 49 -119 49q-83 0 -134.5 -67 t-51.5 -179z" />
<glyph unicode="&#x112;" horiz-adv-x="496" d="M167 770v33h220v-33h-220zM436 0h-316v535l-8 115h329l-5 -31l-284 5v-289l199 3l-5 -31l-194 2v-283l289 5z" />
<glyph unicode="&#x113;" horiz-adv-x="487" d="M152 646v26h200v-26h-200zM402 21q-60 -31 -130 -31q-98 0 -152.5 65.5t-54.5 181.5q0 120 55.5 196.5t144.5 76.5q73 0 117.5 -50.5t44.5 -132.5q0 -38 -1 -57l-5 -15h-324v-6q0 -113 48 -173.5t131 -60.5q69 0 128 37zM265 486q-69 0 -114.5 -54t-52.5 -153l296 6 q1 14 1 41q0 75 -34 117.5t-96 42.5z" />
<glyph unicode="&#x114;" horiz-adv-x="496" d="M277 737q-40 0 -71 30t-35 68l15 4q31 -68 91 -68q57 0 89 70l17 4q-5 -45 -35.5 -76.5t-70.5 -31.5zM436 0h-316v535l-8 115h329l-5 -31l-284 5v-289l199 3l-5 -31l-194 2v-283l289 5z" />
<glyph unicode="&#x115;" horiz-adv-x="487" d="M248 588q-40 0 -67.5 35.5t-29.5 99.5l18 4q17 -111 83 -111t84 113l17 4q-3 -67 -31.5 -106t-73.5 -39zM402 21q-60 -31 -130 -31q-98 0 -152.5 65.5t-54.5 181.5q0 120 55.5 196.5t144.5 76.5q73 0 117.5 -50.5t44.5 -132.5q0 -38 -1 -57l-5 -15h-324v-6 q0 -113 48 -173.5t131 -60.5q69 0 128 37zM265 486q-69 0 -114.5 -54t-52.5 -153l296 6q1 14 1 41q0 75 -34 117.5t-96 42.5z" />
<glyph unicode="&#x116;" horiz-adv-x="496" d="M306 792q0 -44 -30 -44q-13 0 -20.5 10.5t-7.5 26.5q0 18 8.5 30.5t22.5 12.5q27 0 27 -36zM436 0h-316v535l-8 115h329l-5 -31l-284 5v-289l199 3l-5 -31l-194 2v-283l289 5z" />
<glyph unicode="&#x117;" horiz-adv-x="487" d="M281 659q0 -44 -30 -44q-13 0 -20.5 10.5t-7.5 26.5q0 18 8.5 30.5t22.5 12.5q27 0 27 -36zM402 21q-60 -31 -130 -31q-98 0 -152.5 65.5t-54.5 181.5q0 120 55.5 196.5t144.5 76.5q73 0 117.5 -50.5t44.5 -132.5q0 -38 -1 -57l-5 -15h-324v-6q0 -113 48 -173.5 t131 -60.5q69 0 128 37zM265 486q-69 0 -114.5 -54t-52.5 -153l296 6q1 14 1 41q0 75 -34 117.5t-96 42.5z" />
<glyph unicode="&#x118;" horiz-adv-x="496" d="M435 0q-45 -17 -76 -49t-31 -62q0 -42 48 -42q24 0 51 15l7 -16q-26 -22 -69 -22q-31 0 -50 15t-19 42q0 32 26.5 65t68.5 54h-271v535l-8 115h329l-5 -31l-284 5v-289l199 3l-5 -31l-194 2v-283l289 5l-5 -31h-1z" />
<glyph unicode="&#x119;" horiz-adv-x="487" d="M402 21q-50 -30 -81 -65t-31 -67q0 -42 48 -42q24 0 51 15l7 -16q-26 -22 -69 -22q-31 0 -50 15t-19 42q0 57 74 115q-28 -6 -60 -6q-98 0 -152.5 65.5t-54.5 181.5q0 120 55.5 196.5t144.5 76.5q73 0 117.5 -50.5t44.5 -132.5q0 -38 -1 -57l-5 -15h-324v-6 q0 -113 48 -173.5t131 -60.5q69 0 128 37zM265 486q-69 0 -114.5 -54t-52.5 -153l296 6q1 14 1 41q0 75 -34 117.5t-96 42.5z" />
<glyph unicode="&#x11a;" horiz-adv-x="496" d="M381 842l10 -13q-61 -46 -96 -92l-36 -6q-36 50 -97 98l10 13q58 -29 104 -75q48 47 105 75zM436 0h-316v535l-8 115h329l-5 -31l-284 5v-289l199 3l-5 -31l-194 2v-283l289 5z" />
<glyph unicode="&#x11b;" horiz-adv-x="487" d="M345 737l9 -9q-55 -71 -86 -140l-32 -6q-29 67 -87 146l9 9q50 -46 93 -122q46 78 94 122zM402 21q-60 -31 -130 -31q-98 0 -152.5 65.5t-54.5 181.5q0 120 55.5 196.5t144.5 76.5q73 0 117.5 -50.5t44.5 -132.5q0 -38 -1 -57l-5 -15h-324v-6q0 -113 48 -173.5t131 -60.5 q69 0 128 37zM265 486q-69 0 -114.5 -54t-52.5 -153l296 6q1 14 1 41q0 75 -34 117.5t-96 42.5z" />
<glyph unicode="&#x11c;" horiz-adv-x="612" d="M224 732l-10 13q61 46 96 92l36 6q36 -50 97 -98l-10 -13q-58 29 -104 75q-48 -47 -105 -75zM512 29q-66 -39 -158 -39q-131 0 -206 92.5t-73 242.5t77.5 242.5t206.5 92.5q83 0 148 -34l-11 -34q-61 44 -148 44q-112 0 -176.5 -86t-62.5 -225t68.5 -224.5t182.5 -85.5 q68 0 120 26v102l-8 115l40 10v-239z" />
<glyph unicode="&#x11d;" horiz-adv-x="471" d="M137 582l-9 9q55 71 86 140l32 6q29 -67 87 -146l-9 -9q-50 46 -93 122q-46 -78 -94 -122zM119 114q0 35 39 56q-40 19 -63 59t-23 95q0 80 47 133t122 53q121 0 210 5v-31l-143 4v-1q37 -17 59.5 -60t22.5 -94q0 -79 -46.5 -128.5t-116.5 -49.5q-24 0 -50 8 q-28 -20 -28 -45q0 -43 87 -51l56 -5q158 -14 158 -111q0 -63 -64.5 -104.5t-167.5 -41.5q-88 0 -138 31t-50 84q0 49 39.5 84.5t92.5 52.5q-43 19 -43 57zM104 330q0 -65 34.5 -108t95.5 -43q60 0 92 41.5t32 112.5q0 67 -30.5 110t-90.5 43q-62 0 -97.5 -45t-35.5 -111z M62 -75q0 -44 42 -70t116 -26q87 0 142.5 33.5t55.5 85.5q0 39 -35 62.5t-99 28.5l-79 7q-61 -11 -102 -44t-41 -77z" />
<glyph unicode="&#x11e;" horiz-adv-x="612" d="M329 737q-40 0 -71 30t-35 68l15 4q31 -68 91 -68q57 0 89 70l17 4q-5 -45 -35.5 -76.5t-70.5 -31.5zM512 29q-66 -39 -158 -39q-131 0 -206 92.5t-73 242.5t77.5 242.5t206.5 92.5q83 0 148 -34l-11 -34q-61 44 -148 44q-112 0 -176.5 -86t-62.5 -225t68.5 -224.5 t182.5 -85.5q68 0 120 26v102l-8 115l40 10v-239z" />
<glyph unicode="&#x11f;" horiz-adv-x="471" d="M227 588q-40 0 -67.5 35.5t-29.5 99.5l18 4q17 -111 83 -111t84 113l17 4q-3 -67 -31.5 -106t-73.5 -39zM119 114q0 35 39 56q-40 19 -63 59t-23 95q0 80 47 133t122 53q121 0 210 5v-31l-143 4v-1q37 -17 59.5 -60t22.5 -94q0 -79 -46.5 -128.5t-116.5 -49.5 q-24 0 -50 8q-28 -20 -28 -45q0 -43 87 -51l56 -5q158 -14 158 -111q0 -63 -64.5 -104.5t-167.5 -41.5q-88 0 -138 31t-50 84q0 49 39.5 84.5t92.5 52.5q-43 19 -43 57zM104 330q0 -65 34.5 -108t95.5 -43q60 0 92 41.5t32 112.5q0 67 -30.5 110t-90.5 43q-62 0 -97.5 -45 t-35.5 -111zM62 -75q0 -44 42 -70t116 -26q87 0 142.5 33.5t55.5 85.5q0 39 -35 62.5t-99 28.5l-79 7q-61 -11 -102 -44t-41 -77z" />
<glyph unicode="&#x120;" horiz-adv-x="612" d="M358 792q0 -44 -30 -44q-13 0 -20.5 10.5t-7.5 26.5q0 18 8.5 30.5t22.5 12.5q27 0 27 -36zM512 29q-66 -39 -158 -39q-131 0 -206 92.5t-73 242.5t77.5 242.5t206.5 92.5q83 0 148 -34l-11 -34q-61 44 -148 44q-112 0 -176.5 -86t-62.5 -225t68.5 -224.5t182.5 -85.5 q68 0 120 26v102l-8 115l40 10v-239z" />
<glyph unicode="&#x121;" horiz-adv-x="471" d="M260 659q0 -44 -30 -44q-13 0 -20.5 10.5t-7.5 26.5q0 18 8.5 30.5t22.5 12.5q27 0 27 -36zM119 114q0 35 39 56q-40 19 -63 59t-23 95q0 80 47 133t122 53q121 0 210 5v-31l-143 4v-1q37 -17 59.5 -60t22.5 -94q0 -79 -46.5 -128.5t-116.5 -49.5q-24 0 -50 8 q-28 -20 -28 -45q0 -43 87 -51l56 -5q158 -14 158 -111q0 -63 -64.5 -104.5t-167.5 -41.5q-88 0 -138 31t-50 84q0 49 39.5 84.5t92.5 52.5q-43 19 -43 57zM104 330q0 -65 34.5 -108t95.5 -43q60 0 92 41.5t32 112.5q0 67 -30.5 110t-90.5 43q-62 0 -97.5 -45t-35.5 -111z M62 -75q0 -44 42 -70t116 -26q87 0 142.5 33.5t55.5 85.5q0 39 -35 62.5t-99 28.5l-79 7q-61 -11 -102 -44t-41 -77z" />
<glyph unicode="&#x122;" horiz-adv-x="612" d="M512 29q-66 -39 -158 -39q-131 0 -206 92.5t-73 242.5t77.5 242.5t206.5 92.5q83 0 148 -34l-11 -34q-61 44 -148 44q-112 0 -176.5 -86t-62.5 -225t68.5 -224.5t182.5 -85.5q68 0 120 26v102l-8 115l40 10v-239zM339 -130q0 -23 -12.5 -55.5t-34.5 -58.5l-12 8 q23 38 28 80h-1q-29 6 -29 33q0 15 8.5 25t22.5 10q30 0 30 -42z" />
<glyph unicode="&#x123;" horiz-adv-x="471" d="M207 639q0 23 12.5 55.5t34.5 58.5l12 -8q-23 -38 -28 -80h1q29 -6 29 -33q0 -15 -8.5 -25t-22.5 -10q-30 0 -30 42zM119 114q0 35 39 56q-40 19 -63 59t-23 95q0 80 47 133t122 53q121 0 210 5v-31l-143 4v-1q37 -17 59.5 -60t22.5 -94q0 -79 -46.5 -128.5t-116.5 -49.5 q-24 0 -50 8q-28 -20 -28 -45q0 -43 87 -51l56 -5q158 -14 158 -111q0 -63 -64.5 -104.5t-167.5 -41.5q-88 0 -138 31t-50 84q0 49 39.5 84.5t92.5 52.5q-43 19 -43 57zM104 330q0 -65 34.5 -108t95.5 -43q60 0 92 41.5t32 112.5q0 67 -30.5 110t-90.5 43q-62 0 -97.5 -45 t-35.5 -111zM62 -75q0 -44 42 -70t116 -26q87 0 142.5 33.5t55.5 85.5q0 39 -35 62.5t-99 28.5l-79 7q-61 -11 -102 -44t-41 -77z" />
<glyph unicode="&#x124;" horiz-adv-x="668" d="M229 732l-10 13q61 46 96 92l36 6q36 -50 97 -98l-10 -13q-58 29 -104 75q-48 -47 -105 -75zM152 0h-32v535l-8 115l40 10v-333h364v208l-8 115l40 10v-660h-32v297h-364v-297z" />
<glyph unicode="&#x125;" horiz-adv-x="524" d="M2 733l-10 13q61 46 96 92l36 6q36 -50 97 -98l-10 -13q-58 29 -104 75q-48 -47 -105 -75zM123 0h-30v570l-8 115l38 10v-264q74 79 169 79q74 0 108 -48t34 -121v-341h-30v330q0 77 -30.5 116.5t-87.5 39.5q-90 0 -163 -88v-398z" />
<glyph unicode="&#x126;" horiz-adv-x="668" d="M152 0h-32v482h-96v22h96v31l-8 115l40 10v-156h364v31l-8 115l40 10v-156h96v-22h-96v-482h-32v297h-364v-297zM152 327h364v155h-364v-155z" />
<glyph unicode="&#x127;" horiz-adv-x="524" d="M123 0h-30v570l-1 8h-85v22h84l-6 85l38 10v-95h244v-22h-244v-147q74 79 169 79q74 0 108 -48t34 -121v-341h-30v330q0 77 -30.5 116.5t-87.5 39.5q-90 0 -163 -88v-398z" />
<glyph unicode="&#x128;" horiz-adv-x="272" d="M85 825q23 0 55 -21.5t50 -21.5q34 0 58 47l16 -5q-7 -29 -28 -51t-51 -22q-24 0 -55 21.5t-49 21.5q-35 0 -58 -47l-16 5q8 29 28 51t50 22zM152 0h-32v535l-8 115l40 10v-660z" />
<glyph unicode="&#x129;" horiz-adv-x="213" d="M76 703q19 0 40 -24t32 -24q23 0 35 51l14 -4q-3 -31 -16 -54t-36 -23q-20 0 -41 24t-31 24q-23 0 -35 -51l-14 4q4 31 16.5 54t35.5 23zM123 0h-30v385l-8 115l38 10v-510z" />
<glyph unicode="&#x12a;" horiz-adv-x="272" d="M26 770v33h220v-33h-220zM152 0h-32v535l-8 115l40 10v-660z" />
<glyph unicode="&#x12b;" horiz-adv-x="213" d="M41 646v26h140v-26h-140zM123 0h-30v385l-8 115l38 10v-510z" />
<glyph unicode="&#x12c;" horiz-adv-x="272" d="M136 737q-40 0 -71 30t-35 68l15 4q31 -68 91 -68q58 0 89 70l17 4q-5 -45 -35.5 -76.5t-70.5 -31.5zM152 0h-32v535l-8 115l40 10v-660z" />
<glyph unicode="&#x12d;" horiz-adv-x="213" d="M107 583q-31 0 -53.5 37t-23.5 103l18 4q12 -116 63 -116t64 118l17 4q-2 -69 -25 -109.5t-60 -40.5zM123 0h-30v385l-8 115l38 10v-510z" />
<glyph unicode="&#x12e;" horiz-adv-x="370" d="M206 0q-62 -53 -62 -104q0 -23 13.5 -36t34.5 -13q24 0 51 15l7 -16q-26 -22 -69 -22q-31 0 -50 18t-19 48q0 57 65 110h-3v535l-8 115l40 10v-660z" />
<glyph unicode="&#x12f;" horiz-adv-x="293" d="M189 659q0 -44 -30 -44q-13 0 -20.5 10.5t-7.5 26.5q0 18 8.5 30.5t22.5 12.5q27 0 27 -36zM171 0q-24 -25 -40.5 -56.5t-16.5 -54.5q0 -42 48 -42q24 0 51 15l7 -16q-26 -22 -69 -22q-31 0 -50 15t-19 42q0 58 64 119h-4v385l-8 115l38 10v-510h-1z" />
<glyph unicode="&#x130;" horiz-adv-x="272" d="M165 792q0 -44 -30 -44q-13 0 -20.5 10.5t-7.5 26.5q0 18 8.5 30.5t22.5 12.5q27 0 27 -36zM152 0h-32v535l-8 115l40 10v-660z" />
<glyph unicode="&#x131;" horiz-adv-x="213" d="M123 0h-30v385l-8 115l38 10v-510z" />
<glyph unicode="&#x132;" horiz-adv-x="542" d="M152 0h-32v535l-8 115l40 10v-660zM291 -171q101 45 101 162v544l-8 115l38 10v-660q0 -151 -127 -195z" />
<glyph unicode="&#x133;" horiz-adv-x="426" d="M140 659q0 -44 -30 -44q-13 0 -20.5 10.5t-7.5 26.5q0 18 8.5 30.5t22.5 12.5q27 0 27 -36zM348 659q0 -44 -30 -44q-13 0 -20.5 10.5t-7.5 26.5q0 18 8.5 30.5t22.5 12.5q27 0 27 -36zM123 0h-30v385l-8 115l38 10v-510zM224 -177q42 33 62 69t20 95v398l-8 115l38 10 v-526q0 -112 -101 -180z" />
<glyph unicode="&#x134;" horiz-adv-x="270" d="M30 732l-10 13q61 46 96 92l36 6q36 -50 97 -98l-10 -13q-58 29 -104 75q-48 -47 -105 -75zM19 -171q101 45 101 162v544l-8 115l38 10v-660q0 -151 -127 -195z" />
<glyph unicode="&#x135;" horiz-adv-x="213" d="M45 582l-11 7q28 61 55 142l32 6q25 -79 56 -148l-11 -7q-32 56 -60 120q-31 -68 -61 -120zM11 -177q42 33 62 69t20 95v398l-8 115l38 10v-526q0 -112 -101 -180z" />
<glyph unicode="&#x136;" horiz-adv-x="529" d="M120 535l-8 115l41 10v-328h90l212 328l34 -10l-218 -333l218 -317l-34 -10l-212 312h-90v-302h-33v535zM315 -130q0 -23 -12.5 -55.5t-34.5 -58.5l-12 8q23 38 28 80h-1q-29 6 -29 33q0 15 8.5 25t22.5 10q30 0 30 -42z" />
<glyph unicode="&#x137;" horiz-adv-x="457" d="M123 0h-30v570l-8 115l38 10v-414h86l187 229l24 -10l-188 -232l210 -268l-29 -10l-204 266h-86v-256zM271 -130q0 -23 -12.5 -55.5t-34.5 -58.5l-12 8q23 38 28 80h-1q-29 6 -29 33q0 15 8.5 25t22.5 10q30 0 30 -42z" />
<glyph unicode="&#x138;" horiz-adv-x="472" d="M118 0h-30v385l-8 115l38 10v-229h86l187 229l24 -10l-188 -232l210 -268l-29 -10l-204 266h-86v-256z" />
<glyph unicode="&#x139;" horiz-adv-x="466" d="M254 816q-70 -57 -162 -84l-9 17q73 37 136 92zM436 0h-316v535l-8 115l40 10v-634l289 5z" />
<glyph unicode="&#x13a;" horiz-adv-x="213" d="M193 803q-70 -57 -162 -84l-9 17q73 37 136 92zM123 0h-30v570l-8 115l38 10v-695z" />
<glyph unicode="&#x13b;" horiz-adv-x="466" d="M436 0h-316v535l-8 115l40 10v-634l289 5zM315 -130q0 -23 -12.5 -55.5t-34.5 -58.5l-12 8q23 38 28 80h-1q-29 6 -29 33q0 15 8.5 25t22.5 10q30 0 30 -42z" />
<glyph unicode="&#x13c;" horiz-adv-x="213" d="M123 0h-30v570l-8 115l38 10v-695zM138 -130q0 -23 -12.5 -55.5t-34.5 -58.5l-12 8q23 38 28 80h-1q-29 6 -29 33q0 15 8.5 25t22.5 10q30 0 30 -42z" />
<glyph unicode="&#x13d;" horiz-adv-x="466" d="M360 691q-21 -100 -68 -187l-14 6q32 87 49 183zM436 0h-316v535l-8 115l40 10v-634l289 5z" />
<glyph unicode="&#x13e;" horiz-adv-x="213" d="M263 711q-21 -100 -68 -187l-14 6q32 87 49 183zM123 0h-30v570l-8 115l38 10v-695z" />
<glyph unicode="&#x13f;" horiz-adv-x="531" d="M383 268q-13 0 -21 9.5t-8 22.5q0 14 9 25t23 11q28 0 28 -31q0 -15 -8 -26t-23 -11zM436 0h-316v535l-8 115l40 10v-634l289 5z" />
<glyph unicode="&#x140;" horiz-adv-x="377" d="M123 0h-30v570l-8 115l38 10v-695zM287 253q-13 0 -21 9.5t-8 22.5q0 14 9 25t23 11q28 0 28 -31q0 -15 -8 -26t-23 -11z" />
<glyph unicode="&#x141;" horiz-adv-x="466" d="M436 0h-316v286l-90 -50l-12 21l102 57v221l-8 115l40 10v-329l167 93l13 -21l-180 -100v-277l289 5z" />
<glyph unicode="&#x142;" horiz-adv-x="213" d="M123 0h-30v338l-96 -53l-12 21l108 60v204l-8 115l38 10v-313l95 53l13 -21l-108 -60v-354z" />
<glyph unicode="&#x143;" horiz-adv-x="670" d="M420 816q-70 -57 -162 -84l-9 17q73 37 136 92zM120 535l-8 115l50 10l357 -632h2l-6 622l35 10v-660h-49l-352 623h-2l6 -623h-33v535z" />
<glyph unicode="&#x144;" horiz-adv-x="524" d="M319 731q-35 -87 -94 -149l-14 5q47 68 72 146zM123 0h-30v385l-8 115l38 10v-79q74 79 169 79q74 0 108 -48t34 -121v-341h-30v330q0 77 -30.5 116.5t-87.5 39.5q-90 0 -163 -88v-398z" />
<glyph unicode="&#x145;" horiz-adv-x="670" d="M120 535l-8 115l50 10l357 -632h2l-6 622l35 10v-660h-49l-352 623h-2l6 -623h-33v535zM365 -130q0 -23 -12.5 -55.5t-34.5 -58.5l-12 8q23 38 28 80h-1q-29 6 -29 33q0 15 8.5 25t22.5 10q30 0 30 -42z" />
<glyph unicode="&#x146;" horiz-adv-x="524" d="M123 0h-30v385l-8 115l38 10v-79q74 79 169 79q74 0 108 -48t34 -121v-341h-30v330q0 77 -30.5 116.5t-87.5 39.5q-90 0 -163 -88v-398zM295 -130q0 -23 -12.5 -55.5t-34.5 -58.5l-12 8q23 38 28 80h-1q-29 6 -29 33q0 15 8.5 25t22.5 10q30 0 30 -42z" />
<glyph unicode="&#x147;" horiz-adv-x="670" d="M439 842l10 -13q-61 -46 -96 -92l-36 -6q-36 50 -97 98l10 13q58 -29 104 -75q48 47 105 75zM120 535l-8 115l50 10l357 -632h2l-6 622l35 10v-660h-49l-352 623h-2l6 -623h-33v535z" />
<glyph unicode="&#x148;" horiz-adv-x="524" d="M358 737l9 -9q-55 -71 -86 -140l-32 -6q-29 67 -87 146l9 9q50 -46 93 -122q46 78 94 122zM123 0h-30v385l-8 115l38 10v-79q74 79 169 79q74 0 108 -48t34 -121v-341h-30v330q0 77 -30.5 116.5t-87.5 39.5q-90 0 -163 -88v-398z" />
<glyph unicode="&#x149;" horiz-adv-x="584" d="M118 652q0 -36 -19.5 -86t-53.5 -89l-10 9q45 66 52 140h-1q-29 6 -29 33q0 15 8.5 25t22.5 10q30 0 30 -42zM183 0h-30v385l-8 115l38 10v-79q74 79 169 79q74 0 108 -48t34 -121v-341h-30v330q0 77 -30.5 116.5t-87.5 39.5q-90 0 -163 -88v-398z" />
<glyph unicode="&#x14a;" horiz-adv-x="670" d="M419 -171q93 41 100 140l-370 654h-2l6 -623h-33v535l-8 115l50 10l357 -632h2l-6 622l35 10v-660q0 -151 -127 -195z" />
<glyph unicode="&#x14b;" horiz-adv-x="524" d="M123 0h-30v385l-8 115l38 10v-79q74 79 169 79q74 0 108 -48t34 -121v-357q0 -112 -101 -180l-11 19q42 33 62 69t20 95v343q0 77 -30.5 116.5t-87.5 39.5q-90 0 -163 -88v-398z" />
<glyph unicode="&#x14c;" horiz-adv-x="661" d="M221 770v33h220v-33h-220zM586 325q-2 -149 -72.5 -242t-185.5 -93q-116 0 -185.5 93t-67.5 242t72.5 242t186.5 93q115 0 184.5 -93t67.5 -242zM109 325q2 -139 63 -225t162 -86q100 0 160 86.5t58 224.5q-2 139 -63 225t-161 86q-101 0 -161 -86t-58 -225z" />
<glyph unicode="&#x14d;" horiz-adv-x="547" d="M174 646v26h200v-26h-200zM482 264q0 -131 -66 -202.5t-159 -71.5q-87 0 -139.5 65t-52.5 179q0 131 66 203.5t159 72.5q87 0 139.5 -65.5t52.5 -180.5zM97 240q0 -106 46 -166t122 -60q78 0 131.5 63.5t53.5 179.5q0 105 -45.5 167t-122.5 62q-78 0 -131.5 -64.5 t-53.5 -181.5z" />
<glyph unicode="&#x14e;" horiz-adv-x="661" d="M331 737q-40 0 -71 30t-35 68l15 4q31 -68 91 -68q57 0 89 70l17 4q-5 -45 -35.5 -76.5t-70.5 -31.5zM586 325q-2 -149 -72.5 -242t-185.5 -93q-116 0 -185.5 93t-67.5 242t72.5 242t186.5 93q115 0 184.5 -93t67.5 -242zM109 325q2 -139 63 -225t162 -86q100 0 160 86.5 t58 224.5q-2 139 -63 225t-161 86q-101 0 -161 -86t-58 -225z" />
<glyph unicode="&#x14f;" horiz-adv-x="547" d="M270 588q-40 0 -67.5 35.5t-29.5 99.5l18 4q17 -111 83 -111t84 113l17 4q-3 -67 -31.5 -106t-73.5 -39zM482 264q0 -131 -66 -202.5t-159 -71.5q-87 0 -139.5 65t-52.5 179q0 131 66 203.5t159 72.5q87 0 139.5 -65.5t52.5 -180.5zM97 240q0 -106 46 -166t122 -60 q78 0 131.5 63.5t53.5 179.5q0 105 -45.5 167t-122.5 62q-78 0 -131.5 -64.5t-53.5 -181.5z" />
<glyph unicode="&#x150;" horiz-adv-x="661" d="M324 819q-70 -57 -162 -84l-7 14q73 37 136 92zM506 819q-70 -57 -162 -84l-7 14q73 37 136 92zM586 325q-2 -149 -72.5 -242t-185.5 -93q-116 0 -185.5 93t-67.5 242t72.5 242t186.5 93q115 0 184.5 -93t67.5 -242zM109 325q2 -139 63 -225t162 -86q100 0 160 86.5 t58 224.5q-2 139 -63 225t-161 86q-101 0 -161 -86t-58 -225z" />
<glyph unicode="&#x151;" horiz-adv-x="547" d="M265 731q-36 -89 -93 -149l-10 6q45 67 71 145zM387 731q-36 -89 -93 -149l-10 6q45 67 71 145zM482 264q0 -131 -66 -202.5t-159 -71.5q-87 0 -139.5 65t-52.5 179q0 131 66 203.5t159 72.5q87 0 139.5 -65.5t52.5 -180.5zM97 240q0 -106 46 -166t122 -60 q78 0 131.5 63.5t53.5 179.5q0 105 -45.5 167t-122.5 62q-78 0 -131.5 -64.5t-53.5 -181.5z" />
<glyph unicode="&#x152;" horiz-adv-x="853" d="M703 307l-117 2q-4 -96 -38.5 -170t-93.5 -113l344 5l-5 -31h-396q-30 -10 -69 -10q-116 0 -185.5 93t-67.5 242t72.5 242t186.5 93q38 0 69 -10h395l-5 -31l-333 4q59 -39 92 -114t34 -174l122 3zM109 325q2 -139 63 -225t162 -86q100 0 160 86.5t58 224.5 q-2 139 -63 225t-161 86q-101 0 -161 -86t-58 -225z" />
<glyph unicode="&#x153;" horiz-adv-x="872" d="M787 21q-60 -31 -130 -31q-75 0 -125 39t-70 111q-27 -72 -82.5 -111t-122.5 -39q-87 0 -139.5 65t-52.5 179q0 131 66 203.5t159 72.5q66 0 113 -38.5t66 -108.5q24 68 71.5 107.5t109.5 39.5q73 0 117.5 -50.5t44.5 -132.5q0 -38 -1 -57l-5 -15h-324v-6 q0 -113 48 -173.5t131 -60.5q69 0 128 37zM97 240q0 -106 46 -166t122 -60q78 0 131.5 63.5t53.5 179.5q0 105 -45.5 167t-122.5 62q-78 0 -131.5 -64.5t-53.5 -181.5zM650 486q-69 0 -114.5 -54t-52.5 -153l296 6q1 14 1 41q0 75 -34 117.5t-96 42.5z" />
<glyph unicode="&#x154;" horiz-adv-x="539" d="M360 816q-70 -57 -162 -84l-9 17q73 37 136 92zM152 0h-32v535l-8 115h127q104 0 163 -51.5t59 -135.5q0 -69 -39 -117t-108 -66l175 -280l-34 -10l-176 283q-23 -3 -46 -3h-81v-270zM233 624h-81v-328h87q89 0 138.5 45.5t49.5 121.5q0 74 -50 117.5t-144 43.5z" />
<glyph unicode="&#x155;" horiz-adv-x="327" d="M233 731q-35 -87 -94 -149l-14 5q47 68 72 146zM123 0h-30v385l-8 115l38 10v-119q24 59 63.5 89t87.5 30q18 0 38 -4l-6 -32q-16 6 -38 6q-93 0 -145 -124v-356z" />
<glyph unicode="&#x156;" horiz-adv-x="539" d="M152 0h-32v535l-8 115h127q104 0 163 -51.5t59 -135.5q0 -69 -39 -117t-108 -66l175 -280l-34 -10l-176 283q-23 -3 -46 -3h-81v-270zM233 624h-81v-328h87q89 0 138.5 45.5t49.5 121.5q0 74 -50 117.5t-144 43.5zM305 -130q0 -23 -12.5 -55.5t-34.5 -58.5l-12 8 q23 38 28 80h-1q-29 6 -29 33q0 15 8.5 25t22.5 10q30 0 30 -42z" />
<glyph unicode="&#x157;" horiz-adv-x="327" d="M123 0h-30v385l-8 115l38 10v-119q24 59 63.5 89t87.5 30q18 0 38 -4l-6 -32q-16 6 -38 6q-93 0 -145 -124v-356zM137 -130q0 -23 -12.5 -55.5t-34.5 -58.5l-12 8q23 38 28 80h-1q-29 6 -29 33q0 15 8.5 25t22.5 10q30 0 30 -42z" />
<glyph unicode="&#x158;" horiz-adv-x="539" d="M379 842l10 -13q-61 -46 -96 -92l-36 -6q-36 50 -97 98l10 13q58 -29 104 -75q48 47 105 75zM152 0h-32v535l-8 115h127q104 0 163 -51.5t59 -135.5q0 -69 -39 -117t-108 -66l175 -280l-34 -10l-176 283q-23 -3 -46 -3h-81v-270zM233 624h-81v-328h87q89 0 138.5 45.5 t49.5 121.5q0 74 -50 117.5t-144 43.5z" />
<glyph unicode="&#x159;" horiz-adv-x="327" d="M272 737l9 -9q-55 -71 -86 -140l-32 -6q-29 67 -87 146l9 9q50 -46 93 -122q46 78 94 122zM123 0h-30v385l-8 115l38 10v-119q24 59 63.5 89t87.5 30q18 0 38 -4l-6 -32q-16 6 -38 6q-93 0 -145 -124v-356z" />
<glyph unicode="&#x15a;" horiz-adv-x="479" d="M325 816q-70 -57 -162 -84l-9 17q73 37 136 92zM414 144q0 -67 -51.5 -110.5t-137.5 -43.5q-83 0 -160 36l6 35q26 -18 69.5 -32.5t90.5 -14.5q71 0 110 36.5t39 89.5q0 38 -22 70.5t-55 54.5t-71.5 48t-71.5 49.5t-55 60t-22 79.5q0 69 51 113.5t138 44.5q73 0 133 -29 l-6 -35q-19 14 -55.5 27t-78.5 13q-69 0 -108.5 -36.5t-39.5 -90.5q0 -45 30.5 -83t74.5 -66.5t87.5 -57.5t74 -69.5t30.5 -88.5z" />
<glyph unicode="&#x15b;" horiz-adv-x="409" d="M276 731q-35 -87 -94 -149l-14 5q47 68 72 146zM359 116q0 -56 -45.5 -91t-120.5 -35t-143 36l6 35q63 -47 144 -47q60 0 93.5 28t33.5 71q0 24 -9.5 42.5t-32.5 35.5t-37.5 25t-48.5 25q-30 14 -48.5 25t-39.5 28t-31 38.5t-10 48.5q0 56 44.5 92.5t119.5 36.5 q66 0 118 -29l-6 -35q-48 40 -120 40q-57 0 -90.5 -28.5t-33.5 -71.5q0 -40 28 -66.5t83 -54.5q80 -42 104 -63q42 -37 42 -86z" />
<glyph unicode="&#x15c;" horiz-adv-x="479" d="M135 732l-10 13q61 46 96 92l36 6q36 -50 97 -98l-10 -13q-58 29 -104 75q-48 -47 -105 -75zM414 144q0 -67 -51.5 -110.5t-137.5 -43.5q-83 0 -160 36l6 35q26 -18 69.5 -32.5t90.5 -14.5q71 0 110 36.5t39 89.5q0 38 -22 70.5t-55 54.5t-71.5 48t-71.5 49.5t-55 60 t-22 79.5q0 69 51 113.5t138 44.5q73 0 133 -29l-6 -35q-19 14 -55.5 27t-78.5 13q-69 0 -108.5 -36.5t-39.5 -90.5q0 -45 30.5 -83t74.5 -66.5t87.5 -57.5t74 -69.5t30.5 -88.5z" />
<glyph unicode="&#x15d;" horiz-adv-x="409" d="M128 582l-9 9q55 71 86 140l32 6q29 -67 87 -146l-9 -9q-50 46 -93 122q-46 -78 -94 -122zM359 116q0 -56 -45.5 -91t-120.5 -35t-143 36l6 35q63 -47 144 -47q60 0 93.5 28t33.5 71q0 24 -9.5 42.5t-32.5 35.5t-37.5 25t-48.5 25q-30 14 -48.5 25t-39.5 28t-31 38.5 t-10 48.5q0 56 44.5 92.5t119.5 36.5q66 0 118 -29l-6 -35q-48 40 -120 40q-57 0 -90.5 -28.5t-33.5 -71.5q0 -40 28 -66.5t83 -54.5q80 -42 104 -63q42 -37 42 -86z" />
<glyph unicode="&#x15e;" horiz-adv-x="479" d="M290 -110q0 31 -67 39l22 62q-7 -1 -20 -1q-83 0 -160 36l6 35q26 -18 69.5 -32.5t90.5 -14.5q71 0 110 36.5t39 89.5q0 38 -22 70.5t-55 54.5t-71.5 48t-71.5 49.5t-55 60t-22 79.5q0 69 51 113.5t138 44.5q73 0 133 -29l-6 -35q-19 14 -55.5 27t-78.5 13 q-69 0 -108.5 -36.5t-39.5 -90.5q0 -45 30.5 -83t74.5 -66.5t87.5 -57.5t74 -69.5t30.5 -88.5q0 -57 -38.5 -98.5t-105.5 -51.5l-17 -48q69 -14 69 -53q0 -30 -34.5 -47.5t-79.5 -19.5l-1 18q83 11 83 46z" />
<glyph unicode="&#x15f;" horiz-adv-x="409" d="M247 -110q0 31 -67 39l22 61h-9q-75 0 -143 36l6 35q63 -47 144 -47q60 0 93.5 28t33.5 71q0 24 -9.5 42.5t-32.5 35.5t-37.5 25t-48.5 25q-30 14 -48.5 25t-39.5 28t-31 38.5t-10 48.5q0 56 44.5 92.5t119.5 36.5q66 0 118 -29l-6 -35q-48 40 -120 40q-57 0 -90.5 -28.5 t-33.5 -71.5q0 -40 28 -66.5t83 -54.5q80 -42 104 -63q42 -37 42 -86t-35.5 -83t-97.5 -41l-16 -46q69 -14 69 -53q0 -30 -34.5 -47.5t-79.5 -19.5l-1 18q83 11 83 46z" />
<glyph unicode="&#x160;" horiz-adv-x="479" d="M344 842l10 -13q-61 -46 -96 -92l-36 -6q-36 50 -97 98l10 13q58 -29 104 -75q48 47 105 75zM414 144q0 -67 -51.5 -110.5t-137.5 -43.5q-83 0 -160 36l6 35q26 -18 69.5 -32.5t90.5 -14.5q71 0 110 36.5t39 89.5q0 38 -22 70.5t-55 54.5t-71.5 48t-71.5 49.5t-55 60 t-22 79.5q0 69 51 113.5t138 44.5q73 0 133 -29l-6 -35q-19 14 -55.5 27t-78.5 13q-69 0 -108.5 -36.5t-39.5 -90.5q0 -45 30.5 -83t74.5 -66.5t87.5 -57.5t74 -69.5t30.5 -88.5z" />
<glyph unicode="&#x161;" horiz-adv-x="409" d="M315 737l9 -9q-55 -71 -86 -140l-32 -6q-29 67 -87 146l9 9q50 -46 93 -122q46 78 94 122zM359 116q0 -56 -45.5 -91t-120.5 -35t-143 36l6 35q63 -47 144 -47q60 0 93.5 28t33.5 71q0 24 -9.5 42.5t-32.5 35.5t-37.5 25t-48.5 25q-30 14 -48.5 25t-39.5 28t-31 38.5 t-10 48.5q0 56 44.5 92.5t119.5 36.5q66 0 118 -29l-6 -35q-48 40 -120 40q-57 0 -90.5 -28.5t-33.5 -71.5q0 -40 28 -66.5t83 -54.5q80 -42 104 -63q42 -37 42 -86z" />
<glyph unicode="&#x162;" horiz-adv-x="470" d="M270 -110q0 31 -67 39l25 71h-8v624l-195 -5l5 31h410l5 -31l-193 5v-624l-19 -54q69 -14 69 -53q0 -30 -34.5 -47.5t-79.5 -19.5l-1 18q83 11 83 46z" />
<glyph unicode="&#x163;" horiz-adv-x="369" d="M245 -110q0 31 -67 39l22 62q-95 11 -95 129v335l-55 1v15l56 5l9 155l20 3v-158h195l-2 -25l-193 3v-320q0 -27 1.5 -41.5t9.5 -36t28 -32t52 -10.5q59 0 107 34l6 -27q-50 -31 -116 -31l-15 -44q69 -14 69 -53q0 -30 -34.5 -47.5t-79.5 -19.5l-1 18q83 11 83 46z" />
<glyph unicode="&#x164;" horiz-adv-x="470" d="M339 842l10 -13q-61 -46 -96 -92l-36 -6q-36 50 -97 98l10 13q58 -29 104 -75q48 47 105 75zM252 0h-32v624l-195 -5l5 31h410l5 -31l-193 5v-624z" />
<glyph unicode="&#x165;" horiz-adv-x="369" d="M288 741q-21 -100 -68 -187l-14 6q32 87 49 183zM328 451l-193 3v-320q0 -27 1.5 -41.5t9.5 -36t28 -32t52 -10.5q59 0 107 34l6 -27q-50 -31 -118 -31q-116 0 -116 130v335l-55 1v15l56 5l9 155l20 3v-158h195z" />
<glyph unicode="&#x166;" horiz-adv-x="470" d="M252 0h-32v314h-165v22h165v288l-195 -5l5 31h410l5 -31l-193 5v-288h163v-22h-163v-314z" />
<glyph unicode="&#x167;" horiz-adv-x="369" d="M329 257h-194v-123q0 -27 1.5 -41.5t9.5 -36t28 -32t52 -10.5q59 0 107 34l6 -27q-50 -31 -118 -31q-116 0 -116 130v137h-56v22h56v176l-55 1v15l56 5l9 155l20 3v-158h195l-2 -25l-193 3v-175h194v-22z" />
<glyph unicode="&#x168;" horiz-adv-x="638" d="M268 825q24 0 56 -21.5t49 -21.5q35 0 58 47l16 -5q-7 -29 -28 -51t-51 -22q-24 0 -55 21.5t-49 21.5q-34 0 -58 -47l-16 5q8 29 28 51t50 22zM321 14q77 0 123.5 51.5t46.5 134.5v335l-8 115l40 10v-460q0 -93 -57.5 -151.5t-150.5 -58.5q-91 0 -145.5 58.5t-54.5 151.5 v335l-8 115l40 10v-460q0 -82 48 -134t126 -52z" />
<glyph unicode="&#x169;" horiz-adv-x="525" d="M205 703q25 0 59.5 -24t51.5 -24q35 0 55 51l14 -4q-3 -29 -24 -53t-50 -24q-25 0 -58.5 24t-51.5 24q-35 0 -55 -51l-14 4q4 28 24 52.5t49 24.5zM90 159v341l30 10v-340q0 -76 30 -116t80 -40q38 0 80 23t75 65v398l30 10v-405q0 -63 25 -105l-28 -10q-23 37 -26 79 q-73 -79 -162 -79q-67 0 -100.5 49t-33.5 120z" />
<glyph unicode="&#x16a;" horiz-adv-x="638" d="M209 770v33h220v-33h-220zM321 14q77 0 123.5 51.5t46.5 134.5v335l-8 115l40 10v-460q0 -93 -57.5 -151.5t-150.5 -58.5q-91 0 -145.5 58.5t-54.5 151.5v335l-8 115l40 10v-460q0 -82 48 -134t126 -52z" />
<glyph unicode="&#x16b;" horiz-adv-x="525" d="M165 646v26h200v-26h-200zM90 159v341l30 10v-340q0 -76 30 -116t80 -40q38 0 80 23t75 65v398l30 10v-405q0 -63 25 -105l-28 -10q-23 37 -26 79q-73 -79 -162 -79q-67 0 -100.5 49t-33.5 120z" />
<glyph unicode="&#x16c;" horiz-adv-x="638" d="M319 737q-40 0 -71 30t-35 68l15 4q31 -68 91 -68q57 0 89 70l17 4q-5 -45 -35.5 -76.5t-70.5 -31.5zM321 14q77 0 123.5 51.5t46.5 134.5v335l-8 115l40 10v-460q0 -93 -57.5 -151.5t-150.5 -58.5q-91 0 -145.5 58.5t-54.5 151.5v335l-8 115l40 10v-460q0 -82 48 -134 t126 -52z" />
<glyph unicode="&#x16d;" horiz-adv-x="525" d="M261 588q-40 0 -67.5 35.5t-29.5 99.5l18 4q17 -111 83 -111t84 113l17 4q-3 -67 -31.5 -106t-73.5 -39zM90 159v341l30 10v-340q0 -76 30 -116t80 -40q38 0 80 23t75 65v398l30 10v-405q0 -63 25 -105l-28 -10q-23 37 -26 79q-73 -79 -162 -79q-67 0 -100.5 49 t-33.5 120z" />
<glyph unicode="&#x16e;" horiz-adv-x="638" d="M394 792q0 -31 -23 -53t-55 -22q-31 0 -52 19.5t-21 47.5q0 31 23.5 53t56.5 22q31 0 51 -19t20 -48zM274 787q0 -19 12 -31.5t31 -12.5q18 0 32 13.5t14 32.5t-12 31.5t-31 12.5t-32.5 -13.5t-13.5 -32.5zM321 14q77 0 123.5 51.5t46.5 134.5v335l-8 115l40 10v-460 q0 -93 -57.5 -151.5t-150.5 -58.5q-91 0 -145.5 58.5t-54.5 151.5v335l-8 115l40 10v-460q0 -82 48 -134t126 -52z" />
<glyph unicode="&#x16f;" horiz-adv-x="525" d="M340 664q0 -34 -23 -58t-55 -24q-31 0 -52 21.5t-21 52.5q0 34 23.5 58t56.5 24q31 0 51 -21t20 -53zM219 659q0 -23 12.5 -37.5t31.5 -14.5t33 15.5t14 38.5t-12.5 37.5t-31.5 14.5q-20 0 -33.5 -15.5t-13.5 -38.5zM90 159v341l30 10v-340q0 -76 30 -116t80 -40 q38 0 80 23t75 65v398l30 10v-405q0 -63 25 -105l-28 -10q-23 37 -26 79q-73 -79 -162 -79q-67 0 -100.5 49t-33.5 120z" />
<glyph unicode="&#x170;" horiz-adv-x="638" d="M312 819q-70 -57 -162 -84l-7 14q73 37 136 92zM494 819q-70 -57 -162 -84l-7 14q73 37 136 92zM321 14q77 0 123.5 51.5t46.5 134.5v335l-8 115l40 10v-460q0 -93 -57.5 -151.5t-150.5 -58.5q-91 0 -145.5 58.5t-54.5 151.5v335l-8 115l40 10v-460q0 -82 48 -134 t126 -52z" />
<glyph unicode="&#x171;" horiz-adv-x="525" d="M256 731q-36 -89 -93 -149l-10 6q45 67 71 145zM378 731q-36 -89 -93 -149l-10 6q45 67 71 145zM90 159v341l30 10v-340q0 -76 30 -116t80 -40q38 0 80 23t75 65v398l30 10v-405q0 -63 25 -105l-28 -10q-23 37 -26 79q-73 -79 -162 -79q-67 0 -100.5 49t-33.5 120z" />
<glyph unicode="&#x172;" horiz-adv-x="638" d="M321 14q77 0 123.5 51.5t46.5 134.5v335l-8 115l40 10v-460q0 -122 -91 -179q-104 -69 -104 -130q0 -21 13 -32.5t35 -11.5q24 0 51 15l7 -16q-26 -22 -69 -22q-31 0 -50 16t-19 43q0 55 66 111q-30 -4 -47 -4q-91 0 -145.5 58.5t-54.5 151.5v335l-8 115l40 10v-460 q0 -82 48 -134t126 -52z" />
<glyph unicode="&#x173;" horiz-adv-x="525" d="M90 159v341l30 10v-340q0 -76 30 -116t80 -40q38 0 80 23t75 65v398l30 10v-405q0 -63 25 -105q-45 -17 -76 -49t-31 -62q0 -42 48 -42q24 0 51 15l7 -16q-26 -22 -69 -22q-31 0 -50 15t-19 42q0 34 29 68t74 55q-15 30 -18 65q-73 -79 -162 -79q-67 0 -100.5 49 t-33.5 120z" />
<glyph unicode="&#x174;" horiz-adv-x="873" d="M332 732l-10 13q61 46 96 92l36 6q36 -50 97 -98l-10 -13q-58 29 -104 75q-48 -47 -105 -75zM217 0l-182 650l29 10l177 -635h1l179 625h32l178 -625h1l177 635l29 -10l-182 -650h-47l-171 600h-2l-172 -600h-47z" />
<glyph unicode="&#x175;" horiz-adv-x="708" d="M260 582l-9 9q55 71 86 140l32 6q29 -67 87 -146l-9 -9q-50 46 -93 122q-46 -78 -94 -122zM184 0l-154 501l30 9l140 -476h2l138 476h31l140 -476h2l140 476l25 -9q-66 -233 -154 -501h-29l-140 475h-1q-54 -200 -141 -475h-29z" />
<glyph unicode="&#x176;" horiz-adv-x="517" d="M154 732l-10 13q61 46 96 92l36 6q36 -50 97 -98l-10 -13q-58 29 -104 75q-48 -47 -105 -75zM274 0h-32v212l-217 438l29 10l204 -410h1l204 410l29 -10l-218 -438v-212z" />
<glyph unicode="&#x177;" horiz-adv-x="445" d="M136 582l-9 9q55 71 86 140l32 6q29 -67 87 -146l-9 -9q-50 46 -93 122q-46 -78 -94 -122zM11 -195q-33 0 -65 9v28q39 -13 82 -13q62 0 111.5 44t77.5 127h-7l-176 501l30 9l162 -476h2l162 476l25 -9q-66 -205 -175 -502q-41 -108 -94.5 -151t-134.5 -43z" />
<glyph unicode="&#x178;" horiz-adv-x="517" d="M191 790q0 -41 -31 -41q-29 0 -29 34q0 17 8.5 29t23.5 12q13 0 20.5 -9.5t7.5 -24.5zM386 790q0 -41 -31 -41q-29 0 -29 34q0 17 8.5 29t23.5 12q13 0 20.5 -9.5t7.5 -24.5zM274 0h-32v212l-217 438l29 10l204 -410h1l204 410l29 -10l-218 -438v-212z" />
<glyph unicode="&#x179;" horiz-adv-x="503" d="M337 816q-70 -57 -162 -84l-9 17q73 37 136 92zM453 0h-402l-6 18l367 604q-286 0 -359 -7l5 35h388l6 -18l-367 -604q138 0 180.5 0.5t92 4t100.5 12.5z" />
<glyph unicode="&#x17a;" horiz-adv-x="420" d="M264 731q-35 -87 -94 -149l-14 5q47 68 72 146zM370 0h-321l-6 16l286 461h-77q-112 0 -212 -9l12 32h306l6 -16l-285 -461h74q113 0 227 14z" />
<glyph unicode="&#x17b;" horiz-adv-x="503" d="M281 792q0 -44 -30 -44q-13 0 -20.5 10.5t-7.5 26.5q0 18 8.5 30.5t22.5 12.5q27 0 27 -36zM453 0h-402l-6 18l367 604q-286 0 -359 -7l5 35h388l6 -18l-367 -604q138 0 180.5 0.5t92 4t100.5 12.5z" />
<glyph unicode="&#x17c;" horiz-adv-x="420" d="M239 659q0 -44 -30 -44q-13 0 -20.5 10.5t-7.5 26.5q0 18 8.5 30.5t22.5 12.5q27 0 27 -36zM370 0h-321l-6 16l286 461h-77q-112 0 -212 -9l12 32h306l6 -16l-285 -461h74q113 0 227 14z" />
<glyph unicode="&#x17d;" horiz-adv-x="503" d="M356 842l10 -13q-61 -46 -96 -92l-36 -6q-36 50 -97 98l10 13q58 -29 104 -75q48 47 105 75zM453 0h-402l-6 18l367 604q-286 0 -359 -7l5 35h388l6 -18l-367 -604q138 0 180.5 0.5t92 4t100.5 12.5z" />
<glyph unicode="&#x17e;" horiz-adv-x="420" d="M303 737l9 -9q-55 -71 -86 -140l-32 -6q-29 67 -87 146l9 9q50 -46 93 -122q46 78 94 122zM370 0h-321l-6 16l286 461h-77q-112 0 -212 -9l12 32h306l6 -16l-285 -461h74q113 0 227 14z" />
<glyph unicode="&#x18f;" horiz-adv-x="577" d="M65 228q0 63 1 95l5 11h399q-4 143 -58.5 222t-147.5 79q-79 0 -147 -46l2 31q69 40 150 40q110 0 171.5 -89.5t61.5 -242.5q0 -156 -62.5 -247t-167.5 -91q-91 0 -149 66t-58 172zM97 229q0 -100 47 -157.5t128 -57.5q90 0 144 75t54 221l-372 -6q-1 -27 -1 -75z" />
<glyph unicode="&#x192;" horiz-adv-x="510" d="M443 307l-190 3l-27 -260q-20 -201 -159 -201q-60 0 -112 26l16 28q12 -9 41 -19.5t58 -10.5q110 0 127 180l25 258l-91 1l3 15l90 5q0 4 7 75.5t10 92.5q22 160 164 160q58 0 102 -26l-15 -36q-40 38 -100 38q-52 0 -80.5 -32t-40.5 -107q-8 -49 -17 -165h193z" />
<glyph unicode="&#x19d;" horiz-adv-x="670" d="M23 -195l-4 24q101 45 101 162v544l-8 115l50 10l357 -632h2l-6 622l35 10v-660h-49l-352 623h-2q1 -104 3 -311.5t3 -311.5q2 -151 -130 -195z" />
<glyph unicode="&#x1cd;" horiz-adv-x="560" d="M384 842l10 -13q-61 -46 -96 -92l-36 -6q-36 50 -97 98l10 13q58 -29 104 -75q48 47 105 75zM68 0h-33l179 532l39 118l52 10l220 -660h-33l-61 182h-302zM280 628l-140 -416h281l-140 416h-1z" />
<glyph unicode="&#x1ce;" horiz-adv-x="491" d="M327 737l9 -9q-55 -71 -86 -140l-32 -6q-29 67 -87 146l9 9q50 -46 93 -122q46 78 94 122zM378 -10q-21 43 -24 74q-30 -29 -76 -51.5t-96 -22.5q-56 0 -89 31.5t-33 79.5q0 56 44.5 96.5t109 58.5t139.5 19v93q0 118 -114 118q-78 0 -148 -54l-10 28q70 50 158 50 q69 0 106.5 -35.5t37.5 -103.5q0 -7 -1 -120t-1 -130q0 -67 25 -121zM92 104q0 -40 27 -65t74 -25q41 0 88 23.5t72 54.5v160q-111 -2 -186 -39t-75 -109z" />
<glyph unicode="&#x1cf;" horiz-adv-x="272" d="M240 842l10 -13q-61 -46 -96 -92l-36 -6q-36 50 -97 98l10 13q58 -29 104 -75q48 47 105 75zM152 0h-32v535l-8 115l40 10v-660z" />
<glyph unicode="&#x1d0;" horiz-adv-x="213" d="M171 737l11 -7q-28 -61 -55 -142l-32 -6q-25 79 -56 148l11 7q32 -56 60 -120q31 68 61 120zM123 0h-30v385l-8 115l38 10v-510z" />
<glyph unicode="&#x1d1;" horiz-adv-x="661" d="M435 842l10 -13q-61 -46 -96 -92l-36 -6q-36 50 -97 98l10 13q58 -29 104 -75q48 47 105 75zM586 325q-2 -149 -72.5 -242t-185.5 -93q-116 0 -185.5 93t-67.5 242t72.5 242t186.5 93q115 0 184.5 -93t67.5 -242zM109 325q2 -139 63 -225t162 -86q100 0 160 86.5 t58 224.5q-2 139 -63 225t-161 86q-101 0 -161 -86t-58 -225z" />
<glyph unicode="&#x1d2;" horiz-adv-x="547" d="M367 737l9 -9q-55 -71 -86 -140l-32 -6q-29 67 -87 146l9 9q50 -46 93 -122q46 78 94 122zM482 264q0 -131 -66 -202.5t-159 -71.5q-87 0 -139.5 65t-52.5 179q0 131 66 203.5t159 72.5q87 0 139.5 -65.5t52.5 -180.5zM97 240q0 -106 46 -166t122 -60q78 0 131.5 63.5 t53.5 179.5q0 105 -45.5 167t-122.5 62q-78 0 -131.5 -64.5t-53.5 -181.5z" />
<glyph unicode="&#x1d3;" horiz-adv-x="638" d="M423 842l10 -13q-61 -46 -96 -92l-36 -6q-36 50 -97 98l10 13q58 -29 104 -75q48 47 105 75zM321 14q77 0 123.5 51.5t46.5 134.5v335l-8 115l40 10v-460q0 -93 -57.5 -151.5t-150.5 -58.5q-91 0 -145.5 58.5t-54.5 151.5v335l-8 115l40 10v-460q0 -82 48 -134t126 -52z " />
<glyph unicode="&#x1d4;" horiz-adv-x="525" d="M358 737l9 -9q-55 -71 -86 -140l-32 -6q-29 67 -87 146l9 9q50 -46 93 -122q46 78 94 122zM90 159v341l30 10v-340q0 -76 30 -116t80 -40q38 0 80 23t75 65v398l30 10v-405q0 -63 25 -105l-28 -10q-23 37 -26 79q-73 -79 -162 -79q-67 0 -100.5 49t-33.5 120z" />
<glyph unicode="&#x1d5;" horiz-adv-x="638" d="M209 944v33h220v-33h-220zM251 790q0 -41 -31 -41q-29 0 -29 34q0 17 8.5 29t23.5 12q13 0 20.5 -9.5t7.5 -24.5zM446 790q0 -41 -31 -41q-29 0 -29 34q0 17 8.5 29t23.5 12q13 0 20.5 -9.5t7.5 -24.5zM321 14q77 0 123.5 51.5t46.5 134.5v335l-8 115l40 10v-460 q0 -93 -57.5 -151.5t-150.5 -58.5q-91 0 -145.5 58.5t-54.5 151.5v335l-8 115l40 10v-460q0 -82 48 -134t126 -52z" />
<glyph unicode="&#x1d6;" horiz-adv-x="525" d="M165 839v26h200v-26h-200zM212 659q0 -41 -31 -41q-29 0 -29 34q0 17 8.5 29t23.5 12q13 0 20.5 -9.5t7.5 -24.5zM377 659q0 -41 -31 -41q-29 0 -29 34q0 17 8.5 29t23.5 12q13 0 20.5 -9.5t7.5 -24.5zM90 159v341l30 10v-340q0 -76 30 -116t80 -40q38 0 80 23t75 65v398 l30 10v-405q0 -63 25 -105l-28 -10q-23 37 -26 79q-73 -79 -162 -79q-67 0 -100.5 49t-33.5 120z" />
<glyph unicode="&#x1d7;" horiz-adv-x="638" d="M404 990q-70 -57 -162 -84l-9 17q73 37 136 92zM251 790q0 -41 -31 -41q-29 0 -29 34q0 17 8.5 29t23.5 12q13 0 20.5 -9.5t7.5 -24.5zM446 790q0 -41 -31 -41q-29 0 -29 34q0 17 8.5 29t23.5 12q13 0 20.5 -9.5t7.5 -24.5zM321 14q77 0 123.5 51.5t46.5 134.5v335 l-8 115l40 10v-460q0 -93 -57.5 -151.5t-150.5 -58.5q-91 0 -145.5 58.5t-54.5 151.5v335l-8 115l40 10v-460q0 -82 48 -134t126 -52z" />
<glyph unicode="&#x1d8;" horiz-adv-x="525" d="M319 924q-35 -87 -94 -149l-14 5q47 68 72 146zM212 659q0 -41 -31 -41q-29 0 -29 34q0 17 8.5 29t23.5 12q13 0 20.5 -9.5t7.5 -24.5zM377 659q0 -41 -31 -41q-29 0 -29 34q0 17 8.5 29t23.5 12q13 0 20.5 -9.5t7.5 -24.5zM90 159v341l30 10v-340q0 -76 30 -116t80 -40 q38 0 80 23t75 65v398l30 10v-405q0 -63 25 -105l-28 -10q-23 37 -26 79q-73 -79 -162 -79q-67 0 -100.5 49t-33.5 120z" />
<glyph unicode="&#x1d9;" horiz-adv-x="638" d="M423 1016l10 -13q-61 -46 -96 -92l-36 -6q-36 50 -97 98l10 13q58 -29 104 -75q48 47 105 75zM251 790q0 -41 -31 -41q-29 0 -29 34q0 17 8.5 29t23.5 12q13 0 20.5 -9.5t7.5 -24.5zM446 790q0 -41 -31 -41q-29 0 -29 34q0 17 8.5 29t23.5 12q13 0 20.5 -9.5t7.5 -24.5z M321 14q77 0 123.5 51.5t46.5 134.5v335l-8 115l40 10v-460q0 -93 -57.5 -151.5t-150.5 -58.5q-91 0 -145.5 58.5t-54.5 151.5v335l-8 115l40 10v-460q0 -82 48 -134t126 -52z" />
<glyph unicode="&#x1da;" horiz-adv-x="525" d="M358 930l9 -9q-55 -71 -86 -140l-32 -6q-29 67 -87 146l9 9q50 -46 93 -122q46 78 94 122zM212 659q0 -41 -31 -41q-29 0 -29 34q0 17 8.5 29t23.5 12q13 0 20.5 -9.5t7.5 -24.5zM377 659q0 -41 -31 -41q-29 0 -29 34q0 17 8.5 29t23.5 12q13 0 20.5 -9.5t7.5 -24.5z M90 159v341l30 10v-340q0 -76 30 -116t80 -40q38 0 80 23t75 65v398l30 10v-405q0 -63 25 -105l-28 -10q-23 37 -26 79q-73 -79 -162 -79q-67 0 -100.5 49t-33.5 120z" />
<glyph unicode="&#x1db;" horiz-adv-x="638" d="M404 922l-9 -17q-92 27 -162 84l35 25q63 -55 136 -92zM251 790q0 -41 -31 -41q-29 0 -29 34q0 17 8.5 29t23.5 12q13 0 20.5 -9.5t7.5 -24.5zM446 790q0 -41 -31 -41q-29 0 -29 34q0 17 8.5 29t23.5 12q13 0 20.5 -9.5t7.5 -24.5zM321 14q77 0 123.5 51.5t46.5 134.5 v335l-8 115l40 10v-460q0 -93 -57.5 -151.5t-150.5 -58.5q-91 0 -145.5 58.5t-54.5 151.5v335l-8 115l40 10v-460q0 -82 48 -134t126 -52z" />
<glyph unicode="&#x1dc;" horiz-adv-x="525" d="M319 780l-14 -5q-59 62 -94 149l36 2q25 -78 72 -146zM212 659q0 -41 -31 -41q-29 0 -29 34q0 17 8.5 29t23.5 12q13 0 20.5 -9.5t7.5 -24.5zM377 659q0 -41 -31 -41q-29 0 -29 34q0 17 8.5 29t23.5 12q13 0 20.5 -9.5t7.5 -24.5zM90 159v341l30 10v-340q0 -76 30 -116 t80 -40q38 0 80 23t75 65v398l30 10v-405q0 -63 25 -105l-28 -10q-23 37 -26 79q-73 -79 -162 -79q-67 0 -100.5 49t-33.5 120z" />
<glyph unicode="&#x1e6;" horiz-adv-x="612" d="M433 842l10 -13q-61 -46 -96 -92l-36 -6q-36 50 -97 98l10 13q58 -29 104 -75q48 47 105 75zM512 29q-66 -39 -158 -39q-131 0 -206 92.5t-73 242.5t77.5 242.5t206.5 92.5q83 0 148 -34l-11 -34q-61 44 -148 44q-112 0 -176.5 -86t-62.5 -225t68.5 -224.5t182.5 -85.5 q68 0 120 26v102l-8 115l40 10v-239z" />
<glyph unicode="&#x1e7;" horiz-adv-x="471" d="M324 737l9 -9q-55 -71 -86 -140l-32 -6q-29 67 -87 146l9 9q50 -46 93 -122q46 78 94 122zM119 114q0 35 39 56q-40 19 -63 59t-23 95q0 80 47 133t122 53q121 0 210 5v-31l-143 4v-1q37 -17 59.5 -60t22.5 -94q0 -79 -46.5 -128.5t-116.5 -49.5q-24 0 -50 8 q-28 -20 -28 -45q0 -43 87 -51l56 -5q158 -14 158 -111q0 -63 -64.5 -104.5t-167.5 -41.5q-88 0 -138 31t-50 84q0 49 39.5 84.5t92.5 52.5q-43 19 -43 57zM104 330q0 -65 34.5 -108t95.5 -43q60 0 92 41.5t32 112.5q0 67 -30.5 110t-90.5 43q-62 0 -97.5 -45t-35.5 -111z M62 -75q0 -44 42 -70t116 -26q87 0 142.5 33.5t55.5 85.5q0 39 -35 62.5t-99 28.5l-79 7q-61 -11 -102 -44t-41 -77z" />
<glyph unicode="&#x1ea;" horiz-adv-x="661" d="M586 325q-1 -111 -41.5 -193t-111.5 -117q-48 -28 -78.5 -61.5t-30.5 -62.5q0 -21 13 -32.5t35 -11.5q24 0 51 15l7 -16q-26 -22 -69 -22q-31 0 -50 16t-19 43q0 54 73 110q-18 -3 -37 -3q-116 0 -185.5 93t-67.5 242t72.5 242t186.5 93q115 0 184.5 -93t67.5 -242z M109 325q2 -139 63 -225t162 -86q100 0 160 86.5t58 224.5q-2 139 -63 225t-161 86q-101 0 -161 -86t-58 -225z" />
<glyph unicode="&#x1eb;" horiz-adv-x="547" d="M482 264q0 -159 -99 -232q-104 -93 -104 -143q0 -42 48 -42q24 0 51 15l7 -16q-26 -22 -69 -22q-31 0 -50 15t-19 42q0 52 71 118q-28 -9 -61 -9q-87 0 -139.5 65t-52.5 179q0 131 66 203.5t159 72.5q87 0 139.5 -65.5t52.5 -180.5zM97 240q0 -106 46 -166t122 -60 q78 0 131.5 63.5t53.5 179.5q0 105 -45.5 167t-122.5 62q-78 0 -131.5 -64.5t-53.5 -181.5z" />
<glyph unicode="&#x1f4;" horiz-adv-x="612" d="M414 816q-70 -57 -162 -84l-9 17q73 37 136 92zM512 29q-66 -39 -158 -39q-131 0 -206 92.5t-73 242.5t77.5 242.5t206.5 92.5q83 0 148 -34l-11 -34q-61 44 -148 44q-112 0 -176.5 -86t-62.5 -225t68.5 -224.5t182.5 -85.5q68 0 120 26v102l-8 115l40 10v-239z" />
<glyph unicode="&#x1f5;" horiz-adv-x="471" d="M285 731q-35 -87 -94 -149l-14 5q47 68 72 146zM119 114q0 35 39 56q-40 19 -63 59t-23 95q0 80 47 133t122 53q121 0 210 5v-31l-143 4v-1q37 -17 59.5 -60t22.5 -94q0 -79 -46.5 -128.5t-116.5 -49.5q-24 0 -50 8q-28 -20 -28 -45q0 -43 87 -51l56 -5q158 -14 158 -111 q0 -63 -64.5 -104.5t-167.5 -41.5q-88 0 -138 31t-50 84q0 49 39.5 84.5t92.5 52.5q-43 19 -43 57zM104 330q0 -65 34.5 -108t95.5 -43q60 0 92 41.5t32 112.5q0 67 -30.5 110t-90.5 43q-62 0 -97.5 -45t-35.5 -111zM62 -75q0 -44 42 -70t116 -26q87 0 142.5 33.5t55.5 85.5 q0 39 -35 62.5t-99 28.5l-79 7q-61 -11 -102 -44t-41 -77z" />
<glyph unicode="&#x1fa;" horiz-adv-x="560" d="M365 1025q-70 -57 -162 -84l-9 17q73 37 136 92zM355 792q0 -31 -23 -53t-55 -22q-31 0 -52 19.5t-21 47.5q0 31 23.5 53t56.5 22q31 0 51 -19t20 -48zM235 787q0 -19 12 -31.5t31 -12.5q18 0 32 13.5t14 32.5t-12 31.5t-31 12.5t-32.5 -13.5t-13.5 -32.5zM68 0h-33 l179 532l39 118l52 10l220 -660h-33l-61 182h-302zM280 628l-140 -416h281l-140 416h-1z" />
<glyph unicode="&#x1fb;" horiz-adv-x="491" d="M288 969q-35 -87 -94 -149l-14 5q47 68 72 146zM309 664q0 -34 -23 -58t-55 -24q-31 0 -52 21.5t-21 52.5q0 34 23.5 58t56.5 24q31 0 51 -21t20 -53zM188 659q0 -23 12.5 -37.5t31.5 -14.5t33 15.5t14 38.5t-12.5 37.5t-31.5 14.5q-20 0 -33.5 -15.5t-13.5 -38.5z M378 -10q-21 43 -24 74q-30 -29 -76 -51.5t-96 -22.5q-56 0 -89 31.5t-33 79.5q0 56 44.5 96.5t109 58.5t139.5 19v93q0 118 -114 118q-78 0 -148 -54l-10 28q70 50 158 50q69 0 106.5 -35.5t37.5 -103.5q0 -7 -1 -120t-1 -130q0 -67 25 -121zM92 104q0 -40 27 -65t74 -25 q41 0 88 23.5t72 54.5v160q-111 -2 -186 -39t-75 -109z" />
<glyph unicode="&#x1fc;" horiz-adv-x="839" d="M526 816q-70 -57 -162 -84l-9 17q73 37 136 92zM68 0h-33l279 532l57 118h323l-5 -31l-262 5l33 -289l230 3l-5 -31l-222 2l32 -283l289 5l-5 -31h-314l-19 182h-282zM398 628l-219 -416h264l-44 416h-1z" />
<glyph unicode="&#x1fd;" horiz-adv-x="772" d="M441 731q-35 -87 -94 -149l-14 5q47 68 72 146zM687 21q-60 -31 -130 -31q-123 0 -176 102q-31 -38 -85.5 -70t-113.5 -32q-56 0 -89 31.5t-33 79.5q0 82 87.5 127t205.5 47v5v88q0 118 -114 118q-78 0 -148 -54l-10 28q70 50 158 50q63 0 99.5 -32t40.5 -92 q26 59 70.5 91.5t100.5 32.5q73 0 117.5 -50.5t44.5 -132.5q0 -38 -1 -57l-5 -15h-324v-6q0 -113 48 -173.5t131 -60.5q69 0 128 37zM550 486q-69 0 -114.5 -54t-52.5 -153l296 6q1 14 1 41q0 75 -34 117.5t-96 42.5zM92 105q0 -41 26.5 -66t71.5 -25q48 0 99.5 28.5 t82.5 70.5q-21 52 -21 124v15q-110 -2 -184.5 -39t-74.5 -108z" />
<glyph unicode="&#x1fe;" horiz-adv-x="661" d="M416 816q-70 -57 -162 -84l-9 17q73 37 136 92zM586 325q-2 -149 -72.5 -242t-185.5 -93q-114 0 -184 91l-88 -101l-21 19l93 107q-54 89 -53 219q2 149 72.5 242t186.5 93q119 0 189 -99l89 102l22 -18l-95 -110q48 -88 47 -210zM109 325q1 -112 43 -192l348 401 q-62 102 -172 102q-101 0 -161 -86t-58 -225zM552 325q-2 106 -38 182l-347 -400q63 -93 167 -93q100 0 160 86.5t58 224.5z" />
<glyph unicode="&#x1ff;" horiz-adv-x="547" d="M328 731q-35 -87 -94 -149l-14 5q47 68 72 146zM482 264q0 -131 -66 -202.5t-159 -71.5q-92 0 -144 71l-50 -54l-18 16l55 58q-35 61 -35 153q0 131 66 203.5t159 72.5q92 0 143 -71l51 54l19 -16l-56 -60q35 -59 35 -153zM97 240q0 -79 26 -133l288 308q-46 71 -129 71 q-78 0 -131.5 -64.5t-53.5 -181.5zM450 257q0 81 -27 135l-287 -307q45 -71 129 -71q78 0 131.5 63.5t53.5 179.5z" />
<glyph unicode="&#x218;" horiz-adv-x="479" d="M414 144q0 -67 -51.5 -110.5t-137.5 -43.5q-83 0 -160 36l6 35q26 -18 69.5 -32.5t90.5 -14.5q71 0 110 36.5t39 89.5q0 38 -22 70.5t-55 54.5t-71.5 48t-71.5 49.5t-55 60t-22 79.5q0 69 51 113.5t138 44.5q73 0 133 -29l-6 -35q-19 14 -55.5 27t-78.5 13 q-69 0 -108.5 -36.5t-39.5 -90.5q0 -45 30.5 -83t74.5 -66.5t87.5 -57.5t74 -69.5t30.5 -88.5zM285 -130q0 -23 -12.5 -55.5t-34.5 -58.5l-12 8q23 38 28 80h-1q-29 6 -29 33q0 15 8.5 25t22.5 10q30 0 30 -42z" />
<glyph unicode="&#x219;" horiz-adv-x="409" d="M359 116q0 -56 -45.5 -91t-120.5 -35t-143 36l6 35q63 -47 144 -47q60 0 93.5 28t33.5 71q0 24 -9.5 42.5t-32.5 35.5t-37.5 25t-48.5 25q-30 14 -48.5 25t-39.5 28t-31 38.5t-10 48.5q0 56 44.5 92.5t119.5 36.5q66 0 118 -29l-6 -35q-48 40 -120 40q-57 0 -90.5 -28.5 t-33.5 -71.5q0 -40 28 -66.5t83 -54.5q80 -42 104 -63q42 -37 42 -86zM242 -130q0 -23 -12.5 -55.5t-34.5 -58.5l-12 8q23 38 28 80h-1q-29 6 -29 33q0 15 8.5 25t22.5 10q30 0 30 -42z" />
<glyph unicode="&#x21a;" horiz-adv-x="470" d="M252 0h-32v624l-195 -5l5 31h410l5 -31l-193 5v-624zM265 -130q0 -23 -12.5 -55.5t-34.5 -58.5l-12 8q23 38 28 80h-1q-29 6 -29 33q0 15 8.5 25t22.5 10q30 0 30 -42z" />
<glyph unicode="&#x21b;" horiz-adv-x="369" d="M328 451l-193 3v-320q0 -27 1.5 -41.5t9.5 -36t28 -32t52 -10.5q59 0 107 34l6 -27q-50 -31 -118 -31q-116 0 -116 130v335l-55 1v15l56 5l9 155l20 3v-158h195zM240 -130q0 -23 -12.5 -55.5t-34.5 -58.5l-12 8q23 38 28 80h-1q-29 6 -29 33q0 15 8.5 25t22.5 10 q30 0 30 -42z" />
<glyph unicode="&#x232;" horiz-adv-x="517" d="M149 770v33h220v-33h-220zM274 0h-32v212l-217 438l29 10l204 -410h1l204 410l29 -10l-218 -438v-212z" />
<glyph unicode="&#x233;" horiz-adv-x="445" d="M130 646v26h200v-26h-200zM11 -195q-33 0 -65 9v28q39 -13 82 -13q62 0 111.5 44t77.5 127h-7l-176 501l30 9l162 -476h2l162 476l25 -9q-66 -205 -175 -502q-41 -108 -94.5 -151t-134.5 -43z" />
<glyph unicode="&#x237;" horiz-adv-x="213" d="M11 -177q42 33 62 69t20 95v398l-8 115l38 10v-526q0 -112 -101 -180z" />
<glyph unicode="&#x259;" horiz-adv-x="487" d="M60 173q0 38 1 57l5 15h324v6q0 113 -48 173.5t-131 60.5q-69 0 -128 -37l2 31q60 31 130 31q98 0 152.5 -65.5t54.5 -181.5q0 -120 -55.5 -196.5t-144.5 -76.5q-73 0 -117.5 50.5t-44.5 132.5zM92 174q0 -75 34 -117.5t96 -42.5q69 0 114.5 54t52.5 153l-296 -6 q-1 -14 -1 -41z" />
<glyph unicode="&#x272;" horiz-adv-x="524" d="M11 -177q42 33 62 69t20 95v398l-8 115l38 10v-79q74 79 169 79q74 0 108 -48t34 -121v-341h-30v330q0 77 -30.5 116.5t-87.5 39.5q-90 0 -163 -88v-414q0 -112 -101 -180z" />
<glyph unicode="&#x2c6;" horiz-adv-x="329" d="M71 582l-9 9q55 71 86 140l32 6q29 -67 87 -146l-9 -9q-50 46 -93 122q-46 -78 -94 -122z" />
<glyph unicode="&#x2c7;" horiz-adv-x="329" d="M258 737l9 -9q-55 -71 -86 -140l-32 -6q-29 67 -87 146l9 9q50 -46 93 -122q46 78 94 122z" />
<glyph unicode="&#x2d8;" horiz-adv-x="346" d="M169 588q-40 0 -67.5 35.5t-29.5 99.5l18 4q17 -111 83 -111t84 113l17 4q-3 -67 -31.5 -106t-73.5 -39z" />
<glyph unicode="&#x2d9;" horiz-adv-x="198" d="M128 659q0 -44 -30 -44q-13 0 -20.5 10.5t-7.5 26.5q0 18 8.5 30.5t22.5 12.5q27 0 27 -36z" />
<glyph unicode="&#x2da;" horiz-adv-x="291" d="M221 664q0 -34 -23 -58t-55 -24q-31 0 -52 21.5t-21 52.5q0 34 23.5 58t56.5 24q31 0 51 -21t20 -53zM100 659q0 -23 12.5 -37.5t31.5 -14.5t33 15.5t14 38.5t-12.5 37.5t-31.5 14.5q-20 0 -33.5 -15.5t-13.5 -38.5z" />
<glyph unicode="&#x2db;" horiz-adv-x="333" d="M282 0q-45 -17 -76 -49t-31 -62q0 -42 48 -42q24 0 51 15l7 -16q-26 -22 -69 -22q-31 0 -50 15t-19 42q0 39 36 76.5t90 55.5z" />
<glyph unicode="&#x2dc;" horiz-adv-x="389" d="M141 703q25 0 59.5 -24t51.5 -24q35 0 55 51l14 -4q-3 -29 -24 -53t-50 -24q-25 0 -58.5 24t-51.5 24q-35 0 -55 -51l-14 4q4 28 24 52.5t49 24.5z" />
<glyph unicode="&#x2dd;" d="M178 731q-36 -89 -93 -149l-10 6q45 67 71 145zM300 731q-36 -89 -93 -149l-10 6q45 67 71 145z" />
<glyph unicode="&#x1e0c;" horiz-adv-x="636" d="M120 535l-8 115h146q144 0 224.5 -89.5t78.5 -235.5t-83.5 -235.5t-225.5 -89.5h-132v535zM252 624h-100v-598h106q129 0 200 82t69 217t-74 217t-201 82zM345 -124q0 -44 -30 -44q-13 0 -20.5 10.5t-7.5 26.5q0 18 8.5 30.5t22.5 12.5q27 0 27 -36z" />
<glyph unicode="&#x1e0d;" horiz-adv-x="542" d="M429 -10q-14 27 -22 62q-61 -62 -150 -62q-87 0 -139.5 65t-52.5 179q0 131 66 203.5t159 72.5q63 0 112 -36v96l-8 115l38 10v-549q0 -79 25 -146zM97 240q0 -106 46 -166t122 -60q86 0 137 70v6v347q-46 49 -119 49q-83 0 -134.5 -67t-51.5 -179zM290 -124 q0 -44 -30 -44q-13 0 -20.5 10.5t-7.5 26.5q0 18 8.5 30.5t22.5 12.5q27 0 27 -36z" />
<glyph unicode="&#x1e24;" horiz-adv-x="668" d="M152 0h-32v535l-8 115l40 10v-333h364v208l-8 115l40 10v-660h-32v297h-364v-297zM363 -124q0 -44 -30 -44q-13 0 -20.5 10.5t-7.5 26.5q0 18 8.5 30.5t22.5 12.5q27 0 27 -36z" />
<glyph unicode="&#x1e25;" horiz-adv-x="524" d="M123 0h-30v570l-8 115l38 10v-264q74 79 169 79q74 0 108 -48t34 -121v-341h-30v330q0 77 -30.5 116.5t-87.5 39.5q-90 0 -163 -88v-398zM294 -124q0 -44 -30 -44q-13 0 -20.5 10.5t-7.5 26.5q0 18 8.5 30.5t22.5 12.5q27 0 27 -36z" />
<glyph unicode="&#x1e44;" horiz-adv-x="670" d="M364 792q0 -44 -30 -44q-13 0 -20.5 10.5t-7.5 26.5q0 18 8.5 30.5t22.5 12.5q27 0 27 -36zM120 535l-8 115l50 10l357 -632h2l-6 622l35 10v-660h-49l-352 623h-2l6 -623h-33v535z" />
<glyph unicode="&#x1e45;" horiz-adv-x="524" d="M294 659q0 -44 -30 -44q-13 0 -20.5 10.5t-7.5 26.5q0 18 8.5 30.5t22.5 12.5q27 0 27 -36zM123 0h-30v385l-8 115l38 10v-79q74 79 169 79q74 0 108 -48t34 -121v-341h-30v330q0 77 -30.5 116.5t-87.5 39.5q-90 0 -163 -88v-398z" />
<glyph unicode="&#x1e5a;" horiz-adv-x="539" d="M152 0h-32v535l-8 115h127q104 0 163 -51.5t59 -135.5q0 -69 -39 -117t-108 -66l175 -280l-34 -10l-176 283q-23 -3 -46 -3h-81v-270zM233 624h-81v-328h87q89 0 138.5 45.5t49.5 121.5q0 74 -50 117.5t-144 43.5zM304 -124q0 -44 -30 -44q-13 0 -20.5 10.5t-7.5 26.5 q0 18 8.5 30.5t22.5 12.5q27 0 27 -36z" />
<glyph unicode="&#x1e5b;" horiz-adv-x="327" d="M123 0h-30v385l-8 115l38 10v-119q24 59 63.5 89t87.5 30q18 0 38 -4l-6 -32q-16 6 -38 6q-93 0 -145 -124v-356zM136 -124q0 -44 -30 -44q-13 0 -20.5 10.5t-7.5 26.5q0 18 8.5 30.5t22.5 12.5q27 0 27 -36z" />
<glyph unicode="&#x1e62;" horiz-adv-x="479" d="M414 144q0 -67 -51.5 -110.5t-137.5 -43.5q-83 0 -160 36l6 35q26 -18 69.5 -32.5t90.5 -14.5q71 0 110 36.5t39 89.5q0 38 -22 70.5t-55 54.5t-71.5 48t-71.5 49.5t-55 60t-22 79.5q0 69 51 113.5t138 44.5q73 0 133 -29l-6 -35q-19 14 -55.5 27t-78.5 13 q-69 0 -108.5 -36.5t-39.5 -90.5q0 -45 30.5 -83t74.5 -66.5t87.5 -57.5t74 -69.5t30.5 -88.5zM284 -124q0 -44 -30 -44q-13 0 -20.5 10.5t-7.5 26.5q0 18 8.5 30.5t22.5 12.5q27 0 27 -36z" />
<glyph unicode="&#x1e63;" horiz-adv-x="409" d="M359 116q0 -56 -45.5 -91t-120.5 -35t-143 36l6 35q63 -47 144 -47q60 0 93.5 28t33.5 71q0 24 -9.5 42.5t-32.5 35.5t-37.5 25t-48.5 25q-30 14 -48.5 25t-39.5 28t-31 38.5t-10 48.5q0 56 44.5 92.5t119.5 36.5q66 0 118 -29l-6 -35q-48 40 -120 40q-57 0 -90.5 -28.5 t-33.5 -71.5q0 -40 28 -66.5t83 -54.5q80 -42 104 -63q42 -37 42 -86zM241 -124q0 -44 -30 -44q-13 0 -20.5 10.5t-7.5 26.5q0 18 8.5 30.5t22.5 12.5q27 0 27 -36z" />
<glyph unicode="&#x1e6c;" horiz-adv-x="470" d="M252 0h-32v624l-195 -5l5 31h410l5 -31l-193 5v-624zM264 -124q0 -44 -30 -44q-13 0 -20.5 10.5t-7.5 26.5q0 18 8.5 30.5t22.5 12.5q27 0 27 -36z" />
<glyph unicode="&#x1e6d;" horiz-adv-x="369" d="M328 451l-193 3v-320q0 -27 1.5 -41.5t9.5 -36t28 -32t52 -10.5q59 0 107 34l6 -27q-50 -31 -118 -31q-116 0 -116 130v335l-55 1v15l56 5l9 155l20 3v-158h195zM239 -124q0 -44 -30 -44q-13 0 -20.5 10.5t-7.5 26.5q0 18 8.5 30.5t22.5 12.5q27 0 27 -36z" />
<glyph unicode="&#x1e80;" horiz-adv-x="873" d="M522 748l-9 -17q-92 27 -162 84l35 25q63 -55 136 -92zM217 0l-182 650l29 10l177 -635h1l179 625h32l178 -625h1l177 635l29 -10l-182 -650h-47l-171 600h-2l-172 -600h-47z" />
<glyph unicode="&#x1e81;" horiz-adv-x="708" d="M408 587l-14 -5q-59 62 -94 149l36 2q25 -78 72 -146zM184 0l-154 501l30 9l140 -476h2l138 476h31l140 -476h2l140 476l25 -9q-66 -233 -154 -501h-29l-140 475h-1q-54 -200 -141 -475h-29z" />
<glyph unicode="&#x1e82;" horiz-adv-x="873" d="M522 816q-70 -57 -162 -84l-9 17q73 37 136 92zM217 0l-182 650l29 10l177 -635h1l179 625h32l178 -625h1l177 635l29 -10l-182 -650h-47l-171 600h-2l-172 -600h-47z" />
<glyph unicode="&#x1e83;" horiz-adv-x="708" d="M408 731q-35 -87 -94 -149l-14 5q47 68 72 146zM184 0l-154 501l30 9l140 -476h2l138 476h31l140 -476h2l140 476l25 -9q-66 -233 -154 -501h-29l-140 475h-1q-54 -200 -141 -475h-29z" />
<glyph unicode="&#x1e84;" horiz-adv-x="873" d="M369 790q0 -41 -31 -41q-29 0 -29 34q0 17 8.5 29t23.5 12q13 0 20.5 -9.5t7.5 -24.5zM564 790q0 -41 -31 -41q-29 0 -29 34q0 17 8.5 29t23.5 12q13 0 20.5 -9.5t7.5 -24.5zM217 0l-182 650l29 10l177 -635h1l179 625h32l178 -625h1l177 635l29 -10l-182 -650h-47 l-171 600h-2l-172 -600h-47z" />
<glyph unicode="&#x1e85;" horiz-adv-x="708" d="M301 659q0 -41 -31 -41q-29 0 -29 34q0 17 8.5 29t23.5 12q13 0 20.5 -9.5t7.5 -24.5zM466 659q0 -41 -31 -41q-29 0 -29 34q0 17 8.5 29t23.5 12q13 0 20.5 -9.5t7.5 -24.5zM184 0l-154 501l30 9l140 -476h2l138 476h31l140 -476h2l140 476l25 -9q-66 -233 -154 -501 h-29l-140 475h-1q-54 -200 -141 -475h-29z" />
<glyph unicode="&#x1e92;" horiz-adv-x="503" d="M453 0h-402l-6 18l367 604q-286 0 -359 -7l5 35h388l6 -18l-367 -604q138 0 180.5 0.5t92 4t100.5 12.5zM281 -124q0 -44 -30 -44q-13 0 -20.5 10.5t-7.5 26.5q0 18 8.5 30.5t22.5 12.5q27 0 27 -36z" />
<glyph unicode="&#x1e93;" horiz-adv-x="420" d="M370 0h-321l-6 16l286 461h-77q-112 0 -212 -9l12 32h306l6 -16l-285 -461h74q113 0 227 14zM239 -124q0 -44 -30 -44q-13 0 -20.5 10.5t-7.5 26.5q0 18 8.5 30.5t22.5 12.5q27 0 27 -36z" />
<glyph unicode="&#x1e9e;" d="M482 570v-12l-152 -176q205 -93 205 -225q0 -70 -51 -118.5t-135 -48.5q-65 0 -128 25v29q56 -30 126 -30q69 0 111.5 41t42.5 105q0 68 -52.5 117t-148.5 92v17l152 176q-55 74 -135 74q-69 0 -117.5 -54t-48.5 -135v-369q0 -50 -14 -88l-30 10q12 38 12 77v367 q0 102 59.5 159t140.5 57q95 0 163 -90z" />
<glyph unicode="&#x1ea0;" horiz-adv-x="560" d="M68 0h-33l179 532l39 118l52 10l220 -660h-33l-61 182h-302zM280 628l-140 -416h281l-140 416h-1zM309 -124q0 -44 -30 -44q-13 0 -20.5 10.5t-7.5 26.5q0 18 8.5 30.5t22.5 12.5q27 0 27 -36z" />
<glyph unicode="&#x1ea1;" horiz-adv-x="491" d="M378 -10q-21 43 -24 74q-30 -29 -76 -51.5t-96 -22.5q-56 0 -89 31.5t-33 79.5q0 56 44.5 96.5t109 58.5t139.5 19v93q0 118 -114 118q-78 0 -148 -54l-10 28q70 50 158 50q69 0 106.5 -35.5t37.5 -103.5q0 -7 -1 -120t-1 -130q0 -67 25 -121zM92 104q0 -40 27 -65 t74 -25q41 0 88 23.5t72 54.5v160q-111 -2 -186 -39t-75 -109zM263 -124q0 -44 -30 -44q-13 0 -20.5 10.5t-7.5 26.5q0 18 8.5 30.5t22.5 12.5q27 0 27 -36z" />
<glyph unicode="&#x1eb8;" horiz-adv-x="496" d="M436 0h-316v535l-8 115h329l-5 -31l-284 5v-289l199 3l-5 -31l-194 2v-283l289 5zM275 -124q0 -44 -30 -44q-13 0 -20.5 10.5t-7.5 26.5q0 18 8.5 30.5t22.5 12.5q27 0 27 -36z" />
<glyph unicode="&#x1eb9;" horiz-adv-x="487" d="M402 21q-60 -31 -130 -31q-98 0 -152.5 65.5t-54.5 181.5q0 120 55.5 196.5t144.5 76.5q73 0 117.5 -50.5t44.5 -132.5q0 -38 -1 -57l-5 -15h-324v-6q0 -113 48 -173.5t131 -60.5q69 0 128 37zM265 486q-69 0 -114.5 -54t-52.5 -153l296 6q1 14 1 41q0 75 -34 117.5 t-96 42.5zM283 -124q0 -44 -30 -44q-13 0 -20.5 10.5t-7.5 26.5q0 18 8.5 30.5t22.5 12.5q27 0 27 -36z" />
<glyph unicode="&#x1ebc;" horiz-adv-x="496" d="M226 825q24 0 56 -21.5t49 -21.5q35 0 58 47l16 -5q-7 -29 -28 -51t-51 -22q-24 0 -55 21.5t-49 21.5q-34 0 -58 -47l-16 5q8 29 28 51t50 22zM436 0h-316v535l-8 115h329l-5 -31l-284 5v-289l199 3l-5 -31l-194 2v-283l289 5z" />
<glyph unicode="&#x1ebd;" horiz-adv-x="487" d="M192 703q25 0 59.5 -24t51.5 -24q35 0 55 51l14 -4q-3 -29 -23.5 -53t-50.5 -24q-25 0 -58.5 24t-51.5 24q-35 0 -55 -51l-14 4q4 28 24 52.5t49 24.5zM402 21q-60 -31 -130 -31q-98 0 -152.5 65.5t-54.5 181.5q0 120 55.5 196.5t144.5 76.5q73 0 117.5 -50.5 t44.5 -132.5q0 -38 -1 -57l-5 -15h-324v-6q0 -113 48 -173.5t131 -60.5q69 0 128 37zM265 486q-69 0 -114.5 -54t-52.5 -153l296 6q1 14 1 41q0 75 -34 117.5t-96 42.5z" />
<glyph unicode="&#x1eca;" horiz-adv-x="272" d="M152 0h-32v535l-8 115l40 10v-660zM165 -124q0 -44 -30 -44q-13 0 -20.5 10.5t-7.5 26.5q0 18 8.5 30.5t22.5 12.5q27 0 27 -36z" />
<glyph unicode="&#x1ecb;" horiz-adv-x="213" d="M140 659q0 -44 -30 -44q-13 0 -20.5 10.5t-7.5 26.5q0 18 8.5 30.5t22.5 12.5q27 0 27 -36zM123 0h-30v385l-8 115l38 10v-510zM140 -124q0 -44 -30 -44q-13 0 -20.5 10.5t-7.5 26.5q0 18 8.5 30.5t22.5 12.5q27 0 27 -36z" />
<glyph unicode="&#x1ecc;" horiz-adv-x="661" d="M586 325q-2 -149 -72.5 -242t-185.5 -93q-116 0 -185.5 93t-67.5 242t72.5 242t186.5 93q115 0 184.5 -93t67.5 -242zM109 325q2 -139 63 -225t162 -86q100 0 160 86.5t58 224.5q-2 139 -63 225t-161 86q-101 0 -161 -86t-58 -225zM360 -124q0 -44 -30 -44 q-13 0 -20.5 10.5t-7.5 26.5q0 18 8.5 30.5t22.5 12.5q27 0 27 -36z" />
<glyph unicode="&#x1ecd;" horiz-adv-x="547" d="M482 264q0 -131 -66 -202.5t-159 -71.5q-87 0 -139.5 65t-52.5 179q0 131 66 203.5t159 72.5q87 0 139.5 -65.5t52.5 -180.5zM97 240q0 -106 46 -166t122 -60q78 0 131.5 63.5t53.5 179.5q0 105 -45.5 167t-122.5 62q-78 0 -131.5 -64.5t-53.5 -181.5zM303 -124 q0 -44 -30 -44q-13 0 -20.5 10.5t-7.5 26.5q0 18 8.5 30.5t22.5 12.5q27 0 27 -36z" />
<glyph unicode="&#x1ee4;" horiz-adv-x="638" d="M321 14q77 0 123.5 51.5t46.5 134.5v335l-8 115l40 10v-460q0 -93 -57.5 -151.5t-150.5 -58.5q-91 0 -145.5 58.5t-54.5 151.5v335l-8 115l40 10v-460q0 -82 48 -134t126 -52zM348 -124q0 -44 -30 -44q-13 0 -20.5 10.5t-7.5 26.5q0 18 8.5 30.5t22.5 12.5q27 0 27 -36z " />
<glyph unicode="&#x1ee5;" horiz-adv-x="525" d="M90 159v341l30 10v-340q0 -76 30 -116t80 -40q38 0 80 23t75 65v398l30 10v-405q0 -63 25 -105l-28 -10q-23 37 -26 79q-73 -79 -162 -79q-67 0 -100.5 49t-33.5 120zM294 -124q0 -44 -30 -44q-13 0 -20.5 10.5t-7.5 26.5q0 18 8.5 30.5t22.5 12.5q27 0 27 -36z" />
<glyph unicode="&#x1ef2;" horiz-adv-x="517" d="M344 748l-9 -17q-92 27 -162 84l35 25q63 -55 136 -92zM274 0h-32v212l-217 438l29 10l204 -410h1l204 410l29 -10l-218 -438v-212z" />
<glyph unicode="&#x1ef3;" horiz-adv-x="445" d="M284 587l-14 -5q-59 62 -94 149l36 2q25 -78 72 -146zM11 -195q-33 0 -65 9v28q39 -13 82 -13q62 0 111.5 44t77.5 127h-7l-176 501l30 9l162 -476h2l162 476l25 -9q-66 -205 -175 -502q-41 -108 -94.5 -151t-134.5 -43z" />
<glyph unicode="&#x1ef8;" horiz-adv-x="517" d="M208 825q24 0 56 -21.5t49 -21.5q35 0 58 47l16 -5q-7 -29 -28 -51t-51 -22q-24 0 -55 21.5t-49 21.5q-34 0 -58 -47l-16 5q8 29 28 51t50 22zM274 0h-32v212l-217 438l29 10l204 -410h1l204 410l29 -10l-218 -438v-212z" />
<glyph unicode="&#x1ef9;" horiz-adv-x="445" d="M170 703q25 0 59.5 -24t51.5 -24q35 0 55 51l14 -4q-3 -29 -23.5 -53t-50.5 -24q-25 0 -58.5 24t-51.5 24q-35 0 -55 -51l-14 4q4 28 24 52.5t49 24.5zM11 -195q-33 0 -65 9v28q39 -13 82 -13q62 0 111.5 44t77.5 127h-7l-176 501l30 9l162 -476h2l162 476l25 -9 q-66 -205 -175 -502q-41 -108 -94.5 -151t-134.5 -43z" />
<glyph unicode="&#x2013;" horiz-adv-x="453" d="M30 277v26h393v-26h-393z" />
<glyph unicode="&#x2014;" horiz-adv-x="695" d="M30 277v26h635v-26h-635z" />
<glyph unicode="&#x2018;" horiz-adv-x="193" d="M75 520q0 36 19.5 86t53.5 89l10 -9q-45 -66 -52 -140h1q29 -6 29 -33q0 -15 -8.5 -25t-22.5 -10q-30 0 -30 42z" />
<glyph unicode="&#x2019;" horiz-adv-x="193" d="M118 652q0 -36 -19.5 -86t-53.5 -89l-10 9q45 66 52 140h-1q-29 6 -29 33q0 15 8.5 25t22.5 10q30 0 30 -42z" />
<glyph unicode="&#x201a;" horiz-adv-x="168" d="M93 16q0 -36 -19.5 -86t-53.5 -89l-10 9q45 66 52 140h-1q-29 6 -29 33q0 15 8.5 25t22.5 10q30 0 30 -42z" />
<glyph unicode="&#x201c;" horiz-adv-x="300" d="M75 520q0 36 19.5 86t53.5 89l10 -9q-45 -66 -52 -140h1q29 -6 29 -33q0 -15 -8.5 -25t-22.5 -10q-30 0 -30 42zM182 520q0 36 19.5 86t53.5 89l10 -9q-45 -66 -52 -140h1q29 -6 29 -33q0 -15 -8.5 -25t-22.5 -10q-30 0 -30 42z" />
<glyph unicode="&#x201d;" horiz-adv-x="300" d="M225 653q0 -36 -19.5 -86t-53.5 -89l-10 9q45 66 52 140h-1q-29 6 -29 33q0 15 8.5 25t22.5 10q30 0 30 -42zM118 653q0 -36 -19.5 -86t-53.5 -89l-10 9q45 66 52 140h-1q-29 6 -29 33q0 15 8.5 25t22.5 10q30 0 30 -42z" />
<glyph unicode="&#x201e;" horiz-adv-x="275" d="M93 16q0 -36 -19.5 -86t-53.5 -89l-10 9q45 66 52 140h-1q-29 6 -29 33q0 15 8.5 25t22.5 10q30 0 30 -42zM200 16q0 -36 -19.5 -86t-53.5 -89l-10 9q45 66 52 140h-1q-29 6 -29 33q0 15 8.5 25t22.5 10q30 0 30 -42z" />
<glyph unicode="&#x2020;" horiz-adv-x="502" d="M266 -5l-30 -5l5 450l-175 -4l1 28l174 -4l-5 195l30 5l-5 -200l175 4l-1 -28l-174 4z" />
<glyph unicode="&#x2021;" horiz-adv-x="502" d="M266 -5l-30 -5l5 200l-175 -4l1 28l174 -4l-5 117l5 113l-175 -4l1 28l174 -4l-5 195l30 5l-5 -200l175 4l-1 -28l-174 4l5 -113l-5 -117l175 4l-1 -28l-174 4z" />
<glyph unicode="&#x2022;" horiz-adv-x="422" d="M307 270q0 -45 -29.5 -73.5t-74.5 -28.5q-39 0 -63.5 22.5t-24.5 61.5q0 43 30.5 72.5t75.5 29.5q38 0 62 -22.5t24 -61.5z" />
<glyph unicode="&#x2026;" horiz-adv-x="570" d="M464 -10q-13 0 -21 9.5t-8 22.5q0 14 9 25t23 11q28 0 28 -31q0 -15 -8 -26t-23 -11zM284 -10q-13 0 -21 9.5t-8 22.5q0 14 9 25t23 11q28 0 28 -31q0 -15 -8 -26t-23 -11zM104 -10q-13 0 -21 9.5t-8 22.5q0 14 9 25t23 11q28 0 28 -31q0 -15 -8 -26t-23 -11z" />
<glyph unicode="&#x2030;" horiz-adv-x="1304" d="M277 -10h-31l400 670h30zM361 474q0 -91 -42.5 -140t-105.5 -49q-62 0 -100 48t-38 134q0 91 42 140.5t106 49.5q62 0 100 -48.5t38 -134.5zM106 472q0 -74 29 -121t81 -47q50 0 81.5 43.5t31.5 121.5q0 75 -28.5 121.5t-81.5 46.5q-50 0 -81.5 -43.5t-31.5 -121.5z M855 182q0 -91 -42.5 -140t-105.5 -49q-62 0 -100 48t-38 134q0 91 42 140.5t106 49.5q62 0 100 -48.5t38 -134.5zM1229 182q0 -91 -42.5 -140t-105.5 -49q-62 0 -100 48t-38 134q0 91 42 140.5t106 49.5q62 0 100 -48.5t38 -134.5zM600 180q0 -74 29 -121t81 -47 q50 0 81.5 43.5t31.5 121.5q0 75 -28.5 121.5t-81.5 46.5q-50 0 -81.5 -43.5t-31.5 -121.5zM974 180q0 -74 29 -121t81 -47q50 0 81.5 43.5t31.5 121.5q0 75 -28.5 121.5t-81.5 46.5q-50 0 -81.5 -43.5t-31.5 -121.5z" />
<glyph unicode="&#x2039;" horiz-adv-x="298" d="M60 288v8q86 89 167 199l11 -7q-45 -77 -139 -196q94 -119 139 -196l-11 -7q-81 110 -167 199z" />
<glyph unicode="&#x203a;" horiz-adv-x="298" d="M238 288q-86 -89 -167 -199l-11 7q45 77 139 196q-94 119 -139 196l11 7q81 -110 167 -199v-8z" />
<glyph unicode="&#x2044;" horiz-adv-x="530" d="M81 -10h-31l400 670h30z" />
<glyph unicode="&#x2070;" horiz-adv-x="436" d="M361 554q0 -91 -42.5 -140t-105.5 -49q-62 0 -100 48t-38 134q0 91 42 140.5t106 49.5q62 0 100 -48.5t38 -134.5zM106 552q0 -74 29 -121t81 -47q50 0 81.5 43.5t31.5 121.5q0 75 -28.5 121.5t-81.5 46.5q-50 0 -81.5 -43.5t-31.5 -121.5z" />
<glyph unicode="&#x2074;" horiz-adv-x="398" d="M257 372h-30v85h-181l-4 14l193 266l22 -5v-249q25 1 61 5l-6 -31h-55v-85zM227 694l-157 -214h111q30 0 46 1v213z" />
<glyph unicode="&#x2075;" horiz-adv-x="374" d="M294 479q0 -51 -40 -82.5t-106 -31.5q-47 0 -88 13l4 19q46 -13 86 -13q50 0 81 26t31 68q0 41 -29 62t-73 21q-48 0 -73 -12l-6 4v177h107q58 0 99 5l-6 -29h-178v-137q32 10 68 10q56 0 89.5 -27t33.5 -73z" />
<glyph unicode="&#x2076;" horiz-adv-x="387" d="M205 365q-61 0 -95.5 42.5t-34.5 119.5q0 96 51.5 153t131.5 57q32 0 51 -7l-6 -21q-18 8 -49 8q-61 0 -102.5 -46t-45.5 -144q15 22 47.5 37t64.5 15q46 0 77.5 -28t31.5 -75q0 -49 -34.5 -80t-87.5 -31zM204 384q40 0 66 25.5t26 66.5q0 38 -23 61.5t-63 23.5 q-69 0 -104 -57q3 -50 26 -85t72 -35z" />
<glyph unicode="&#x2077;" horiz-adv-x="349" d="M137 372h-33q6 85 57 180.5t112 153.5h-83q-68 0 -135 -7l6 31h234l4 -4v-13q-63 -69 -109.5 -163t-52.5 -178z" />
<glyph unicode="&#x2078;" horiz-adv-x="402" d="M199 365q-53 0 -88.5 24.5t-35.5 61.5q0 33 29 59t73 38q-90 41 -90 100q0 39 34.5 64t82.5 25q46 0 79 -24t33 -61q0 -31 -26 -57t-69 -39q106 -38 106 -100q0 -39 -36.5 -65t-91.5 -26zM203 717q-34 0 -60 -18.5t-26 -46.5q0 -29 25.5 -52.5t60.5 -37.5q36 15 59 39 t23 51q0 29 -23.5 47t-58.5 18zM199 384q40 0 69 20.5t29 50.5q1 28 -25.5 47.5t-77.5 38.5q-88 -34 -88 -89q0 -29 27 -48.5t66 -19.5z" />
<glyph unicode="&#x2079;" horiz-adv-x="387" d="M60 623q0 51 34 82.5t88 31.5q61 0 95.5 -42.5t34.5 -119.5q0 -96 -51.5 -153t-131.5 -57q-32 0 -51 7l6 21q18 -8 49 -8q62 0 104 44t44 135q-15 -22 -47.5 -37t-64.5 -15q-46 0 -77.5 31t-31.5 80zM91 623q0 -41 23 -67t63 -26q69 0 104 57q-2 53 -25.5 92t-73.5 39 q-40 0 -65.5 -26t-25.5 -69z" />
<glyph unicode="&#x207f;" horiz-adv-x="445" d="M124 372h-30v277l-6 83l36 7v-57q52 57 123 57q53 0 78 -34.5t25 -85.5v-247h-30v237q0 107 -83 107q-63 0 -113 -59v-285z" />
<glyph unicode="&#x2080;" horiz-adv-x="436" d="M361 17q0 -91 -42.5 -140t-105.5 -49q-62 0 -100 48t-38 134q0 91 42 140.5t106 49.5q62 0 100 -48.5t38 -134.5zM106 15q0 -74 29 -121t81 -47q50 0 81.5 43.5t31.5 121.5q0 75 -28.5 121.5t-81.5 46.5q-50 0 -81.5 -43.5t-31.5 -121.5z" />
<glyph unicode="&#x2081;" horiz-adv-x="297" d="M157 -168h-30v337l-72 -28l-5 19l104 37l3 -2v-363z" />
<glyph unicode="&#x2082;" horiz-adv-x="369" d="M283 -168h-234l-4 16q103 84 154.5 141.5t51.5 109.5q0 35 -25 55.5t-66 20.5q-50 0 -104 -33l-6 25q54 30 117 30q52 0 84.5 -26t32.5 -71q0 -54 -51.5 -109.5t-157.5 -135.5h79q66 0 135 8z" />
<glyph unicode="&#x2083;" horiz-adv-x="348" d="M278 -70q0 -45 -39.5 -73.5t-109.5 -28.5q-48 0 -89 13l4 21q44 -14 84 -14q55 0 86 23.5t31 59.5t-34.5 54.5t-82.5 18.5q-19 0 -39 -4v16q69 14 104.5 42t35.5 59q0 27 -22.5 44t-61.5 17q-45 0 -93 -25l-3 21q44 26 105 26q48 0 77.5 -21t29.5 -57q0 -33 -28.5 -60 t-86.5 -43q132 -5 132 -89z" />
<glyph unicode="&#x2084;" horiz-adv-x="398" d="M257 -168h-30v85h-181l-4 14l193 266l22 -5v-249q25 1 61 5l-6 -31h-55v-85zM227 154l-157 -214h111q30 0 46 1v213z" />
<glyph unicode="&#x2085;" horiz-adv-x="374" d="M294 -58q0 -51 -40 -82.5t-106 -31.5q-47 0 -88 13l4 19q46 -13 86 -13q50 0 81 26t31 68q0 41 -29 62t-73 21q-48 0 -73 -12l-6 4v177h107q58 0 99 5l-6 -29h-178v-137q32 10 68 10q56 0 89.5 -27t33.5 -73z" />
<glyph unicode="&#x2086;" horiz-adv-x="387" d="M205 -172q-61 0 -95.5 42.5t-34.5 119.5q0 96 51.5 153t131.5 57q32 0 51 -7l-6 -21q-18 8 -49 8q-61 0 -102.5 -46t-45.5 -144q15 22 47.5 37t64.5 15q46 0 77.5 -28t31.5 -75q0 -49 -34.5 -80t-87.5 -31zM204 -153q40 0 66 25.5t26 66.5q0 38 -23 61.5t-63 23.5 q-69 0 -104 -57q3 -50 26 -85t72 -35z" />
<glyph unicode="&#x2087;" horiz-adv-x="349" d="M137 -168h-33q6 85 57 180.5t112 153.5h-83q-68 0 -135 -7l6 31h234l4 -4v-13q-63 -69 -109.5 -163t-52.5 -178z" />
<glyph unicode="&#x2088;" horiz-adv-x="402" d="M199 -172q-53 0 -88.5 24.5t-35.5 61.5q0 33 29 59t73 38q-90 41 -90 100q0 39 34.5 64t82.5 25q46 0 79 -24t33 -61q0 -31 -26 -57t-69 -39q106 -38 106 -100q0 -39 -36.5 -65t-91.5 -26zM203 180q-34 0 -60 -18.5t-26 -46.5q0 -29 25.5 -52.5t60.5 -37.5q36 15 59 39 t23 51q0 29 -23.5 47t-58.5 18zM199 -153q40 0 69 20.5t29 50.5q1 28 -25.5 47.5t-77.5 38.5q-88 -34 -88 -89q0 -29 27 -48.5t66 -19.5z" />
<glyph unicode="&#x2089;" horiz-adv-x="387" d="M60 86q0 51 34 82.5t88 31.5q61 0 95.5 -42.5t34.5 -119.5q0 -96 -51.5 -153t-131.5 -57q-32 0 -51 7l6 21q18 -8 49 -8q62 0 104 44t44 135q-15 -22 -47.5 -37t-64.5 -15q-46 0 -77.5 31t-31.5 80zM91 86q0 -41 23 -67t63 -26q69 0 104 57q-2 53 -25.5 92t-73.5 39 q-40 0 -65.5 -26t-25.5 -69z" />
<glyph unicode="&#x20ac;" horiz-adv-x="564" d="M55 265l3 23h69q-1 12 -1 37q0 7 0.5 19t0.5 18h-57l3 23h56q14 125 79.5 200t170.5 75q78 0 138 -34l-11 -34q-57 44 -135 44q-89 0 -144 -68t-66 -183h275l-2 -23h-274q-1 -12 -1 -37q0 -13 2 -37h260l-2 -23h-256q13 -115 69.5 -182.5t145.5 -67.5q84 0 135 42l6 -28 q-61 -39 -145 -39q-104 0 -168.5 74.5t-76.5 200.5h-74z" />
<glyph unicode="&#x2122;" horiz-adv-x="547" d="M266 628h-1l-24 -203h-22l29 225l36 3l61 -209l61 206l35 3l31 -228h-27l-24 203l-63 -203h-30zM120 425h-26v207l-64 -3l2 21h149l3 -21l-64 3v-207z" />
<glyph unicode="&#x2212;" horiz-adv-x="589" d="M484 312h-384v23q132 3 385 3z" />
<glyph unicode="&#x221e;" horiz-adv-x="830" d="M746 267q0 -73 -43 -121t-112 -48q-56 0 -96 36t-77 98q-79 -134 -184 -134q-67 0 -108.5 47t-41.5 120t43.5 121t113.5 48q32 0 58.5 -11t48.5 -34t36.5 -43t32.5 -51q83 139 184 139q69 0 107 -46.5t38 -120.5zM114 268q0 -66 34.5 -105t90.5 -39q83 0 165 134 q0 1 -1 2.5t-2 2.5q-39 72 -77 108.5t-86 36.5q-54 0 -89 -37.5t-35 -102.5zM600 408q-88 0 -168 -139q41 -73 78 -109t84 -36q53 0 87.5 37.5t34.5 104.5q0 65 -32.5 103.5t-83.5 38.5z" />
<glyph unicode="&#x2248;" horiz-adv-x="618" d="M181 453q-16 0 -67 -66l-14 8q14 26 23 40t26 30.5t33 16.5q22 0 126 -30.5t129 -30.5q16 0 67 66l14 -8q-46 -87 -82 -87q-22 0 -128.5 30.5t-126.5 30.5zM181 229q-16 0 -67 -66l-14 8q14 26 23 40t26 30.5t33 16.5q22 0 126 -30.5t129 -30.5q16 0 67 66l14 -8 q-46 -87 -82 -87q-22 0 -128.5 30.5t-126.5 30.5z" />
<glyph unicode="&#x2260;" horiz-adv-x="589" d="M203 116l-18 13l45 82h-130v23q19 1 69 1.5t75 0.5l98 177h-242v23q36 1 256 3l52 93l5 3l18 -13l-46 -83h100l-1 -26h-113l-98 -177q79 1 212 1l-1 -26h-225l-51 -92z" />
<glyph unicode="&#x2264;" horiz-adv-x="595" d="M476 537v-28l-338 -123l337 -122v-28q-217 75 -377 139v24zM482 115h-384v23q132 3 385 3z" />
<glyph unicode="&#x2265;" horiz-adv-x="599" d="M123 236v28l338 122l-337 123v28q217 -75 377 -139v-24zM496 115h-384v23q132 3 385 3z" />
<glyph unicode="&#x25fc;" horiz-adv-x="510" d="M0 510h510v-510h-510v510z" />
<glyph unicode="&#xfb00;" horiz-adv-x="501" d="M125 0h-30v455l-65 1v15l65 5v2q-18 47 -18 88q0 50 40 79t110 29q55 0 103 -17q35 38 98 38q43 0 73 -14l-6 -28q-39 17 -80 17q-81 0 -81 -94q0 -54 14 -100h147l-2 -25l-143 3v-454h-30v455l-195 3v-458zM109 562q0 -46 14 -86h197v2q-18 54 -18 99q0 31 12 55 q-49 18 -100 18q-105 0 -105 -88z" />
<glyph unicode="&#xfb01;" horiz-adv-x="440" d="M125 0h-30v455l-65 1v15l65 5v2q-18 54 -18 98q0 56 37.5 87.5t104.5 31.5q69 0 121 -27l-6 -28q-65 30 -128 30q-97 0 -97 -96q0 -52 14 -98h191l24 20h12v-496h-30v385l-4 66l-191 3v-454z" />
<glyph unicode="&#xfb02;" horiz-adv-x="440" d="M125 0h-30v455l-65 1v15l65 5v2q-18 54 -18 98q0 56 39 87.5t108 31.5q48 0 88 -10l38 10v-695h-30v451l-195 4v-455zM109 574q0 -52 14 -98h197v94l-6 85q-58 15 -103 15q-102 0 -102 -96z" />
<glyph unicode="&#xfb03;" horiz-adv-x="648" d="M125 0h-30v455l-65 1v15l65 5v2q-18 47 -18 88q0 50 40 79t110 29q55 0 105 -18q37 39 112 39q69 0 121 -27l-6 -28q-65 30 -128 30q-97 0 -97 -96q0 -52 14 -98h191l24 20h12v-496h-30v385l-4 66l-191 3v-454h-30v455l-195 3v-458zM109 562q0 -46 14 -86h197v2 q-18 54 -18 98q0 33 13 56q-50 18 -101 18q-105 0 -105 -88z" />
<glyph unicode="&#xfb04;" horiz-adv-x="665" d="M125 0h-30v455l-65 1v15l65 5v2q-18 47 -18 88q0 50 40 79t110 29q54 0 106 -18q39 39 116 39q48 0 88 -10l38 10v-695h-30v451l-195 4v-455h-30v455l-195 3v-458zM334 574q0 -52 14 -98h197v94l-6 85q-58 15 -103 15q-102 0 -102 -96zM109 562q0 -46 14 -86h197v2 q-18 54 -18 98q0 33 13 56q-50 18 -101 18q-105 0 -105 -88z" />
<glyph unicode="&#xfb06;" horiz-adv-x="768" d="M359 116q0 -56 -45.5 -91t-120.5 -35t-143 36l6 35q63 -47 144 -47q60 0 93.5 28t33.5 71q0 24 -9.5 42.5t-32.5 35.5t-37.5 25t-48.5 25q-32 16 -49 25.5t-39 27t-31.5 38.5t-9.5 48q0 57 44.5 93.5t119.5 36.5q42 0 75 -13q-24 31 -24 71q0 60 40.5 96t95.5 36 q57 0 94 -38t37 -94q0 -24 -6.5 -52.5t-14.5 -39.5h198l-2 -25l-193 3v-320q0 -27 1.5 -41.5t9.5 -36t28 -32t52 -10.5q59 0 107 34l6 -27q-50 -31 -118 -31q-116 0 -116 130v335l-55 1v15l56 5q15 40 15 88q0 52 -27.5 82t-73.5 30q-45 0 -73.5 -28t-28.5 -81q0 -60 45 -99 l-16 -22q-48 40 -120 40q-57 0 -90.5 -28.5t-33.5 -71.5q0 -40 28 -66.5t83 -54.5q80 -42 104 -63q42 -37 42 -86z" />
<glyph horiz-adv-x="270" d="M220 816q-70 -57 -162 -84l-9 17q73 37 136 92zM19 -171q101 45 101 162v544l-8 115l38 10v-660q0 -151 -127 -195z" />
<glyph horiz-adv-x="437" d="M318 5q-14 29 -17 53q-55 -53 -125 -53q-40 0 -64.5 22.5t-24.5 57.5q0 60 64.5 92.5t148.5 32.5v63q0 83 -82 83q-56 0 -108 -38l-7 26q53 35 118 35q52 0 80.5 -26.5t28.5 -76.5q0 -6 -1 -84.5t-1 -90.5q0 -49 18 -89zM118 90q0 -29 19 -46.5t52 -17.5q29 0 62 16.5 t49 37.5v113q-79 -2 -130.5 -27.5t-51.5 -75.5z" />
<glyph horiz-adv-x="456" d="M88 505l36 7v-176q45 43 105 43q63 0 101 -47.5t38 -130.5q0 -92 -47 -144t-128 -52q-43 0 -73 7l-26 -7v417zM220 358q-58 0 -96 -50v-269q35 -13 73 -13q61 0 100 44.5t39 126.5q0 74 -31.5 117.5t-84.5 43.5z" />
<glyph horiz-adv-x="412" d="M338 356l-5 -31q-35 31 -86 31q-55 0 -91 -43t-36 -123q0 -77 34 -119t93 -42q49 0 91 25l-1 -27q-42 -22 -94 -22q-73 0 -114 47t-41 131q0 94 48 145t120 51q48 0 82 -23z" />
<glyph horiz-adv-x="468" d="M352 5q-12 24 -17 45q-43 -45 -108 -45q-63 0 -101 46.5t-38 129.5q0 94 48 146t116 52q46 0 80 -24v67l-6 83l36 7v-394q0 -58 18 -106zM120 185q0 -74 32 -116.5t85 -42.5q58 0 95 47v4v249q-32 32 -82 32q-59 0 -94.5 -46.5t-35.5 -126.5z" />
<glyph horiz-adv-x="433" d="M340 27q-44 -22 -97 -22q-73 0 -114 47t-41 131q0 87 41.5 141.5t107.5 54.5q54 0 87.5 -36.5t33.5 -95.5q0 -28 -1 -42l-4 -11h-233q0 -80 34 -122.5t94 -42.5q52 0 93 25zM236 358q-48 0 -79.5 -38t-35.5 -107l205 4q1 10 1 30q0 52 -24 81.5t-67 29.5z" />
<glyph horiz-adv-x="269" d="M125 12h-30v324l-47 1v13l47 4v2q-13 39 -13 70q0 40 26 63t70 23q34 0 56 -10l-5 -26q-29 13 -59 13q-57 0 -57 -66q0 -37 9 -69h107l-2 -21l-102 2v-323z" />
<glyph horiz-adv-x="431" d="M130 92q0 26 31 43q-66 29 -66 110q0 58 35 96t91 38q92 0 157 4v-27l-103 4v-1q27 -12 43.5 -43t16.5 -66q0 -56 -35 -91t-88 -35q-17 0 -35 5q-19 -14 -19 -31q0 -30 61 -35l42 -4q117 -11 117 -81q0 -46 -48 -76t-125 -30q-65 0 -102 22t-37 60q0 35 28.5 59.5 t66.5 35.5q-31 15 -31 43zM126 249q0 -45 24 -75t67 -30q42 0 64.5 29t22.5 78q0 47 -21.5 77t-63.5 30q-43 0 -68 -31t-25 -78zM97 -41q0 -32 29.5 -50t81.5 -18q61 0 100 23.5t39 59.5q0 26 -24.5 43t-69.5 20l-60 4h-2q-40 -8 -67 -30.5t-27 -51.5z" />
<glyph horiz-adv-x="445" d="M124 12h-30v410l-6 83l36 7v-190q52 57 122 57q53 0 78.5 -34t25.5 -86v-247h-30v237q0 107 -83 107q-63 0 -113 -59v-285z" />
<glyph horiz-adv-x="220" d="M136 479q0 -14 -7.5 -24t-19.5 -10q-11 0 -17.5 8.5t-6.5 20.5q0 14 7.5 24t19.5 10q11 0 17.5 -8.5t6.5 -20.5zM125 12h-30v276l-6 84l36 7v-367z" />
<glyph horiz-adv-x="220" d="M132 479q0 -34 -27 -34q-11 0 -17.5 8.5t-6.5 20.5q0 14 7.5 24t19.5 10q24 0 24 -29zM36 -113q31 25 44.5 53t13.5 69v279l-6 84l36 7v-370q0 -90 -78 -138z" />
<glyph horiz-adv-x="413" d="M124 12h-30v410l-6 83l36 7v-297h60l131 164l27 -7l-135 -167l150 -193l-30 -7l-143 189h-60v-182z" />
<glyph horiz-adv-x="264" d="M147 12h-30v410l-6 83l36 7v-500z" />
<glyph horiz-adv-x="648" d="M124 12h-30v277l-6 83l36 7v-57q52 57 117 57q66 0 89 -66q26 31 60 48.5t65 17.5q49 0 73.5 -35t24.5 -85v-247h-30v237q0 52 -21 79.5t-56 27.5q-28 0 -58 -17t-53 -46q3 -17 3 -34v-247h-30v237q0 52 -20.5 79.5t-55.5 27.5q-60 0 -108 -59v-285z" />
<glyph horiz-adv-x="445" d="M124 12h-30v277l-6 83l36 7v-57q52 57 123 57q53 0 78 -34.5t25 -85.5v-247h-30v237q0 107 -83 107q-63 0 -113 -59v-285z" />
<glyph horiz-adv-x="485" d="M397 202q0 -94 -49 -145.5t-117 -51.5q-65 0 -104 46.5t-39 129.5q0 94 48.5 146t117.5 52q64 0 103.5 -47t39.5 -130zM120 185q0 -74 32 -116.5t85 -42.5q54 0 91 44.5t37 126.5q0 75 -31.5 118t-85.5 43t-91 -45t-37 -128z" />
<glyph horiz-adv-x="456" d="M94 289l-6 83l36 7v-42q42 42 105 42t101 -46.5t38 -129.5q0 -94 -48 -146t-116 -52q-45 0 -80 24v-46q0 -57 7 -104l-37 -7v417zM219 358q-58 0 -95 -47v-253q32 -32 82 -32q59 0 94.5 46.5t35.5 126.5q0 74 -32 116.5t-85 42.5z" />
<glyph horiz-adv-x="471" d="M369 -121l-37 -7v177q-46 -44 -107 -44t-99 47.5t-38 128.5q0 93 49 145.5t132 52.5q33 0 67 -6l26 6v-396q0 -56 7 -104zM120 185q0 -73 31.5 -116t84.5 -43q58 0 96 50v269q-35 13 -68 13q-63 0 -103.5 -44.5t-40.5 -128.5z" />
<glyph horiz-adv-x="299" d="M124 12h-30v277l-6 83l36 7v-86q36 86 109 86q15 0 27 -3l-4 -31q-14 4 -30 4q-65 0 -102 -82v-255z" />
<glyph horiz-adv-x="373" d="M302 97q0 -40 -34 -66t-90 -26q-57 0 -107 25l5 31q46 -33 106 -33q42 0 65.5 19t23.5 48q0 7 -1.5 13.5t-4 12t-7.5 11t-8 9.5t-10.5 9t-11 7.5t-12.5 7.5t-12.5 6.5t-13.5 6.5l-12 6q-29 14 -46 24.5t-32 31t-15 45.5q0 41 34 67.5t89 26.5q49 0 88 -21l-4 -30 q-39 28 -89 28q-40 0 -63.5 -19.5t-23.5 -48.5q0 -28 20 -46t60 -38q29 -15 39.5 -20.5t30.5 -20t28 -30.5t8 -36z" />
<glyph horiz-adv-x="346" d="M292 335l-138 3v-225q0 -14 0.5 -22t4 -22t9.5 -21.5t19 -13.5t32 -6q44 0 77 24l4 -25q-38 -22 -88 -22q-88 0 -88 97v236l-40 1v12l41 4l9 110l20 3v-113h139z" />
<glyph horiz-adv-x="445" d="M95 125v247l30 7v-246q0 -51 21 -79t56 -28q27 0 56.5 16t50.5 43v287l30 7v-289q0 -45 18 -78l-28 -7q-16 27 -19 57q-52 -57 -118 -57q-48 0 -72.5 34.5t-24.5 85.5z" />
<glyph horiz-adv-x="390" d="M337 373q-58 -180 -125 -361h-34l-125 361l30 6l114 -339h1l113 339z" />
<glyph horiz-adv-x="586" d="M163 12l-110 361l30 6l98 -339h1l97 339h31l98 -339h2l97 339l26 -6q-58 -205 -110 -361h-32l-97 333h-1q-32 -123 -99 -333h-31z" />
<glyph horiz-adv-x="403" d="M300 12l-101 165l-100 -165h-29q25 44 112 179l-112 181l27 7l107 -174l101 174l27 -4q-40 -72 -111 -182l112 -181h-33z" />
<glyph horiz-adv-x="400" d="M52 -128q-27 0 -51 6v26q31 -9 63 -9q45 0 81.5 30.5t56.5 87.5h-14l-125 360l31 6l113 -339h2l112 339l26 -6q-40 -135 -124 -361q-30 -78 -70 -109t-101 -31z" />
<glyph horiz-adv-x="399" d="M319 12h-238l-5 16l206 322h-54q-74 0 -154 -7l9 29h227l5 -16l-206 -322h53q81 0 164 11z" />
<glyph horiz-adv-x="437" d="M318 365q-14 29 -17 53q-55 -53 -125 -53q-40 0 -64.5 22.5t-24.5 57.5q0 60 64.5 92.5t148.5 32.5v63q0 83 -82 83q-56 0 -108 -38l-7 26q53 35 118 35q52 0 80.5 -26.5t28.5 -76.5q0 -6 -1 -84.5t-1 -90.5q0 -49 18 -89zM118 450q0 -29 19 -46.5t52 -17.5q29 0 62 16.5 t49 37.5v113q-79 -2 -130.5 -27.5t-51.5 -75.5z" />
<glyph horiz-adv-x="456" d="M88 865l36 7v-176q45 43 105 43q63 0 101 -47.5t38 -130.5q0 -92 -47 -144t-128 -52q-43 0 -73 7l-26 -7v417zM220 718q-58 0 -96 -50v-269q35 -13 73 -13q61 0 100 44.5t39 126.5q0 74 -31.5 117.5t-84.5 43.5z" />
<glyph horiz-adv-x="412" d="M338 716l-5 -31q-35 31 -86 31q-55 0 -91 -43t-36 -123q0 -77 34 -119t93 -42q49 0 91 25l-1 -27q-42 -22 -94 -22q-73 0 -114 47t-41 131q0 94 48 145t120 51q48 0 82 -23z" />
<glyph horiz-adv-x="468" d="M352 365q-12 24 -17 45q-43 -45 -108 -45q-63 0 -101 46.5t-38 129.5q0 94 48 146t116 52q46 0 80 -24v67l-6 83l36 7v-394q0 -58 18 -106zM120 545q0 -74 32 -116.5t85 -42.5q58 0 95 47v4v249q-32 32 -82 32q-59 0 -94.5 -46.5t-35.5 -126.5z" />
<glyph horiz-adv-x="433" d="M340 387q-44 -22 -97 -22q-73 0 -114 47t-41 131q0 87 41.5 141.5t107.5 54.5q54 0 87.5 -36.5t33.5 -95.5q0 -28 -1 -42l-4 -11h-233q0 -80 34 -122.5t94 -42.5q52 0 93 25zM236 718q-48 0 -79.5 -38t-35.5 -107l205 4q1 10 1 30q0 52 -24 81.5t-67 29.5z" />
<glyph horiz-adv-x="269" d="M125 372h-30v324l-47 1v13l47 4v2q-13 39 -13 70q0 40 26 63t70 23q34 0 56 -10l-5 -26q-29 13 -59 13q-57 0 -57 -66q0 -37 9 -69h107l-2 -21l-102 2v-323z" />
<glyph horiz-adv-x="431" d="M130 452q0 26 31 43q-66 29 -66 110q0 58 35 96t91 38q92 0 157 4v-27l-103 4v-1q27 -12 43.5 -43t16.5 -66q0 -56 -35 -91t-88 -35q-17 0 -35 5q-19 -14 -19 -31q0 -30 61 -35l42 -4q117 -11 117 -81q0 -46 -48 -76t-125 -30q-65 0 -102 22t-37 60q0 35 28.5 59.5 t66.5 35.5q-31 15 -31 43zM126 609q0 -45 24 -75t67 -30q42 0 64.5 29t22.5 78q0 47 -21.5 77t-63.5 30q-43 0 -68 -31t-25 -78zM97 319q0 -32 29.5 -50t81.5 -18q61 0 100 23.5t39 59.5q0 26 -24.5 43t-69.5 20l-60 4h-2q-40 -8 -67 -30.5t-27 -51.5z" />
<glyph horiz-adv-x="445" d="M124 372h-30v410l-6 83l36 7v-190q52 57 122 57q53 0 78.5 -34t25.5 -86v-247h-30v237q0 107 -83 107q-63 0 -113 -59v-285z" />
<glyph horiz-adv-x="220" d="M136 839q0 -14 -7.5 -24t-19.5 -10q-11 0 -17.5 8.5t-6.5 20.5q0 14 7.5 24t19.5 10q11 0 17.5 -8.5t6.5 -20.5zM125 372h-30v276l-6 84l36 7v-367z" />
<glyph horiz-adv-x="220" d="M132 839q0 -34 -27 -34q-11 0 -17.5 8.5t-6.5 20.5q0 14 7.5 24t19.5 10q24 0 24 -29zM36 247q31 25 44.5 53t13.5 69v279l-6 84l36 7v-370q0 -90 -78 -138z" />
<glyph horiz-adv-x="413" d="M124 372h-30v410l-6 83l36 7v-297h60l131 164l27 -7l-135 -167l150 -193l-30 -7l-143 189h-60v-182z" />
<glyph horiz-adv-x="264" d="M147 372h-30v410l-6 83l36 7v-500z" />
<glyph horiz-adv-x="648" d="M124 372h-30v277l-6 83l36 7v-57q52 57 117 57q66 0 89 -66q26 31 60 48.5t65 17.5q49 0 73.5 -35t24.5 -85v-247h-30v237q0 52 -21 79.5t-56 27.5q-28 0 -58 -17t-53 -46q3 -16 3 -34v-247h-30v237q0 52 -20.5 79.5t-55.5 27.5q-60 0 -108 -59v-285z" />
<glyph horiz-adv-x="485" d="M397 562q0 -94 -49 -145.5t-117 -51.5q-65 0 -104 46.5t-39 129.5q0 94 48.5 146t117.5 52q64 0 103.5 -47t39.5 -130zM120 545q0 -74 32 -116.5t85 -42.5q54 0 91 44.5t37 126.5q0 75 -31.5 118t-85.5 43t-91 -45t-37 -128z" />
<glyph horiz-adv-x="456" d="M94 649l-6 83l36 7v-42q42 42 105 42t101 -46.5t38 -129.5q0 -94 -48 -146t-116 -52q-45 0 -80 24v-46q0 -57 7 -104l-37 -7v417zM219 718q-58 0 -95 -47v-253q32 -32 82 -32q59 0 94.5 46.5t35.5 126.5q0 74 -32 116.5t-85 42.5z" />
<glyph horiz-adv-x="471" d="M369 239l-37 -7v177q-46 -44 -107 -44t-99 47.5t-38 128.5q0 93 49 145.5t132 52.5q33 0 67 -6l26 6v-396q0 -56 7 -104zM120 545q0 -73 31.5 -116t84.5 -43q58 0 96 50v269q-35 13 -68 13q-63 0 -103.5 -44.5t-40.5 -128.5z" />
<glyph horiz-adv-x="299" d="M124 372h-30v277l-6 83l36 7v-86q36 86 109 86q15 0 27 -3l-4 -31q-14 4 -30 4q-65 0 -102 -82v-255z" />
<glyph horiz-adv-x="373" d="M302 457q0 -40 -34 -66t-90 -26q-57 0 -107 25l5 31q46 -33 106 -33q42 0 65.5 19t23.5 48q0 7 -1.5 13.5t-4 12t-7.5 11t-8 9.5t-10.5 9t-11 7.5t-12.5 7.5t-12.5 6.5t-13.5 6.5l-12 6q-29 14 -46 24.5t-32 31t-15 45.5q0 41 34 67.5t89 26.5q49 0 88 -21l-4 -30 q-39 28 -89 28q-40 0 -63.5 -19.5t-23.5 -48.5q0 -28 20 -46t60 -38q29 -15 39.5 -20.5t30.5 -20t28 -30.5t8 -36z" />
<glyph horiz-adv-x="346" d="M292 695l-138 3v-225q0 -14 0.5 -22t4 -22t9.5 -21.5t19 -13.5t32 -6q44 0 77 24l4 -25q-38 -22 -88 -22q-88 0 -88 97v236l-40 1v12l41 4l9 110l20 3v-113h139z" />
<glyph horiz-adv-x="445" d="M95 485v247l30 7v-246q0 -51 21 -79t56 -28q27 0 56.5 16t50.5 43v287l30 7v-289q0 -45 18 -78l-28 -7q-16 27 -19 57q-52 -57 -118 -57q-48 0 -72.5 34.5t-24.5 85.5z" />
<glyph horiz-adv-x="390" d="M337 733q-58 -180 -125 -361h-34l-125 361l30 6l114 -339h1l113 339z" />
<glyph horiz-adv-x="586" d="M163 372l-110 361l30 6l98 -339h1l97 339h31l98 -339h2l97 339l26 -6q-58 -205 -110 -361h-32l-97 333h-1q-32 -123 -99 -333h-31z" />
<glyph horiz-adv-x="403" d="M300 372l-101 165l-100 -165h-29q25 44 112 179l-112 181l27 7l107 -174l101 174l27 -4q-40 -72 -111 -182l112 -181h-33z" />
<glyph horiz-adv-x="400" d="M52 232q-27 0 -51 6v26q31 -9 63 -9q45 0 81.5 30.5t56.5 87.5h-14l-125 360l31 6l113 -339h2l112 339l26 -6q-40 -135 -124 -361q-30 -78 -70 -109t-101 -31z" />
<glyph horiz-adv-x="399" d="M319 372h-238l-5 16l206 322h-54q-74 0 -154 -7l9 29h227l5 -16l-206 -322h53q81 0 164 11z" />
<glyph horiz-adv-x="213" d="M160 731q-35 -87 -94 -149l-14 5q47 68 72 146zM11 -177q42 33 62 69t20 95v398l-8 115l38 10v-526q0 -112 -101 -180z" />
<glyph horiz-adv-x="978" d="M577 0h-30v570l-7 99q-20 7 -53 7q-58 0 -90.5 -25t-32.5 -74q0 -53 52 -110l-19 -25q-47 43 -119 43q-78 0 -129.5 -61.5t-51.5 -176.5q0 -111 48 -171.5t131 -60.5q69 0 128 37l-2 -31q-60 -31 -129 -31q-99 0 -153.5 65.5t-54.5 181.5q0 131 65 202t162 71 q38 0 71 -12q-31 41 -31 78q0 56 45 90t125 34q38 0 75 -5v-264q74 79 169 79q74 0 108 -48t34 -121v-341h-30v330q0 77 -30.5 116.5t-87.5 39.5q-90 0 -163 -88v-398z" />
<glyph horiz-adv-x="849" d="M411 466l-14 -24q-3 2 -12.5 8t-13.5 8t-12.5 7t-14 7t-14 5t-16 4.5t-16.5 2.5t-19 1q-79 0 -130.5 -62t-51.5 -177q0 -109 47.5 -170t131.5 -61q69 0 128 37l-2 -31q-60 -31 -129 -31q-99 0 -153.5 65.5t-54.5 182.5q0 130 65 201t159 71q41 0 73 -16q-23 33 -23 73 q0 61 44.5 97t103.5 36q63 0 104.5 -40.5t41.5 -100.5q0 -51 -21 -83h198l-2 -25l-193 3v-320q0 -27 1.5 -41.5t9.5 -36t28 -32t52 -10.5q59 0 107 34l6 -27q-50 -31 -118 -31q-116 0 -116 130v335l-55 1v15l56 5q15 36 15 79q0 58 -32 89.5t-84 31.5q-50 0 -84.5 -29.5 t-34.5 -82.5q0 -57 45 -98z" />
<glyph horiz-adv-x="939" d="M359 116q0 -56 -45.5 -91t-120.5 -35t-143 36l6 35q63 -47 144 -47q60 0 93.5 28t33.5 71q0 24 -9.5 42.5t-32.5 35.5t-37.5 25t-48.5 25q-33 17 -48.5 25.5t-38.5 26.5t-32.5 39t-9.5 48q0 57 44.5 93.5t117.5 36.5q45 0 87 -16q-26 42 -26 82q0 56 45 90t125 34 q38 0 75 -5v-264q74 79 169 79q74 0 108 -48t34 -121v-341h-30v330q0 77 -30.5 116.5t-87.5 39.5q-90 0 -163 -88v-398h-30v570l-7 99q-20 7 -53 7q-58 0 -90.5 -25t-32.5 -74q0 -51 36 -106l-15 -25q-48 40 -120 40q-57 0 -90.5 -28.5t-33.5 -71.5q0 -40 28 -66.5t83 -54.5 q80 -42 104 -63q42 -37 42 -86z" />
<glyph horiz-adv-x="436" d="M361 182q0 -91 -42.5 -140t-105.5 -49q-62 0 -100 48t-38 134q0 91 42 140.5t106 49.5q62 0 100 -48.5t38 -134.5zM106 180q0 -74 29 -121t81 -47q50 0 81.5 43.5t31.5 121.5q0 75 -28.5 121.5t-81.5 46.5q-50 0 -81.5 -43.5t-31.5 -121.5z" />
<glyph horiz-adv-x="297" d="M157 0h-30v337l-72 -28l-5 19l104 37l3 -2v-363z" />
<glyph horiz-adv-x="369" d="M283 0h-234l-4 16q103 84 154.5 141.5t51.5 109.5q0 35 -25 55.5t-66 20.5q-50 0 -104 -33l-6 25q54 30 117 30q52 0 84.5 -26t32.5 -71q0 -54 -51.5 -109.5t-157.5 -135.5h79q66 0 135 8z" />
<glyph horiz-adv-x="348" d="M278 95q0 -45 -39.5 -73.5t-109.5 -28.5q-48 0 -89 13l4 21q44 -14 84 -14q55 0 86 23.5t31 59.5t-34.5 54.5t-82.5 18.5q-19 0 -39 -4v16q69 14 104.5 42t35.5 59q0 27 -22.5 44t-61.5 17q-45 0 -93 -25l-3 21q44 26 105 26q48 0 77.5 -21t29.5 -57q0 -33 -28.5 -60 t-86.5 -43q132 -5 132 -89z" />
<glyph horiz-adv-x="398" d="M257 0h-30v85h-181l-4 14l193 266l22 -5v-249q25 1 61 5l-6 -31h-55v-85zM227 322l-157 -214h111q30 0 46 1v213z" />
<glyph horiz-adv-x="374" d="M294 107q0 -51 -40 -82.5t-106 -31.5q-47 0 -88 13l4 19q46 -13 86 -13q50 0 81 26t31 68q0 41 -29 62t-73 21q-48 0 -73 -12l-6 4v177h107q58 0 99 5l-6 -29h-178v-137q32 10 68 10q56 0 89.5 -27t33.5 -73z" />
<glyph horiz-adv-x="387" d="M205 -7q-61 0 -95.5 42.5t-34.5 119.5q0 96 51.5 153t131.5 57q32 0 51 -7l-6 -21q-18 8 -49 8q-61 0 -102.5 -46t-45.5 -144q15 22 47.5 37t64.5 15q46 0 77.5 -28t31.5 -75q0 -49 -34.5 -80t-87.5 -31zM204 12q40 0 66 25.5t26 66.5q0 38 -23 61.5t-63 23.5 q-69 0 -104 -57q3 -50 26 -85t72 -35z" />
<glyph horiz-adv-x="349" d="M137 0h-33q6 85 57 180.5t112 153.5h-83q-68 0 -135 -7l6 31h234l4 -4v-13q-63 -69 -109.5 -163t-52.5 -178z" />
<glyph horiz-adv-x="402" d="M199 -7q-53 0 -88.5 24.5t-35.5 61.5q0 33 29 59t73 38q-90 41 -90 100q0 39 34.5 64t82.5 25q46 0 79 -24t33 -61q0 -31 -26 -57t-69 -39q106 -38 106 -100q0 -39 -36.5 -65t-91.5 -26zM203 345q-34 0 -60 -18.5t-26 -46.5q0 -29 25.5 -52.5t60.5 -37.5q36 15 59 39 t23 51q0 29 -23.5 47t-58.5 18zM199 12q40 0 69 20.5t29 50.5q1 28 -25.5 47.5t-77.5 38.5q-88 -34 -88 -89q0 -29 27 -48.5t66 -19.5z" />
<glyph horiz-adv-x="387" d="M60 251q0 51 34 82.5t88 31.5q61 0 95.5 -42.5t34.5 -119.5q0 -96 -51.5 -153t-131.5 -57q-32 0 -51 7l6 21q18 -8 49 -8q62 0 104 44t44 135q-15 -22 -47.5 -37t-64.5 -15q-46 0 -77.5 31t-31.5 80zM91 251q0 -41 23 -67t63 -26q69 0 104 57q-2 53 -25.5 92t-73.5 39 q-40 0 -65.5 -26t-25.5 -69z" />
<glyph horiz-adv-x="614" d="M539 332q0 -165 -68.5 -253.5t-171.5 -88.5q-101 0 -162.5 87t-61.5 241q0 164 68.5 253t171.5 89q101 0 162.5 -86.5t61.5 -241.5zM107 326q0 -138 52 -225t145 -87q89 0 146 81.5t57 229.5q0 137 -52 224t-145 87q-89 0 -146 -81t-57 -229z" />
<glyph horiz-adv-x="350" d="M210 0h-30v623l-123 -53l-7 25l155 65l5 -2v-658z" />
<glyph horiz-adv-x="525" d="M435 0h-384l-6 16q63 58 97.5 90.5t83 81t74.5 82t52.5 74t38 76.5t11.5 71q0 68 -44 106.5t-117 38.5q-83 0 -178 -61l-9 30q90 55 191 55q84 0 136.5 -45.5t52.5 -125.5q0 -43 -18.5 -88.5t-44 -84.5t-76.5 -93.5t-92.5 -93.5t-114.5 -106h129q114 0 228 14z" />
<glyph horiz-adv-x="500" d="M430 173q0 -81 -64.5 -132t-179.5 -51q-76 0 -146 24l5 27q75 -26 145 -26q99 0 153.5 44.5t54.5 111.5q0 71 -60.5 106t-147.5 35q-35 0 -64 -7v24q119 26 180.5 77.5t61.5 114.5q0 52 -39.5 83.5t-107.5 31.5q-73 0 -160 -48l-5 26q72 46 171 46q77 0 125 -36.5 t48 -100.5q0 -59 -45.5 -109t-141.5 -81q104 -5 160.5 -45t56.5 -115z" />
<glyph horiz-adv-x="570" d="M385 0h-30v164h-307l-6 15l322 481l21 -10v-459q38 2 105 10l-10 -37h-95v-164zM355 600l-276 -414l183 1q31 0 93 2v411z" />
<glyph horiz-adv-x="520" d="M440 195q0 -90 -64.5 -147.5t-171.5 -57.5q-74 0 -144 24l5 24q74 -24 146 -24q88 0 142.5 48.5t54.5 129.5q0 79 -51.5 120t-129.5 41q-79 0 -122 -23l-10 8v312h171q90 0 163 10l-9 -33h-295v-269q49 19 110 19q94 0 149.5 -49.5t55.5 -132.5z" />
<glyph horiz-adv-x="541" d="M284 -10q-99 0 -154 76t-55 215q0 174 83 276.5t213 102.5q56 0 84 -14l-9 -25q-32 15 -83 15q-110 0 -182 -90.5t-75 -279.5h1q32 51 85 78t107 27q78 0 130 -50t52 -134q0 -86 -55 -141.5t-142 -55.5zM283 14q73 0 119.5 47.5t46.5 125.5q0 73 -41 116.5t-112 43.5 q-54 0 -104 -28t-83 -85q5 -97 48.5 -158.5t125.5 -61.5z" />
<glyph horiz-adv-x="503" d="M173 0h-32q9 155 95.5 335.5t183.5 291.5h-137q-114 0 -228 -14l10 37h383l5 -5v-12q-103 -121 -186 -297.5t-94 -335.5z" />
<glyph horiz-adv-x="554" d="M75 142q0 61 49 109.5t119 73.5q-65 32 -107 78.5t-42 102.5q0 67 55.5 110.5t131.5 43.5q74 0 126.5 -42.5t52.5 -107.5q0 -57 -43.5 -106t-113.5 -76q176 -70 176 -180q0 -67 -59 -112.5t-145 -45.5q-85 0 -142.5 43.5t-57.5 108.5zM126 511q0 -54 43.5 -100t105.5 -73 q68 27 110.5 73.5t42.5 100.5t-42.5 89t-104.5 35q-63 0 -109 -36t-46 -89zM107 142q0 -54 48 -91t120 -37q73 0 122 39t50 97q1 53 -45 90.5t-135 74.5q-67 -27 -113.5 -72t-46.5 -101z" />
<glyph horiz-adv-x="541" d="M466 367q0 -172 -83 -274.5t-214 -102.5q-55 0 -83 14l9 25q32 -15 83 -15q110 0 182 85.5t75 264.5h-1q-32 -51 -85 -78t-107 -27q-78 0 -130 53t-52 142q0 91 54.5 148.5t140.5 57.5q98 0 154.5 -77t56.5 -216zM92 453q0 -77 41 -123.5t112 -46.5q54 0 104 28t83 85 q-5 106 -48.5 173t-125.5 67q-73 0 -119.5 -50.5t-46.5 -132.5z" />
<glyph horiz-adv-x="436" d="M361 474q0 -91 -42.5 -140t-105.5 -49q-62 0 -100 48t-38 134q0 91 42 140.5t106 49.5q62 0 100 -48.5t38 -134.5zM106 472q0 -74 29 -121t81 -47q50 0 81.5 43.5t31.5 121.5q0 75 -28.5 121.5t-81.5 46.5q-50 0 -81.5 -43.5t-31.5 -121.5z" />
<glyph horiz-adv-x="297" d="M157 292h-30v337l-72 -28l-5 19l104 37l3 -2v-363z" />
<glyph horiz-adv-x="369" d="M283 292h-234l-4 16q103 84 154.5 141.5t51.5 109.5q0 35 -25 55.5t-66 20.5q-50 0 -104 -33l-6 25q54 30 117 30q52 0 84.5 -26t32.5 -71q0 -54 -51.5 -109.5t-157.5 -135.5h79q66 0 135 8z" />
<glyph horiz-adv-x="348" d="M278 387q0 -45 -39.5 -73.5t-109.5 -28.5q-48 0 -89 13l4 21q44 -14 84 -14q55 0 86 23.5t31 59.5t-34.5 54.5t-82.5 18.5q-19 0 -39 -4v16q69 14 104.5 42t35.5 59q0 27 -22.5 44t-61.5 17q-45 0 -93 -25l-3 21q44 26 105 26q48 0 77.5 -21t29.5 -57q0 -33 -28.5 -60 t-86.5 -43q132 -5 132 -89z" />
<glyph horiz-adv-x="398" d="M257 292h-30v85h-181l-4 14l193 266l22 -5v-249q25 1 61 5l-6 -31h-55v-85zM227 614l-157 -214h111q30 0 46 1v213z" />
<glyph horiz-adv-x="374" d="M294 399q0 -51 -40 -82.5t-106 -31.5q-47 0 -88 13l4 19q46 -13 86 -13q50 0 81 26t31 68q0 41 -29 62t-73 21q-48 0 -73 -12l-6 4v177h107q58 0 99 5l-6 -29h-178v-137q32 10 68 10q56 0 89.5 -27t33.5 -73z" />
<glyph horiz-adv-x="387" d="M205 285q-61 0 -95.5 42.5t-34.5 119.5q0 96 51.5 153t131.5 57q32 0 51 -7l-6 -21q-18 8 -49 8q-61 0 -102.5 -46t-45.5 -144q15 22 47.5 37t64.5 15q46 0 77.5 -28t31.5 -75q0 -49 -34.5 -80t-87.5 -31zM204 304q40 0 66 25.5t26 66.5q0 38 -23 61.5t-63 23.5 q-69 0 -104 -57q3 -50 26 -85t72 -35z" />
<glyph horiz-adv-x="349" d="M137 292h-33q6 85 57 180.5t112 153.5h-83q-68 0 -135 -7l6 31h234l4 -4v-13q-63 -69 -109.5 -163t-52.5 -178z" />
<glyph horiz-adv-x="402" d="M199 285q-53 0 -88.5 24.5t-35.5 61.5q0 33 29 59t73 38q-90 41 -90 100q0 39 34.5 64t82.5 25q46 0 79 -24t33 -61q0 -31 -26 -57t-69 -39q106 -38 106 -100q0 -39 -36.5 -65t-91.5 -26zM203 637q-34 0 -60 -18.5t-26 -46.5q0 -29 25.5 -52.5t60.5 -37.5q36 15 59 39 t23 51q0 29 -23.5 47t-58.5 18zM199 304q40 0 69 20.5t29 50.5q1 28 -25.5 47.5t-77.5 38.5q-88 -34 -88 -89q0 -29 27 -48.5t66 -19.5z" />
<glyph horiz-adv-x="387" d="M60 543q0 51 34 82.5t88 31.5q61 0 95.5 -42.5t34.5 -119.5q0 -96 -51.5 -153t-131.5 -57q-32 0 -51 7l6 21q18 -8 49 -8q62 0 104 44t44 135q-15 -22 -47.5 -37t-64.5 -15q-46 0 -77.5 31t-31.5 80zM91 543q0 -41 23 -67t63 -26q69 0 104 57q-2 53 -25.5 92t-73.5 39 q-40 0 -65.5 -26t-25.5 -69z" />
<glyph horiz-adv-x="534" d="M459 257q0 -128 -57 -197.5t-143 -69.5q-83 0 -133.5 67t-50.5 186q0 128 57 197.5t143 69.5q83 0 133.5 -67t50.5 -186zM107 251q0 -104 41.5 -170.5t115.5 -66.5q71 0 117 62t46 174q0 104 -41.5 170t-115.5 66q-71 0 -117 -61.5t-46 -173.5z" />
<glyph horiz-adv-x="350" d="M210 0h-30v473l-123 -53l-7 25l155 65l5 -2v-508z" />
<glyph horiz-adv-x="492" d="M402 0h-351l-6 16q81 65 124 102t92.5 87t71 91t21.5 81q0 50 -35.5 79.5t-91.5 29.5q-82 0 -172 -81l-9 30q85 75 185 75q66 0 110.5 -36t44.5 -97q0 -80 -76.5 -165.5t-219.5 -188.5h94q114 0 228 14z" />
<glyph horiz-adv-x="500" d="M430 23q0 -81 -64.5 -132t-179.5 -51q-76 0 -146 24l5 27q75 -26 145 -26q99 0 153.5 44.5t54.5 111.5q0 71 -60.5 106t-147.5 35q-35 0 -64 -7v24q119 26 180.5 77.5t61.5 114.5q0 52 -39.5 83.5t-107.5 31.5q-73 0 -160 -48l-5 26q72 46 171 46q77 0 125 -36.5 t48 -100.5q0 -59 -45.5 -109t-141.5 -81q104 -5 160.5 -45t56.5 -115z" />
<glyph horiz-adv-x="579" d="M394 -185h-30v185h-316l-6 15l331 495l21 -10v-473q38 2 105 10l-10 -37h-95v-185zM364 450l-285 -428l192 1q31 0 93 2v425z" />
<glyph horiz-adv-x="520" d="M440 45q0 -90 -64.5 -147.5t-171.5 -57.5q-74 0 -144 24l5 24q74 -24 146 -24q88 0 142.5 48.5t54.5 129.5q0 79 -51.5 120t-129.5 41q-79 0 -122 -23l-10 8v312h171q90 0 163 10l-9 -33h-295v-269q49 19 110 19q94 0 149.5 -49.5t55.5 -132.5z" />
<glyph horiz-adv-x="541" d="M284 -10q-99 0 -154 76t-55 215q0 174 83 276.5t213 102.5q56 0 84 -14l-9 -25q-32 15 -83 15q-110 0 -182 -90.5t-75 -279.5h1q32 51 85 78t107 27q78 0 130 -50t52 -134q0 -86 -55 -141.5t-142 -55.5zM283 14q73 0 119.5 47.5t46.5 125.5q0 73 -41 116.5t-112 43.5 q-54 0 -104 -28t-83 -85q5 -97 48.5 -158.5t125.5 -61.5z" />
<glyph horiz-adv-x="503" d="M173 -150h-32q9 155 95.5 335.5t183.5 291.5h-137q-114 0 -228 -14l10 37h383l5 -5v-12q-103 -121 -186 -297.5t-94 -335.5z" />
<glyph horiz-adv-x="554" d="M75 142q0 61 49 109.5t119 73.5q-65 32 -107 78.5t-42 102.5q0 67 55.5 110.5t131.5 43.5q74 0 126.5 -42.5t52.5 -107.5q0 -57 -43.5 -106t-113.5 -76q176 -70 176 -180q0 -67 -59 -112.5t-145 -45.5q-85 0 -142.5 43.5t-57.5 108.5zM126 511q0 -54 43.5 -100t105.5 -73 q68 27 110.5 73.5t42.5 100.5t-42.5 89t-104.5 35q-63 0 -109 -36t-46 -89zM107 142q0 -54 48 -91t120 -37q73 0 122 39t50 97q1 53 -45 90.5t-135 74.5q-67 -27 -113.5 -72t-46.5 -101z" />
<glyph horiz-adv-x="541" d="M466 217q0 -172 -83 -274.5t-214 -102.5q-55 0 -83 14l9 25q32 -15 83 -15q110 0 182 85.5t75 264.5h-1q-32 -51 -85 -78t-107 -27q-78 0 -130 53t-52 142q0 91 54.5 148.5t140.5 57.5q98 0 154.5 -77t56.5 -216zM92 303q0 -77 41 -123.5t112 -46.5q54 0 104 28t83 85 q-5 106 -48.5 173t-125.5 67q-73 0 -119.5 -50.5t-46.5 -132.5z" />
<glyph horiz-adv-x="258" d="M143 123h-23q0 379 -7 527l37 10q3 -57 3 -157q0 -163 -10 -380zM158 1q0 -44 -30 -44q-13 0 -20.5 10.5t-7.5 26.5q0 18 8.5 30.5t22.5 12.5q27 0 27 -36z" />
<glyph horiz-adv-x="258" d="M100 649q0 44 30 44q13 0 20.5 -10.5t7.5 -26.5q0 -18 -8.5 -30.5t-22.5 -12.5q-27 0 -27 36zM115 527h25q0 -421 5 -527l-37 -10q-3 57 -3 157q0 120 10 380z" />
<glyph horiz-adv-x="500" d="M239 123h-30q-5 28 -5 70q0 33 19 66.5t46 61.5t54 56.5t46 63t19 69.5q0 55 -42.5 88.5t-100.5 33.5q-44 0 -89.5 -20t-79.5 -55l-16 19q82 84 190 84q74 0 122 -41t48 -110q0 -41 -19 -77.5t-46 -64.5t-54 -55t-46 -60t-19 -68q0 -10 3 -61zM255 1q0 -44 -30 -44 q-13 0 -20.5 10.5t-7.5 26.5q0 18 8.5 30.5t22.5 12.5q27 0 27 -36z" />
<glyph horiz-adv-x="500" d="M242 649q0 44 30 44q13 0 20.5 -10.5t7.5 -26.5q0 -18 -8.5 -30.5t-22.5 -12.5q-27 0 -27 36zM258 527h30q5 -28 5 -70q0 -33 -19 -66.5t-46 -61.5t-54 -56.5t-46 -63t-19 -69.5q0 -55 42.5 -88.5t100.5 -33.5q44 0 89.5 20t79.5 55l16 -19q-82 -84 -190 -84 q-74 0 -122 41t-48 110q0 41 19 77.5t46 64.5t54 55t46 60t19 68q0 10 -3 61z" />
<glyph horiz-adv-x="272" d="M128 208q-13 0 -21 9.5t-8 22.5q0 14 9 25t23 11q28 0 28 -31q0 -15 -8 -26t-23 -11z" />
<glyph horiz-adv-x="392" d="M292 270q0 -45 -29.5 -73.5t-74.5 -28.5q-39 0 -63.5 22.5t-24.5 61.5q0 43 30.5 72.5t75.5 29.5q38 0 62 -22.5t24 -61.5z" />
<glyph horiz-adv-x="392" d="M178 414l12 112l-92 -66l-18 31l105 46l-105 46l18 31l92 -66l-12 112h36l-12 -113l92 67l18 -31l-103 -46l103 -46l-18 -31l-92 67l12 -113h-36z" />
<glyph horiz-adv-x="354" d="M109 -10l-27 7l-2 3l165 660l27 -7l2 -3z" />
<glyph horiz-adv-x="354" d="M245 -10l-165 660l2 3l27 7l165 -660l-2 -3z" />
<glyph horiz-adv-x="703" d="M607 193h-164l-50 -203l-22 1l-6 6l48 196h-180l-50 -203l-22 1l-6 6l48 196h-147l-6 5l2 20h157l53 215h-162l-6 5l2 20h172l50 202l22 -1l6 -6l-48 -195h180l50 202l22 -1l6 -6l-48 -195h139l6 -5l-2 -20h-149l-53 -215h154l6 -5zM239 218h180l53 215h-180z" />
<glyph horiz-adv-x="603" d="M507 144h-126l-38 -154l-22 1l-6 6l36 147h-150l-38 -154l-22 1l-6 6l36 147h-115l-6 5l2 20h125l41 165h-118l-6 5l2 20h128l37 151l22 -1l6 -6l-35 -144h150l37 151l22 -1l6 -6l-35 -144h113l6 -5l-2 -20h-124l-40 -165h116l6 -5zM207 169h150l41 165h-151z" />
<glyph horiz-adv-x="301" d="M269 -49q-104 71 -154 167t-50 204q0 234 204 373l12 -19q-176 -141 -176 -354q0 -212 176 -352z" />
<glyph horiz-adv-x="301" d="M236 322q0 -108 -50 -204t-154 -167l-12 19q176 140 176 352q0 213 -176 354l12 19q204 -139 204 -373z" />
<glyph horiz-adv-x="289" d="M158 221q0 76 -108 84v30q56 4 82 26t26 62q0 27 -18.5 79t-18.5 86q0 55 35.5 81t109.5 26l1 -24q-60 -1 -87 -20.5t-27 -60.5q0 -29 18.5 -86t18.5 -84q0 -41 -25.5 -66.5t-67.5 -34.5q40 -9 66.5 -34.5t26.5 -63.5q0 -23 -18.5 -81.5t-18.5 -88.5q0 -41 27 -61t87 -21 l-1 -24q-75 0 -110 26t-35 80q0 35 18.5 90.5t18.5 79.5z" />
<glyph horiz-adv-x="289" d="M239 305l-108 -84q0 -24 18.5 -79.5t18.5 -90.5q0 -54 -35 -80t-110 -26l-1 24q60 1 87 21t27 61q0 30 -18.5 88.5t-18.5 81.5q0 38 26.5 63.5t66.5 34.5q-42 9 -67.5 34.5t-25.5 66.5q0 27 18.5 84t18.5 86q0 41 -27 60.5t-87 20.5l1 24q74 0 109.5 -26t35.5 -81 q0 -34 -18.5 -86t-18.5 -79q0 -40 26 -62t82 -26v-30z" />
<glyph horiz-adv-x="298" d="M80 695h176v-24h-143v-693h143v-24h-176v741z" />
<glyph horiz-adv-x="298" d="M218 695v-741h-176v24h143v693h-143v24h176z" />
<glyph horiz-adv-x="321" d="M30 330v26h261v-26h-261z" />
<glyph horiz-adv-x="453" d="M30 330v26h393v-26h-393z" />
<glyph horiz-adv-x="695" d="M30 330v26h635v-26h-635z" />
<glyph horiz-adv-x="168" d="M93 16q0 -36 -19.5 -86t-53.5 -89l-10 9q45 66 52 140h-1q-29 6 -29 33q0 15 8.5 25t22.5 10q30 0 30 -42z" />
<glyph horiz-adv-x="315" d="M133 16q0 -36 -19.5 -86t-53.5 -89l-10 9q45 66 52 140h-1q-29 6 -29 33q0 15 8.5 25t22.5 10q30 0 30 -42zM240 16q0 -36 -19.5 -86t-53.5 -89l-10 9q45 66 52 140h-1q-29 6 -29 33q0 15 8.5 25t22.5 10q30 0 30 -42z" />
<glyph horiz-adv-x="275" d="M75 485q0 36 19.5 86t53.5 89l10 -9q-45 -66 -52 -140h1q29 -6 29 -33q0 -15 -8.5 -25t-22.5 -10q-30 0 -30 42zM182 485q0 36 19.5 86t53.5 89l10 -9q-45 -66 -52 -140h1q29 -6 29 -33q0 -15 -8.5 -25t-22.5 -10q-30 0 -30 42z" />
<glyph horiz-adv-x="275" d="M200 618q0 -36 -19.5 -86t-53.5 -89l-10 9q45 66 52 140h-1q-29 6 -29 33q0 15 8.5 25t22.5 10q30 0 30 -42zM93 618q0 -36 -19.5 -86t-53.5 -89l-10 9q45 66 52 140h-1q-29 6 -29 33q0 15 8.5 25t22.5 10q30 0 30 -42z" />
<glyph horiz-adv-x="168" d="M75 485q0 36 19.5 86t53.5 89l10 -9q-45 -66 -52 -140h1q29 -6 29 -33q0 -15 -8.5 -25t-22.5 -10q-30 0 -30 42z" />
<glyph horiz-adv-x="168" d="M93 618q0 -36 -19.5 -86t-53.5 -89l-10 9q45 66 52 140h-1q-29 6 -29 33q0 15 8.5 25t22.5 10q30 0 30 -42z" />
<glyph horiz-adv-x="464" d="M226 362v8q86 89 167 199l11 -7q-45 -77 -139 -196q94 -119 139 -196l-11 -7q-81 110 -167 199zM60 362v8q86 89 167 199l11 -7q-45 -77 -139 -196q94 -119 139 -196l-11 -7q-81 110 -167 199z" />
<glyph horiz-adv-x="464" d="M238 362q-86 -89 -167 -199l-11 7q45 77 139 196q-94 119 -139 196l11 7q81 -110 167 -199v-8zM404 362q-86 -89 -167 -199l-11 7q45 77 139 196q-94 119 -139 196l11 7q81 -110 167 -199v-8z" />
<glyph horiz-adv-x="298" d="M60 359v8q86 89 167 199l11 -7q-45 -77 -139 -196q94 -119 139 -196l-11 -7q-81 110 -167 199z" />
<glyph horiz-adv-x="298" d="M238 359q-86 -89 -167 -199l-11 7q45 77 139 196q-94 119 -139 196l11 7q81 -110 167 -199v-8z" />
<glyph horiz-adv-x="316" d="M106 660l-13 -234h-20l-13 234h46zM256 660l-13 -234h-20l-13 234h46z" />
<glyph horiz-adv-x="186" d="M116 660l-13 -234h-20l-13 234h46z" />
<glyph horiz-adv-x="464" d="M286 -119l-30 -3v113q-91 5 -141 70t-50 176q0 126 60 196t151 76v110l30 3v-112q58 -5 97 -33l-6 -35q-47 43 -119 43q-78 0 -129.5 -61.5t-51.5 -176.5q0 -111 48 -171.5t131 -60.5q69 0 128 37l-2 -31q-52 -27 -116 -31v-109z" />
<glyph horiz-adv-x="543" d="M457 66l-81 82q-46 -46 -114 -46q-61 0 -104 35l-71 -72l-21 21l71 71q-39 47 -39 110q0 67 44 119l-77 77l21 21q14 -14 40 -40.5t37 -37.5q46 36 105 36q60 0 106 -39l80 81l21 -21l-82 -82q37 -46 37 -106q0 -58 -35 -106q62 -60 83 -80zM128 270q0 -59 36.5 -98.5 t99.5 -39.5t99.5 42t36.5 99q0 56 -37 97.5t-97 41.5q-62 0 -100 -41.5t-38 -100.5z" />
<glyph horiz-adv-x="461" d="M214 -122v112q-82 1 -149 36l5 35q67 -47 152 -47q68 0 105 36.5t37 89.5q0 45 -29 82t-70.5 64t-83 55t-70.5 69t-29 92q0 61 37.5 103t104.5 52v112l30 3v-112h7q69 0 127 -29l-6 -35q-18 14 -53 27t-74 13q-66 0 -103.5 -36.5t-37.5 -90.5q0 -45 29 -83t70.5 -66.5 t83 -57.5t70.5 -69.5t29 -88.5q0 -61 -41 -103.5t-111 -49.5v-110z" />
<glyph horiz-adv-x="564" d="M55 265l3 23h69q-1 12 -1 37q0 7 0.5 19t0.5 18h-57l3 23h56q14 125 79.5 200t170.5 75q78 0 138 -34l-11 -34q-57 44 -135 44q-89 0 -144 -68t-66 -183h275l-2 -23h-274q-1 -12 -1 -37q0 -13 2 -37h260l-2 -23h-256q13 -115 69.5 -182.5t145.5 -67.5q84 0 135 42l6 -28 q-61 -39 -145 -39q-104 0 -168.5 74.5t-76.5 200.5h-74z" />
<glyph horiz-adv-x="522" d="M473 307l-190 3l-27 -260q-20 -201 -159 -201q-60 0 -112 26l16 28q12 -9 41 -19.5t58 -10.5q110 0 127 180l25 258l-91 1l3 15l90 5q0 4 7 75.5t10 92.5q22 160 164 160q58 0 102 -26l-15 -36q-40 38 -100 38q-52 0 -80.5 -32t-40.5 -107q-8 -49 -17 -165h193z" />
<glyph horiz-adv-x="511" d="M426 320l-183 3l-6 -83q-6 -81 -35.5 -141.5t-73.5 -88.5q11 -6 52.5 -28t65 -33t63 -22.5t74.5 -11.5q60 0 90 16l-12 -32q-25 -10 -75 -10q-63 0 -129 29.5t-149 81.5q-21 -10 -47 -10q-36 0 -36 20q0 22 34 22q19 0 46 -11q36 19 66 76.5t36 141.5l6 84l-108 2v17 l109 5h1q5 72 10.5 115t18 93t31 77t50.5 45t77 18q41 0 87 -19l-11 -38q-40 32 -94 32q-79 0 -107 -80q-18 -49 -29 -199q-3 -29 -4 -44h184z" />
<glyph horiz-adv-x="517" d="M71 114v23h171v74h-171v23h160l-206 416l29 10l204 -410h1l204 410l29 -10l-207 -416h156v-23h-167v-74h167v-23h-167v-114h-32v114h-171z" />
<glyph horiz-adv-x="464" d="M286 -119l-30 -3v113q-91 5 -141 70t-50 176q0 126 60 196t151 76v110l30 3v-112q58 -5 97 -33l-6 -35q-47 43 -119 43q-78 0 -129.5 -61.5t-51.5 -176.5q0 -111 48 -171.5t131 -60.5q69 0 128 37l-2 -31q-52 -27 -116 -31v-109z" />
<glyph horiz-adv-x="543" d="M457 41l-81 82q-46 -46 -114 -46q-61 0 -104 35l-71 -72l-21 21l71 71q-39 47 -39 110q0 67 44 119l-77 77l21 21q14 -14 40 -40.5t37 -37.5q46 36 105 36q60 0 106 -39l80 81l21 -21l-82 -82q37 -46 37 -106q0 -58 -35 -106q62 -60 83 -80zM128 245q0 -59 36.5 -98.5 t99.5 -39.5t99.5 42t36.5 99q0 56 -37 97.5t-97 41.5q-62 0 -100 -41.5t-38 -100.5z" />
<glyph horiz-adv-x="409" d="M180 -122v112q-68 4 -130 36l6 35q63 -47 144 -47q60 0 93.5 28t33.5 71q0 24 -9.5 42.5t-32.5 35.5t-37.5 25t-48.5 25q-30 14 -48.5 25t-39.5 28t-31 38.5t-10 48.5q0 49 35 84t95 43v111l30 3v-112h4q66 0 118 -29l-6 -35q-48 40 -120 40q-57 0 -90.5 -28.5 t-33.5 -71.5q0 -40 28 -66.5t83 -54.5q80 -42 104 -63q42 -37 42 -86q0 -52 -40.5 -86.5t-108.5 -38.5v-110z" />
<glyph horiz-adv-x="505" d="M367 191h-225q11 -85 57 -130.5t118 -45.5q69 0 128 37l-2 -31q-60 -31 -129 -31q-88 0 -141.5 53t-64.5 148h-68l3 23h64q-1 7 -1 23q0 27 3 51h-61l3 23h61q18 97 79 148t142 51q65 0 111 -33l-6 -35q-47 43 -119 43q-66 0 -114 -44.5t-62 -129.5h235l-3 -23h-235 q-2 -26 -2 -41q0 -23 1 -33h231z" />
<glyph horiz-adv-x="515" d="M457 237l-180 3l-17 -159q-9 -89 -49 -139.5t-110 -50.5q-59 0 -111 26l16 28q12 -9 41.5 -19.5t58.5 -10.5q107 0 123 159l17 166l-111 2l3 15l110 5q1 8 4 40.5t4 41.5q10 84 54 125t113 41q58 0 102 -26l-15 -36q-40 38 -101 38q-57 0 -85 -34t-38 -110q-3 -22 -8 -80 h183z" />
<glyph horiz-adv-x="491" d="M418 230l-189 3l-5 -29q-27 -154 -99 -196q8 -4 51 -27.5t65 -33.5t61 -21t73 -11q60 0 90 16l-12 -32q-25 -10 -75 -10q-62 0 -128 29t-147 80q-22 -8 -47 -8q-39 0 -39 20q0 22 34 22q21 0 46 -11q76 35 98 182l5 30l-103 2v17l105 5h1q6 39 10 61t18.5 63.5t32.5 65.5 t52 43.5t78 19.5q41 0 87 -19l-11 -38q-40 32 -92 32q-22 0 -40.5 -7.5t-31.5 -16.5t-24 -29t-17 -31.5t-13 -38.5t-8.5 -36t-6.5 -38t-5 -31h188z" />
<glyph horiz-adv-x="434" d="M42 108v23h159v74h-159v23h145l-162 272l26 10l165 -282h3l165 282l25 -10l-162 -272h145v-23h-159v-74h159v-23h-159v-108h-32v108h-159z" />
<glyph d="M489 312h-175v-182h-28v182h-181v23q84 2 181 2v183h28v-183q67 1 176 1z" />
<glyph d="M489 312h-384v23q132 3 385 3z" />
<glyph d="M464 140l-163 166l-159 -158l-19 19l159 159l-165 168l17 16q55 -52 167 -166l159 159l19 -19l-159 -159q124 -126 163 -165l-1 -6z" />
<glyph d="M333 491q0 -18 -8.5 -30.5t-25.5 -12.5q-15 0 -23.5 11t-8.5 28t10 30t25 13q31 0 31 -39zM489 312h-384v23q132 3 385 3zM333 164q0 -18 -8.5 -30.5t-25.5 -12.5q-15 0 -23.5 11t-8.5 28t10 30t25 13q31 0 31 -39z" />
<glyph d="M489 413h-384v23q132 3 385 3zM489 211h-384v23q132 3 385 3z" />
<glyph d="M208 116l-18 13l45 82h-130v23q19 1 69 1.5t75 0.5l98 177h-242v23q36 1 256 3l52 93l5 3l18 -13l-46 -83h100l-1 -26h-113l-98 -177q79 1 212 1l-1 -26h-225l-51 -92z" />
<glyph d="M112 133v30l335 165l-334 160v30q174 -79 375 -182l1 -16z" />
<glyph d="M488 133l-377 187l1 16q201 103 375 182v-30l-334 -160l335 -165v-30z" />
<glyph d="M116 236v28l338 122l-337 123v28q217 -75 377 -139v-24zM489 115h-384v23q132 3 385 3z" />
<glyph d="M483 537v-28l-338 -123l337 -122v-28q-217 75 -377 139v24zM489 115h-384v23q132 3 385 3z" />
<glyph d="M490 348h-175v-162h-28v162h-181v23q84 2 181 2v163h28v-163q67 1 176 1zM490 71h-384v23q132 3 385 3z" />
<glyph d="M172 453q-16 0 -67 -66l-14 8q14 26 23 40t26 30.5t33 16.5q21 0 126 -30.5t129 -30.5q16 0 67 66l14 -8q-46 -87 -82 -87q-22 0 -128.5 30.5t-126.5 30.5zM172 229q-16 0 -67 -66l-14 8q14 26 23 40t26 30.5t33 16.5q21 0 126 -30.5t129 -30.5q16 0 67 66l14 -8 q-46 -87 -82 -87q-22 0 -128.5 30.5t-126.5 30.5z" />
<glyph d="M494 333v-201h-29v171h-359v25q143 5 388 5z" />
<glyph horiz-adv-x="838" d="M743 267q0 -73 -43 -121t-112 -48q-56 0 -96 36t-77 98q-79 -134 -184 -134q-67 0 -108.5 47t-41.5 120t43.5 121t113.5 48q32 0 58.5 -11t48.5 -34t36.5 -43t32.5 -51q83 139 184 139q69 0 107 -46.5t38 -120.5zM111 268q0 -66 34.5 -105t90.5 -39q83 0 165 134 q-1 1 -2 2.5t-1 2.5q-39 72 -77 108.5t-86 36.5q-54 0 -89 -37.5t-35 -102.5zM597 408q-88 0 -168 -139q41 -73 78 -109t84 -36q53 0 87.5 37.5t34.5 104.5q0 65 -32.5 103.5t-83.5 38.5z" />
<glyph horiz-adv-x="930" d="M277 -10h-31l400 670h30zM361 474q0 -91 -42.5 -140t-105.5 -49q-62 0 -100 48t-38 134q0 91 42 140.5t106 49.5q62 0 100 -48.5t38 -134.5zM106 472q0 -74 29 -121t81 -47q50 0 81.5 43.5t31.5 121.5q0 75 -28.5 121.5t-81.5 46.5q-50 0 -81.5 -43.5t-31.5 -121.5z M855 182q0 -91 -42.5 -140t-105.5 -49q-62 0 -100 48t-38 134q0 91 42 140.5t106 49.5q62 0 100 -48.5t38 -134.5zM600 180q0 -74 29 -121t81 -47q50 0 81.5 43.5t31.5 121.5q0 75 -28.5 121.5t-81.5 46.5q-50 0 -81.5 -43.5t-31.5 -121.5z" />
<glyph horiz-adv-x="1304" d="M277 -10h-31l400 670h30zM361 474q0 -91 -42.5 -140t-105.5 -49q-62 0 -100 48t-38 134q0 91 42 140.5t106 49.5q62 0 100 -48.5t38 -134.5zM106 472q0 -74 29 -121t81 -47q50 0 81.5 43.5t31.5 121.5q0 75 -28.5 121.5t-81.5 46.5q-50 0 -81.5 -43.5t-31.5 -121.5z M855 182q0 -91 -42.5 -140t-105.5 -49q-62 0 -100 48t-38 134q0 91 42 140.5t106 49.5q62 0 100 -48.5t38 -134.5zM1229 182q0 -91 -42.5 -140t-105.5 -49q-62 0 -100 48t-38 134q0 91 42 140.5t106 49.5q62 0 100 -48.5t38 -134.5zM600 180q0 -74 29 -121t81 -47 q50 0 81.5 43.5t31.5 121.5q0 75 -28.5 121.5t-81.5 46.5q-50 0 -81.5 -43.5t-31.5 -121.5zM974 180q0 -74 29 -121t81 -47q50 0 81.5 43.5t31.5 121.5q0 75 -28.5 121.5t-81.5 46.5q-50 0 -81.5 -43.5t-31.5 -121.5z" />
<glyph d="M490 237h-175v-182h-28v182h-181v23q84 2 181 2v183h28v-183q67 1 176 1z" />
<glyph d="M489 237h-384v23q132 3 385 3z" />
<glyph d="M464 65l-163 166l-159 -158l-19 19l159 159l-165 168l17 16q55 -52 167 -166l159 159l19 -19l-159 -159q124 -126 163 -165l-1 -6z" />
<glyph d="M333 416q0 -18 -8.5 -30.5t-25.5 -12.5q-15 0 -23.5 11t-8.5 28t10 30t25 13q31 0 31 -39zM489 237h-384v23q132 3 385 3zM333 89q0 -18 -8.5 -30.5t-25.5 -12.5q-15 0 -23.5 11t-8.5 28t10 30t25 13q31 0 31 -39z" />
<glyph d="M489 338h-384v23q132 3 385 3zM489 136h-384v23q132 3 385 3z" />
<glyph d="M208 41l-18 13l45 82h-130v23q19 1 69 1.5t75 0.5l98 177h-242v23q36 1 256 3l52 93l5 3l18 -13l-46 -83h100l-1 -26h-113l-98 -177q79 1 212 1l-1 -26h-225l-51 -92z" />
<glyph d="M111 57v30l335 165l-334 160v30q174 -79 375 -182l1 -16z" />
<glyph d="M488 57l-377 187l1 16q201 103 375 182v-30l-334 -160l335 -165v-30z" />
<glyph d="M117 161v28l338 122l-337 123v28q217 -75 377 -139v-24zM490 40h-384v23q132 3 385 3z" />
<glyph d="M485 462v-28l-337 -122l338 -123v-28l-378 138v24q160 64 377 139zM492 40h-384v23q132 3 385 3z" />
<glyph d="M309 456v-163q67 1 176 1l-1 -26h-175v-162h-28v162h-181v23q84 2 181 2v163h28zM484 -9h-384v23q132 3 385 3z" />
<glyph d="M171 378q-16 0 -67 -66l-14 8q14 26 23 40t26 30.5t33 16.5q22 0 126 -30.5t129 -30.5q16 0 67 66l14 -8q-46 -87 -82 -87q-22 0 -128.5 30.5t-126.5 30.5zM171 154q-16 0 -67 -66l-14 8q14 26 23 40t26 30.5t33 16.5q22 0 126 -30.5t129 -30.5q16 0 67 66l14 -8 q-46 -87 -82 -87q-22 0 -128.5 30.5t-126.5 30.5z" />
<glyph d="M494 332v-201h-29v171h-359v25q143 5 388 5z" />
<glyph horiz-adv-x="838" d="M750 251q0 -73 -43 -121t-112 -48q-56 0 -96 36t-77 98q-79 -134 -184 -134q-67 0 -108.5 47t-41.5 120t43.5 121t113.5 48q32 0 58.5 -11t48.5 -34t36.5 -43t32.5 -51q83 139 184 139q69 0 107 -46.5t38 -120.5zM118 252q0 -66 34.5 -105t90.5 -39q83 0 165 134 q0 1 -1 2.5t-2 2.5q-39 72 -77 108.5t-86 36.5q-54 0 -89 -37.5t-35 -102.5zM604 392q-88 0 -168 -139q41 -73 78 -109t84 -36q53 0 87.5 37.5t34.5 104.5q0 65 -32.5 103.5t-83.5 38.5z" />
<glyph horiz-adv-x="792" d="M315 377q0 -61 -33.5 -100t-86.5 -39t-86.5 37.5t-33.5 97.5t35 98.5t88 38.5t85 -36t32 -97zM533 510h36l-311 -520h-35zM105 373q0 -51 26 -84t66 -33q39 0 63.5 34.5t24.5 86.5t-24 83.5t-64 31.5t-66 -33.5t-26 -85.5zM717 129q0 -61 -33.5 -100t-86.5 -39 t-86.5 37.5t-33.5 97.5t35 98.5t88 38.5t85 -36t32 -97zM507 125q0 -51 26 -84t66 -33q39 0 63.5 34.5t24.5 86.5t-24 83.5t-64 31.5t-66 -33.5t-26 -85.5z" />
<glyph horiz-adv-x="1097" d="M315 377q0 -61 -33.5 -100t-86.5 -39t-86.5 37.5t-33.5 97.5t35 98.5t88 38.5t85 -36t32 -97zM533 510h36l-311 -520h-35zM105 373q0 -51 26 -84t66 -33q39 0 63.5 34.5t24.5 86.5t-24 83.5t-64 31.5t-66 -33.5t-26 -85.5zM1022 129q0 -61 -33.5 -100t-86.5 -39 t-86.5 37.5t-33.5 97.5t35 98.5t88 38.5t85 -36t32 -97zM717 129q0 -61 -33.5 -100t-86.5 -39t-86.5 37.5t-33.5 97.5t35 98.5t88 38.5t85 -36t32 -97zM812 125q0 -51 26 -84t66 -33q39 0 63.5 34.5t24.5 86.5t-24 83.5t-64 31.5t-66 -33.5t-26 -85.5zM507 125q0 -51 26 -84 t66 -33q39 0 63.5 34.5t24.5 86.5t-24 83.5t-64 31.5t-66 -33.5t-26 -85.5z" />
<glyph horiz-adv-x="709" d="M565 365q11 -85 -9.5 -159t-66.5 -125q61 -67 107 -67q36 0 60 24l8 -22q-28 -26 -73 -26q-64 0 -123 69q-77 -69 -182 -69q-88 0 -142 48t-54 122q0 59 33.5 112t89.5 81q-67 92 -67 164q0 62 44 102.5t111 40.5q54 0 95 -30t59 -79l-22 -19q-20 48 -58.5 76t-81.5 28 q-47 0 -81 -31.5t-34 -87.5q0 -54 31 -105.5t89 -116.5l167 -188q1 -1 2 -2.5t2.5 -2.5t2.5 -2q66 79 66 191q0 38 -5 65zM122 165q0 -67 47 -109t123 -42q91 0 160 64q-2 3 -6 7l-171 193q-34 38 -47 56q-50 -26 -78 -72.5t-28 -96.5z" />
<glyph horiz-adv-x="367" d="M183 324q-49 0 -81 32t-32 80q0 50 31.5 84t82.5 34t82 -31.5t31 -78.5q0 -52 -31.5 -86t-82.5 -34zM184 526q-37 0 -60 -26t-23 -63t23 -61t59 -24q37 0 60 25.5t23 65.5q0 36 -22.5 59.5t-59.5 23.5z" />
<glyph horiz-adv-x="367" d="M183 174q-49 0 -81 32t-32 80q0 50 31.5 84t82.5 34t82 -31.5t31 -78.5q0 -52 -31.5 -86t-82.5 -34zM184 376q-37 0 -60 -26t-23 -63t23 -61t59 -24q37 0 60 25.5t23 65.5q0 36 -22.5 59.5t-59.5 23.5z" />
<glyph horiz-adv-x="542" d="M221 816q-70 -57 -162 -84l-9 17q73 37 136 92zM492 816q-70 -57 -162 -84l-9 17q73 37 136 92zM152 0h-32v535l-8 115l40 10v-660zM291 -171q101 45 101 162v544l-8 115l38 10v-660q0 -151 -127 -195z" />
<glyph horiz-adv-x="426" d="M165 731q-35 -87 -94 -149l-14 5q47 68 72 146zM373 731q-35 -87 -94 -149l-14 5q47 68 72 146zM123 0h-30v385l-8 115l38 10v-510zM224 -177q42 33 62 69t20 95v398l-8 115l38 10v-526q0 -112 -101 -180z" />
</font>
</defs>
</svg>
