<?xml version="1.0" standalone="no"?>
<!DOCTYPE svg PUBLIC "-//W3C//DTD SVG 1.1//EN" "http://www.w3.org/Graphics/SVG/1.1/DTD/svg11.dtd" >
<svg xmlns="http://www.w3.org/2000/svg" xmlns:xlink="http://www.w3.org/1999/xlink" version="1.1">
<metadata></metadata>
<defs>
<font id="indivisa_display_sansThIt" horiz-adv-x="486" >
<font-face units-per-em="1000" ascent="815" descent="-185" />
<missing-glyph horiz-adv-x="172" />
<glyph unicode="&#x2f;symbol&#x33;&#x2f;" horiz-adv-x="957" d="M505 638l68 -270h270l-203 -135l136 -270l-271 135l-270 -270l135 405l-270 203l338 -68zM814 87q18 0 30.5 -12.5t12.5 -31.5q0 -18 -12.5 -30.5t-30.5 -12.5t-30.5 12.5t-12.5 30.5q0 19 12.5 31.5t30.5 12.5zM854 43q0 17 -11.5 29t-28.5 12t-28.5 -12t-11.5 -29 t12 -28.5t28 -11.5t28 11.5t12 28.5zM796 68h18q8 0 11 -2q6 -3 6 -10q0 -5 -4 -9q-3 -3 -6 -3q7 -3 8 -10q2 -14 3 -16h-7q-1 2 -2 7.5t-1 6.5q0 9 -10 9h-9v-23h-7v50zM803 47h10q5 0 7 1q3 3 3 6q0 9 -10 9h-10v-16z" />
<glyph unicode="&#x2f;symbol&#x32;&#x2f;" horiz-adv-x="932" d="M494 570l52 -90l-137 -240h-103l137 240l-52 90h103zM357 570l52 -90l-138 -240h-103l138 240l-52 90h103zM752 120h-103l-137 240l51 90l137 -240h103zM683 0h-103l-137 240l51 90l138 -240h103zM100 120l51 90h275l51 -90h-274l-52 -90zM168 0l52 90h274l52 -90h-275 l-51 -90zM789 88q18 0 30.5 -13t12.5 -31t-12.5 -31t-30.5 -13t-30.5 13t-12.5 31t12.5 31t30.5 13zM829 44q0 16 -11.5 28t-28.5 12t-28.5 -12t-11.5 -28t11.5 -28t28.5 -12t28.5 12t11.5 28zM771 69h18q7 0 11 -2q5 -4 5 -11q0 -5 -3 -8q-1 -2 -6 -4q7 -1 8 -9q0 -8 3 -16 h-8q-1 2 -1.5 6.5t-0.5 6.5q-1 10 -11 10h-8v-23h-7v50zM778 47h10q5 0 7 1q3 3 3 7q0 8 -10 8h-10v-16z" />
<glyph unicode="&#x2f;symbol&#x31;&#x2f;" horiz-adv-x="5534" d="M1865 412q-25 0 -40.5 14.5t-15.5 37.5q0 35 32.5 64t70.5 29q24 0 39 -13.5t15 -37.5q0 -36 -31 -65t-70 -29zM1284 412q-26 0 -41.5 14.5t-15.5 37.5q0 35 33 64t71 29q24 0 38.5 -13.5t14.5 -37.5q0 -36 -31 -65t-69 -29zM959 0q0 42 11 108q-16 -50 -51.5 -82.5 t-78.5 -32.5q-41 0 -63 29.5t-22 82.5q0 62 27 121t84 101t132 42q17 0 25 -1l16 73l6 102l136 7q0 -67 -46 -273t-46 -277h-130zM100 0l78 364q17 86 21 136l128 7l11 -15l-104 -492h-134zM3503 492l-57 -492h-131l20 175q5 50 33 215h-3q-31 -102 -81 -215l-76 -175h-149 l-2 175q-2 121 9 215h-2q-32 -130 -59 -215l-53 -175h-109l154 500l184 6l1 -137q2 -134 -15 -259h2q39 126 94 259l56 131l169 7zM5316 300q-37 -177 -37 -183q0 -34 36 -34q25 0 59 18l-9 -79q-52 -29 -114 -29q-105 0 -105 100q0 20 40 210l-47 1l9 44l54 14l53 95l81 6 l13 -15l-20 -86h99l6 -14l-17 -51zM336 0q0 79 41 260l6 102l137 7q0 -31 -7 -89h2q52 89 134 89q34 0 53 -19.5t19 -51.5q0 -27 -26 -147q-18 -85 -18 -151h-131q0 55 19 150q15 78 15 87q0 24 -17 24q-34 0 -64 -82.5t-32 -178.5h-131zM1170 0q0 72 27 193l14 67l6 102 l137 7q0 -46 -27 -177t-27 -192h-130zM1399 362l140 7q13 -129 -5 -289h2q76 151 91 284q22 5 50 5q32 0 48.5 -8.5t16.5 -33.5q0 -46 -51 -147.5t-116 -179.5h-149q-5 228 -27 362zM1752 0q0 69 26 193l15 67l6 102l137 7q0 -46 -27 -177t-27 -192h-130zM4716 0 q0 79 41 260l6 102l137 7q0 -12 -7 -89h2q52 89 134 89q34 0 53 -19.5t19 -51.5q0 -27 -26 -147q-19 -90 -19 -151h-130q0 55 19 150q15 78 15 87q0 24 -17 24q-35 0 -65 -82t-32 -179h-130zM2245 256q-52 30 -97 30q-18 0 -30 -7t-12 -19q0 -14 20 -26.5t44 -22t44 -33 t20 -56.5q0 -57 -53 -93t-128 -36q-78 0 -118 28l27 93q57 -38 111 -38q19 0 29.5 7.5t10.5 18.5q0 13 -20 26t-44 23t-44 33t-20 55q0 56 54.5 93t128.5 37q58 0 104 -18zM2525 369q88 0 146 -32l-29 -128q-31 -145 -31 -209h-130q0 37 12 112q-15 -52 -51 -85.5t-81 -33.5 q-41 0 -62.5 29.5t-21.5 83.5q0 62 26.5 120.5t85 100.5t136.5 42zM4653 51q-67 -58 -159 -58q-65 0 -103.5 35t-38.5 102q0 94 68.5 166.5t167.5 72.5q54 0 86.5 -23.5t32.5 -64.5q0 -57 -60 -96.5t-161 -43.5v-1q0 -64 63 -64q42 0 90 28zM3936 0q0 74 42 260l5 102l137 7 q0 -31 -7 -89h2q53 89 134 89q34 0 53 -19.5t19 -51.5q0 -27 -26 -147q-18 -85 -18 -151h-131q0 55 19 150q15 71 15 87q0 24 -17 24q-34 0 -64 -82.5t-32 -178.5h-131zM3768 369q87 0 145 -32l-28 -128q-31 -145 -31 -209h-130q0 45 12 112q-15 -52 -51 -85.5t-81 -33.5 q-41 0 -63 29.5t-22 83.5q0 46 16 91.5t46 84t79 63t108 24.5zM4490 177q47 10 73 34t26 59q0 31 -22 31q-28 0 -48.5 -38.5t-28.5 -85.5zM3677 101q23 0 47 43t38 101q1 8 4.5 24.5t4.5 19.5q-16 8 -27 8q-34 0 -62.5 -54.5t-28.5 -101.5q0 -40 24 -40zM913 101 q22 0 44.5 39.5t37.5 94.5q1 9 8 40l3 14q-14 8 -27 8q-33 0 -61.5 -54.5t-28.5 -101.5q0 -40 24 -40zM2435 101q23 0 47 43.5t37 100.5q3 14 9 44q-14 8 -27 8q-34 0 -62 -54.5t-28 -101.5q0 -40 24 -40z" />
<glyph unicode="&#x2f;symbol&#x35;&#x2f;" horiz-adv-x="705" d="M232 -6l-132 136l124 234l129 -136zM474 -6l-121 234l128 136l124 -234z" />
<glyph unicode="&#x2f;symbol&#x34;&#x2f;" horiz-adv-x="2607" d="M1684 406q0 65 -11 128l126 14l15 -15v-533h-130v406zM1889 406q0 62 -10 128l126 14l14 -15v-533h-130v406zM427 101v-101h-320v362q0 80 -7 135l126 7l14 -14v-396zM925 21l7 109q62 -36 144 -36q50 0 50 36q0 20 -31.5 41.5t-69 40.5t-69 57t-31.5 88q0 69 55 108 t138 39q80 0 127 -18l-14 -111q-56 29 -111 29q-27 0 -42.5 -11t-15.5 -29q0 -20 20.5 -38t50 -34t59.5 -35t50.5 -51t20.5 -72q0 -66 -53.5 -103.5t-139.5 -37.5q-41 0 -83.5 8t-61.5 20zM795 0l-106 -7q-11 16 -21 49h-4q-34 -49 -104 -49q-43 0 -70 23t-27 66 q0 113 191 118v20q0 54 -58 54q-55 0 -108 -29l-8 97q72 26 150 26q154 0 154 -135q0 -25 -2 -69t-2 -70q0 -51 15 -94zM1626 0l-107 -7q-12 20 -21 49h-3q-34 -49 -105 -49q-43 0 -69.5 23t-26.5 66q0 113 191 118v20q0 54 -58 54q-54 0 -109 -29l-7 97q72 26 150 26 q153 0 153 -135q0 -25 -1.5 -69.5t-1.5 -69.5q0 -51 15 -94zM2405 213q0 -24 -1 -36l-11 -11h-191q14 -83 98 -83q44 0 84 21l7 -81q-46 -30 -127 -30q-90 0 -144 47.5t-54 134.5q0 85 52 139t132 54q72 0 113.5 -43t41.5 -112zM2199 207l78 4q2 14 2 26q0 59 -34 59 q-44 0 -46 -89zM654 74v88q-29 -3 -47 -18t-18 -39q0 -18 10 -29t27 -11q16 0 28 9zM1485 74v88q-29 -3 -47 -18t-18 -39q0 -18 10 -29t27 -11q16 0 28 9zM2464 85q18 0 30.5 -13t12.5 -31t-12.5 -31t-30.5 -13t-31 13t-13 31t13 31t31 13zM2504 41q0 17 -12 28.5t-28 11.5 t-28 -11.5t-12 -28.5t12 -28.5t28 -11.5t28 11.5t12 28.5zM2446 66h18q7 0 11 -3q5 -3 5 -10q0 -5 -3 -9q-3 -3 -6 -3q7 -1 8 -10q0 -7 3 -15h-8q-1 2 -1.5 6.5t-0.5 6.5q-1 9 -11 9h-8v-22h-7v50zM2453 44h10q5 0 7 1q3 3 3 7q0 8 -10 8h-10v-16z" />
<glyph unicode=" "  horiz-adv-x="172" />
<glyph unicode="&#x09;" horiz-adv-x="172" />
<glyph unicode="&#xa0;" horiz-adv-x="172" />
<glyph unicode="!" horiz-adv-x="250" d="M110 123h-22q92 433 108 527l34 10q-6 -37 -31 -157q-28 -131 -89 -380zM102 12q0 -19 -11 -37t-27 -18q-20 0 -20 25q0 20 12 37.5t27 17.5q19 0 19 -25z" />
<glyph unicode="&#x22;" horiz-adv-x="310" d="M195 695l-61 -234h-17l38 234h40zM345 695l-61 -234h-17l38 234h40z" />
<glyph unicode="#" horiz-adv-x="599" d="M507 193h-141l-86 -203l-19 1l-4 6l83 196h-155l-86 -203l-19 1l-3 6l83 196h-127l-4 5l6 20h136l91 215h-140l-4 5l6 20h148l86 202l18 -1l4 -6l-83 -195h155l86 202l19 -1l4 -6l-83 -195h120l4 -5l-6 -20h-128l-91 -215h132l4 -5zM196 218h155l91 215h-155z" />
<glyph unicode="$" horiz-adv-x="410" d="M112 -122l24 112h-4q-63 0 -121 29l13 35q48 -40 120 -40q67 0 111 44t44 105q0 37 -18.5 68.5t-44.5 56t-52.5 49.5t-45 60t-18.5 76q0 70 47 122.5t120 62.5l23 111l26 3l-24 -112h4q60 0 102 -22l-12 -35q-12 11 -40.5 22t-60.5 11q-65 0 -110 -45.5t-45 -106.5 q0 -36 18.5 -68.5t45 -58t52.5 -51.5t44.5 -60.5t18.5 -74.5q0 -68 -47.5 -118.5t-119.5 -60.5l-24 -111z" />
<glyph unicode="%" horiz-adv-x="887" d="M217 -10h-26l486 670h26zM378 539q0 -89 -50 -170.5t-127 -81.5q-44 0 -68 30t-24 86q0 55 20.5 112t63 98.5t94.5 41.5q44 0 67.5 -30t23.5 -86zM141 403q0 -97 67 -97q60 0 99.5 77t39.5 156q0 96 -68 96q-60 0 -99 -76.5t-39 -155.5zM810 247q0 -89 -50 -170.5 t-127 -81.5q-44 0 -68 30t-24 86q0 55 20.5 112t63 98.5t94.5 41.5q44 0 67.5 -30t23.5 -86zM573 111q0 -97 67 -97q60 0 99.5 77t39.5 156q0 96 -68 96q-60 0 -99 -76.5t-39 -155.5z" />
<glyph unicode="&#x26;" horiz-adv-x="615" d="M551 55q0 -52 -43 -65l-7 7q18 22 18 56q0 52 -91 115q-49 -81 -118 -129.5t-149 -48.5q-70 0 -106.5 37.5t-36.5 98.5q0 68 45 131t119 106q-34 55 -34 115q0 85 57 133.5t127 48.5q49 0 77.5 -25t28.5 -64q0 -28 -13.5 -60t-35.5 -53q144 0 236 5q0 -17 -6 -35 q-28 0 -112 4q-2 -121 -64 -238q53 -35 80.5 -67.5t27.5 -71.5zM180 486q0 -26 7 -50t15 -42.5t27 -40t31 -33.5t39.5 -32t38.5 -27.5t43.5 -28t40.5 -25.5q53 109 53 226q-16 1 -40 2t-40 2t-27 1l-5 11q43 60 43 109q0 34 -21 56t-63 22q-56 0 -99 -38.5t-43 -111.5z M50 133q0 -53 32.5 -86t90.5 -33q68 0 129.5 45t105.5 122q-11 7 -43.5 27.5t-49.5 32t-42.5 30.5t-45 38t-34.5 39q-64 -38 -103.5 -97t-39.5 -118z" />
<glyph unicode="'" horiz-adv-x="160" d="M195 695l-61 -234h-17l38 234h40z" />
<glyph unicode="(" horiz-adv-x="275" d="M58 150q0 157 74.5 303.5t203.5 241.5l9 -21q-119 -99 -186 -238t-67 -283q0 -154 86 -265l-18 -21q-102 110 -102 283z" />
<glyph unicode=")" horiz-adv-x="275" d="M230 412q0 -157 -74.5 -303.5t-203.5 -241.5l-9 21q119 99 186 238t67 283q0 154 -86 265l18 21q102 -111 102 -283z" />
<glyph unicode="*" horiz-adv-x="361" d="M207 449l35 112l-94 -66l-9 31l100 46l-80 46l22 31l65 -67l14 113h31l-35 -113l94 67l9 -31l-99 -46l79 -46l-22 -31l-65 67l-14 -113h-31z" />
<glyph unicode="+" horiz-adv-x="531" d="M443 312h-150l-39 -182h-24l39 182h-156l5 23q72 2 156 2l39 183h24l-39 -183q58 1 152 1z" />
<glyph unicode="," horiz-adv-x="190" d="M67 33q0 -30 -29 -88t-73 -104l-10 9q56 68 78 140h-1q-19 3 -19 25q0 17 10.5 30t24.5 13q19 0 19 -25z" />
<glyph unicode="-" horiz-adv-x="276" d="M33 277l2 26h224l-2 -26h-224z" />
<glyph unicode="." horiz-adv-x="201" d="M44 -10q-19 0 -19 23q0 16 11 30.5t25 14.5q19 0 19 -21q0 -16 -10.5 -31.5t-25.5 -15.5z" />
<glyph unicode="/" horiz-adv-x="389" d="M315 695l22 -6l-299 -700l-22 6z" />
<glyph unicode="0" horiz-adv-x="542" d="M504 463q0 -74 -21 -155.5t-57.5 -153t-93.5 -118t-122 -46.5q-67 0 -103.5 50.5t-36.5 147.5q0 101 34.5 207.5t104.5 185.5t155 79q67 0 103.5 -50t36.5 -147zM102 195q0 -85 29 -133t89 -48q56 0 105 44t80 111t49 142.5t18 143.5q0 85 -29 133t-89 48q-56 0 -105 -44 t-80 -111t-49 -142.5t-18 -143.5z" />
<glyph unicode="1" horiz-adv-x="302" d="M109 0h-25l132 623l-117 -53l-1 25l147 65l4 -2z" />
<glyph unicode="2" horiz-adv-x="453" d="M327 0h-330l-2 16q176 156 237 218q171 177 171 295q0 51 -28.5 79t-79.5 28q-71 0 -166 -61l-1 30q88 55 176 55q61 0 96 -33t35 -94q0 -28 -8.5 -58t-19.5 -55.5t-36 -59.5t-42 -56.5t-53 -59.5t-55 -55.5t-63 -57.5t-60.5 -53.5t-63.5 -54.5h110q99 0 199 14z" />
<glyph unicode="3" horiz-adv-x="432" d="M358 205q0 -91 -73.5 -153t-180.5 -62q-64 0 -119 24l10 27q60 -26 117 -26q89 0 151.5 54.5t62.5 128.5q0 60 -42 87t-106 27q-30 0 -57 -7l5 24q104 25 176.5 84.5t72.5 132.5q0 43 -26.5 66.5t-75.5 23.5q-63 0 -148 -48l2 26q70 46 156 46q57 0 90.5 -27.5 t33.5 -80.5q0 -71 -58 -129t-147 -90q156 -8 156 -128z" />
<glyph unicode="4" horiz-adv-x="490" d="M282 0h-26l35 164h-264l-2 15l379 481l16 -10l-97 -459q33 2 92 10l-17 -37h-81zM384 600l-325 -414l157 1q28 0 80 2z" />
<glyph unicode="5" horiz-adv-x="448" d="M383 234q0 -99 -70.5 -171.5t-186.5 -72.5q-60 0 -116 24l10 24q58 -24 114 -24q95 0 156 65t61 151q0 63 -34 93t-90 30q-68 0 -111 -23l-7 8l67 312h147q78 0 142 10l-15 -33h-253l-58 -269q46 19 103 19q67 0 104 -36.5t37 -106.5z" />
<glyph unicode="6" horiz-adv-x="468" d="M419 235q0 -94 -63.5 -169.5t-154.5 -75.5q-136 0 -136 179q0 80 26.5 166.5t71.5 159t113 119t143 46.5q48 0 69 -14l-13 -25q-23 15 -68 15q-43 0 -85.5 -21t-82.5 -63t-74.5 -114.5t-55.5 -167.5q40 49 90.5 75t96.5 26q56 0 89.5 -36t33.5 -100zM97 162 q0 -148 110 -148q75 0 127.5 67.5t52.5 151.5q0 54 -25.5 84t-72.5 30q-46 0 -96.5 -29t-89.5 -84q-6 -38 -6 -72z" />
<glyph unicode="7" horiz-adv-x="433" d="M89 0h-28q41 155 153.5 335.5t219.5 291.5h-118q-98 0 -199 -14l17 37h329l4 -5l-3 -12q-115 -122 -223.5 -298t-151.5 -335z" />
<glyph unicode="8" horiz-adv-x="492" d="M44 113q0 67 57 126.5t135 87.5q-98 73 -98 159q0 70 61 122t136 52q55 0 90.5 -32t35.5 -85q0 -66 -53 -125.5t-129 -90.5q120 -87 120 -173q0 -67 -61.5 -115.5t-145.5 -48.5q-68 0 -108 34t-40 89zM168 491q0 -85 96 -152q70 32 118.5 85.5t48.5 113.5q0 44 -29.5 71 t-77.5 27q-62 0 -109 -42.5t-47 -102.5zM74 119q0 -47 35 -76t92 -29q68 0 118 40t50 98q0 43 -30.5 81.5t-87.5 81.5q-73 -30 -125 -83.5t-52 -112.5z" />
<glyph unicode="9" horiz-adv-x="471" d="M437 478q0 -80 -25.5 -165t-69.5 -157.5t-112 -119t-145 -46.5q-48 0 -69 14l13 25q23 -15 68 -15q89 0 172 86.5t123 263.5h-1q-38 -51 -89.5 -78t-98.5 -27q-55 0 -88 37t-33 104q0 98 64 179t156 81q65 0 100 -46t35 -136zM114 401q0 -56 25.5 -87t73.5 -31 q46 0 95 28t89 85q8 48 8 86q0 71 -26.5 112.5t-81.5 41.5q-77 0 -130 -74t-53 -161z" />
<glyph unicode=":" horiz-adv-x="202" d="M136 420q-19 0 -19 23q0 16 11 30.5t25 14.5q19 0 19 -21q0 -16 -10.5 -31.5t-25.5 -15.5zM45 -10q-19 0 -19 23q0 16 11 30.5t25 14.5q19 0 19 -21q0 -16 -10.5 -31.5t-25.5 -15.5z" />
<glyph unicode=";" horiz-adv-x="216" d="M150 420q-19 0 -19 23q0 16 11 30.5t25 14.5q19 0 19 -21q0 -16 -10.5 -31.5t-25.5 -15.5zM82 33q0 -30 -29 -88t-73 -104l-10 9q56 68 78 140h-1q-19 3 -19 25q0 17 10.5 30t24.5 13q19 0 19 -25z" />
<glyph unicode="&#x3c;" horiz-adv-x="524" d="M481 518l-6 -30l-324 -165l254 -160l-7 -30q-138 83 -284 182l3 16z" />
<glyph unicode="=" horiz-adv-x="533" d="M466 413h-330l5 23q114 3 332 3zM422 211h-330l5 23q114 3 332 3z" />
<glyph unicode="&#x3e;" horiz-adv-x="525" d="M76 133l6 30l324 165l-254 160l7 30q138 -83 284 -182l-3 -16z" />
<glyph unicode="?" horiz-adv-x="450" d="M192 131h-22q-2 35 7 73q9 40 43.5 83t71 76t71 79t43.5 92q12 60 -16.5 96.5t-78.5 36.5q-38 0 -81.5 -20t-79.5 -55l-10 19q89 84 181 84q64 0 96 -44.5t16 -117.5q-9 -44 -33.5 -83t-54 -68t-58.5 -57.5t-53 -62.5t-32 -70q-2 -7 -5.5 -31.5t-4.5 -29.5zM184 12 q0 -19 -11 -37t-27 -18q-20 0 -20 25q0 20 12 37.5t27 17.5q19 0 19 -25z" />
<glyph unicode="@" horiz-adv-x="1097" d="M718 -123q-106 -72 -239 -72q-165 0 -269 105.5t-104 270.5q0 105 45 201t118.5 164t170 108.5t196.5 40.5q160 0 261 -97t101 -248q0 -83 -29.5 -164.5t-88.5 -138.5t-131 -57q-53 0 -84 30.5t-34.5 78.5t11.5 107h-4q-16 -38 -35.5 -72t-46 -68.5t-59.5 -55t-67 -20.5 q-48 0 -76 38.5t-28 105.5q0 83 41 169.5t116 146.5t160 60q48 0 90 -15l-46 -187q-1 -2 -2 -8q-7 -29 -11.5 -48.5t-11 -59t-4.5 -66.5t9 -55.5t28 -43.5t53 -15q59 0 111 49t82 126t30 159q0 146 -95 236.5t-243 90.5q-91 0 -180.5 -36.5t-160.5 -99t-115 -155t-44 -195.5 q0 -158 96.5 -259t254.5 -101q115 0 224 66zM426 14q41 0 84.5 43t77.5 107t59 128t38 117l16 67q-35 10 -69 10q-71 0 -134.5 -51.5t-101.5 -134t-38 -171.5q0 -115 68 -115z" />
<glyph unicode="A" horiz-adv-x="501" d="M15 0h-28l267 532l59 118l46 10l49 -660h-28l-14 182h-259zM331 628l-209 -416h242l-32 416h-1z" />
<glyph unicode="B" horiz-adv-x="510" d="M162 0h-103l114 535l17 115h110q79 0 120 -32.5t41 -91.5q0 -60 -38.5 -113t-96.5 -73q97 -21 97 -126q0 -92 -71 -153t-190 -61zM289 624h-70l-58 -274h89q78 0 129.5 50t51.5 118q0 106 -142 106zM253 324h-97l-63 -298h79q106 0 163.5 52t57.5 130q0 116 -140 116z " />
<glyph unicode="C" horiz-adv-x="468" d="M381 53v-24q-53 -39 -132 -39q-86 0 -131 57t-45 162q0 103 39 205.5t115 174t169 71.5q65 0 114 -26l-17 -34q-44 36 -110 36q-81 0 -146.5 -67.5t-98 -162.5t-32.5 -189q0 -97 38.5 -149.5t112.5 -52.5q66 0 124 38z" />
<glyph unicode="D" horiz-adv-x="565" d="M173 535l17 115h96q20 0 33 -0.5t40 -5t45.5 -13t42 -25.5t38 -41.5t24.5 -63t10 -86.5q0 -75 -23 -147.5t-66 -133t-113.5 -97.5t-156.5 -37h-101zM275 624h-56l-126 -598h77q79 0 142 34t100.5 90t56.5 121.5t19 133.5q0 62 -17.5 106.5t-39 65.5t-56.5 32.5t-53.5 13 t-46.5 1.5z" />
<glyph unicode="E" horiz-adv-x="439" d="M331 0h-272l114 535l17 115h283l-11 -31l-243 5l-61 -289l172 3l-11 -31l-166 2l-60 -283l249 5z" />
<glyph unicode="F" horiz-adv-x="418" d="M87 0h-28l114 535l17 115h283l-11 -31l-243 5l-65 -307l1 3l171 3l-11 -31l-166 2z" />
<glyph unicode="G" horiz-adv-x="517" d="M400 29q-64 -39 -144 -39q-89 0 -136 58.5t-47 165.5q0 78 25 157t68.5 143.5t108.5 105t139 40.5q60 0 109 -27l-17 -34q-42 37 -106 37q-65 0 -122 -38.5t-94 -99.5t-58 -133t-21 -142q0 -99 41.5 -153.5t120.5 -54.5q57 0 109 26l21 102l18 115l36 10z" />
<glyph unicode="H" horiz-adv-x="585" d="M87 0h-28l114 535l17 115l37 10l-71 -333h313l44 208l18 115l36 10l-140 -660h-27l63 297h-313z" />
<glyph unicode="I" horiz-adv-x="245" d="M87 0h-28l114 535l17 115l37 10z" />
<glyph unicode="J" horiz-adv-x="243" d="M-64 -171q51 23 79.5 62.5t41.5 99.5l116 544l17 115l35 10l-140 -660q-32 -151 -151 -195z" />
<glyph unicode="K" horiz-adv-x="465" d="M173 535l17 115l38 10l-70 -328h77l252 328l28 -10l-258 -333l119 -317l-31 -10l-116 312h-77l-65 -302h-28z" />
<glyph unicode="L" horiz-adv-x="414" d="M331 0h-272l114 535l17 115l37 10l-134 -634l249 5z" />
<glyph unicode="M" horiz-adv-x="706" d="M230 620h-1l-198 -620h-29l214 650l41 10l47 -635h2l314 625l39 10l-61 -660h-30l65 620h-1l-313 -620h-38z" />
<glyph unicode="N" horiz-adv-x="587" d="M173 535l17 115l45 10l173 -632h2l127 622l32 10l-140 -660h-42l-171 623h-1l-128 -623h-28z" />
<glyph unicode="O" horiz-adv-x="584" d="M543 444q0 -102 -38 -205.5t-111 -176t-160 -72.5q-77 0 -119 57.5t-42 159.5q0 101 38 204.5t111 176t160 72.5q77 0 119 -57t42 -159zM105 213q0 -93 36.5 -146t103.5 -53q59 0 110.5 40.5t84.5 103.5t52 136.5t19 141.5q0 94 -36 147t-103 53q-77 0 -140.5 -69.5 t-95 -165.5t-31.5 -188z" />
<glyph unicode="P" horiz-adv-x="463" d="M87 0h-28l114 535l17 115h100q83 0 124 -38.5t41 -110.5q0 -104 -70 -177.5t-186 -73.5h-59zM279 624h-60l-73 -348h64q101 0 158 65.5t57 153.5q0 129 -146 129z" />
<glyph unicode="Q" horiz-adv-x="584" d="M653 -114q0 -30 -87 -30q-88 0 -188 38t-185 101q-58 14 -89 69.5t-31 142.5q0 101 38 204.5t111 176t160 72.5q77 0 119 -57t42 -159q0 -74 -22.5 -153t-61 -145.5t-96.5 -110t-123 -45.5q64 -43 155.5 -72.5t175.5 -29.5q46 0 78 8q4 -4 4 -10zM245 14q59 0 110.5 40.5 t84.5 103.5t52 136.5t19 141.5q0 94 -36 147t-103 53q-77 0 -140.5 -69.5t-95 -165.5t-31.5 -188q0 -93 36.5 -146t103.5 -53z" />
<glyph unicode="R" horiz-adv-x="474" d="M87 0h-28l114 535l17 115h100q83 0 124.5 -37.5t41.5 -107.5q0 -79 -45 -139.5t-127 -83.5l92 -282l-31 -10l-91 285q-32 -5 -60 -5h-50zM279 624h-60l-69 -328h54q107 0 164.5 59.5t57.5 142.5q0 126 -147 126z" />
<glyph unicode="S" horiz-adv-x="420" d="M340 171q0 -75 -59.5 -128t-144.5 -53q-65 0 -125 29l13 35q18 -15 52.5 -27.5t72.5 -12.5q69 0 114.5 44t45.5 105q0 37 -19 68.5t-46 56t-54.5 49.5t-46.5 60t-19 76q0 77 58.5 132t144.5 55q61 0 105 -22l-12 -35q-13 12 -42 22.5t-63 10.5q-68 0 -114 -45.5 t-46 -106.5q0 -36 19 -68.5t46.5 -58t54.5 -51.5t46 -60.5t19 -74.5z" />
<glyph unicode="T" horiz-adv-x="411" d="M167 0h-28l132 624l-168 -5l11 31h352l-2 -31l-165 5z" />
<glyph unicode="U" horiz-adv-x="568" d="M242 14q71 0 118.5 53.5t68.5 152.5l67 315l17 115l37 10l-92 -430q-25 -116 -83 -178t-143 -62q-67 0 -102.5 37t-35.5 103q0 32 10.5 85t67.5 320l18 115l37 10q-20 -96 -50 -234q-38 -178 -46 -220.5t-8 -68.5q0 -58 31 -90.5t88 -32.5z" />
<glyph unicode="V" horiz-adv-x="495" d="M518 660l22 -10l-324 -650h-42l-49 650l27 10l48 -635h1z" />
<glyph unicode="W" horiz-adv-x="771" d="M143 0l-18 650l27 10l17 -635h1l287 625h28l20 -625h1l287 635l23 -10l-295 -650h-40l-20 600h-2l-275 -600h-41z" />
<glyph unicode="X" horiz-adv-x="482" d="M-13 0l251 326l-102 324l27 10l99 -313l231 313l23 -10l-239 -323l112 -327h-30l-106 307l-236 -307h-30z" />
<glyph unicode="Y" horiz-adv-x="481" d="M200 0h-27l45 213l-93 437l27 10l88 -410h1l262 410l23 -10l-280 -438z" />
<glyph unicode="Z" horiz-adv-x="436" d="M338 0h-345l-2 18l444 604q-245 0 -310 -7l12 35h334l1 -18l-444 -604q119 0 155.5 0.5t79.5 4t89 12.5z" />
<glyph unicode="[" horiz-adv-x="352" d="M3 -111l169 796h152l-6 -24h-122l-165 -772h123l-5 -24h-151z" />
<glyph unicode="\" horiz-adv-x="314" d="M165 -11l-2 700l25 6l2 -700z" />
<glyph unicode="]" horiz-adv-x="352" d="M190 -135h-152l6 24h122l165 772h-123l5 24h151l-5 -24z" />
<glyph unicode="^" horiz-adv-x="476" d="M106 190h-29l208 335h18l70 -335h-28l-59 298z" />
<glyph unicode="_" horiz-adv-x="293" d="M-84 -143l6 26h292l-5 -26h-293z" />
<glyph unicode="`" horiz-adv-x="232" d="M234 587l-13 -5q-38 63 -49 149l31 2q6 -78 31 -146z" />
<glyph unicode="a" horiz-adv-x="492" d="M41 124q0 87 40.5 175.5t115.5 149.5t161 61q49 0 89 -20l-42 -173q-42 -173 -42 -288q0 -18 1 -29h-30v8q-1 9 -1 22q0 82 26 211q-43 -112 -106 -181.5t-124 -69.5q-41 0 -64.5 35t-23.5 99zM73 127q0 -50 16 -81.5t45 -31.5q63 0 141 117t125 287q2 11 11 49 q-35 19 -76 19q-69 0 -131 -58.5t-96.5 -141t-34.5 -159.5z" />
<glyph unicode="b" horiz-adv-x="484" d="M443 376q0 -65 -24.5 -133t-65.5 -124.5t-102.5 -92.5t-129.5 -36q-45 0 -85 14l119 563l17 118l40 10q-75 -359 -98 -463q44 123 110 200.5t131 77.5q41 0 64.5 -35t23.5 -99zM348 486q-67 0 -150 -133t-126 -320q36 -19 77 -19q69 0 131 58.5t96.5 141t34.5 159.5 q0 50 -16 81.5t-47 31.5z" />
<glyph unicode="c" horiz-adv-x="420" d="M335 114l14 -8q-33 -52 -82.5 -84t-97.5 -32q-58 0 -89.5 41t-31.5 120q0 86 33.5 169t92.5 136.5t125 53.5q53 0 94 -39l-14 -32q-37 47 -86 47q-53 0 -103 -50t-80 -127.5t-30 -155.5q0 -139 97 -139q80 0 158 100z" />
<glyph unicode="d" horiz-adv-x="493" d="M41 124q0 87 40.5 175.5t115.5 149.5t161 61q34 0 61 -9q7 33 15 69l17 115l40 10q-16 -78 -36.5 -173.5t-30 -139.5t-21.5 -102t-16.5 -84.5t-9.5 -61t-6.5 -57t-1.5 -48.5q0 -18 1 -29h-30v10q-1 9 -1 13q0 60 5.5 105t25.5 141q-44 -123 -109.5 -201t-131.5 -78 q-41 0 -64.5 35t-23.5 99zM73 127q0 -50 16 -81.5t45 -31.5q68 0 151.5 133.5t126.5 319.5q-36 19 -77 19q-69 0 -131 -58.5t-96.5 -141t-34.5 -159.5z" />
<glyph unicode="e" horiz-adv-x="425" d="M335 114l14 -8q-33 -52 -82.5 -84t-97.5 -32q-55 0 -87.5 44t-32.5 123q0 82 33.5 163.5t91.5 135.5t123 54q42 0 68 -22.5t26 -64.5q0 -70 -70 -126t-184 -68q-26 -4 -49 -2q-7 -32 -7 -68q0 -66 25.5 -105.5t73.5 -39.5q77 0 155 100zM285 486q-62 0 -117 -72.5 t-77 -168.5q136 8 202 60t66 110q0 31 -20 51t-54 20z" />
<glyph unicode="f" horiz-adv-x="275" d="M291 451l-122 3l-99 -470q-28 -122 -137 -179l-8 18q92 51 116 165l98 467l-51 1l3 15l53 5v2q-3 42 10 99q12 55 47 86.5t86 31.5q37 0 60 -14l-11 -28q-29 17 -65 17q-71 0 -90 -94q-12 -60 -9 -100h126z" />
<glyph unicode="g" horiz-adv-x="429" d="M331 -55q0 -58 -69 -99t-161 -41q-69 0 -106 26t-37 71q0 39 24.5 70t51.5 45l7 -11q-55 -48 -55 -98q0 -37 31.5 -58t89.5 -21q73 0 134.5 31t61.5 77q0 29 -30.5 50.5t-67.5 32t-67.5 28t-30.5 39.5q0 34 71 77v1q-98 0 -98 104q0 54 25 109t71 93.5t98 38.5 q101 0 176 5q3 -6 3 -11q0 -10 -9.5 -17t-25.5 -7q-28 0 -97 20l-2 -2q48 -21 48 -97q0 -144 -157 -242q-3 -2 -10.5 -6.5t-12 -7t-11 -7t-10.5 -7.5t-9.5 -7.5t-8.5 -8t-6 -7.5t-4.5 -7.5t-1.5 -7.5q0 -15 30.5 -28.5t67 -24t67 -35t30.5 -60.5zM110 274q0 -44 18.5 -66.5 t49.5 -22.5q59 0 109 71t50 143q0 40 -18.5 64t-53.5 24q-62 0 -108.5 -69t-46.5 -144z" />
<glyph unicode="h" horiz-adv-x="482" d="M364 0h-30q0 1 -0.5 9.5t-0.5 19.5q0 81 29 224t29 165q0 32 -17 50t-40 18q-33 0 -74.5 -38.5t-78 -99t-62.5 -141.5t-29 -159v-28l1 -20h-30q0 1 -0.5 8.5t-0.5 21.5q0 95 39 278l56 262l17 115l40 10q-16 -76 -35.5 -166.5t-32 -148.5t-20.5 -98q42 103 101 165.5 t119 62.5q77 0 77 -93q0 -35 -29 -168t-29 -228q0 -4 0.5 -12t0.5 -9z" />
<glyph unicode="i" horiz-adv-x="220" d="M206 670q0 -19 -11 -37t-27 -18q-20 0 -20 25q0 20 12 37.5t27 17.5q19 0 19 -25zM173 510q-56 -265 -69 -339t-13 -142q0 -18 1 -29h-30v10q-1 9 -1 13q0 104 39 285l16 74l17 118z" />
<glyph unicode="j" horiz-adv-x="216" d="M217 670q0 -19 -11 -37t-27 -18q-20 0 -20 25q0 20 12 37.5t27 17.5q19 0 19 -25zM176 510q-6 -30 -112 -526q-25 -119 -137 -179l-8 18q46 28 74.5 66t41.5 98l85 398l17 115z" />
<glyph unicode="k" horiz-adv-x="417" d="M91 0h-30l-1 10v13q0 73 6.5 119t32.5 166l56 262l17 115l40 10q-38 -180 -78 -362q37 87 88 132t102 45q36 0 57 -21.5t21 -54.5q0 -59 -60.5 -118.5t-136.5 -90.5q59 -124 139 -225l-32 -10q-81 110 -140 242q81 38 139.5 90.5t58.5 108.5q0 26 -13.5 40.5t-36.5 14.5 q-52 0 -106 -67t-89 -174.5t-35 -215.5v-1q0 -18 1 -28z" />
<glyph unicode="l" horiz-adv-x="219" d="M212 695q-15 -68 -33.5 -154t-27.5 -128t-20.5 -97.5t-16.5 -82t-11 -61t-8 -55t-3.5 -43t-1.5 -45.5q0 -18 1 -29h-30l-1 10v13q0 69 7 119t32 166l56 262l17 115z" />
<glyph unicode="m" horiz-adv-x="744" d="M92 0h-30v10q-1 9 -1 13q0 68 9.5 128.5t45.5 232.5l17 116l40 10q-32 -150 -46 -220q42 99 98.5 159.5t113.5 60.5q77 0 77 -93q0 -35 -18 -118q42 96 97 153.5t111 57.5q77 0 77 -93q0 -37 -29 -169.5t-29 -219.5q0 -12 0.5 -19.5t0.5 -8.5h-30q0 1 -0.5 9.5t-0.5 19.5 q0 81 29 224t29 165q0 32 -17 50t-40 18q-45 0 -101 -67t-96.5 -176.5t-40.5 -214.5q0 -12 0.5 -19.5t0.5 -8.5h-30q0 1 -0.5 9.5t-0.5 19.5q0 81 29 224t29 165q0 32 -17 50t-40 18q-45 0 -101 -67t-96.5 -176.5t-40.5 -214.5q0 -18 1 -28z" />
<glyph unicode="n" horiz-adv-x="483" d="M92 0h-30v10q-1 9 -1 13q0 68 9.5 128.5t45.5 232.5l17 116l40 10q-46 -221 -47 -226q42 102 100.5 164t118.5 62q77 0 77 -93q0 -35 -29 -168t-29 -228q0 -4 0.5 -12t0.5 -9h-30q0 1 -0.5 9.5t-0.5 19.5q0 81 29 224t29 165q0 32 -17 50t-40 18q-46 0 -103.5 -67 t-99 -176.5t-41.5 -214.5q0 -18 1 -28z" />
<glyph unicode="o" horiz-adv-x="471" d="M425 356q0 -80 -33.5 -163t-95 -141t-131.5 -58q-57 0 -88.5 37t-31.5 108q0 82 34.5 166.5t96 142.5t130.5 58q59 0 89 -40t30 -110zM79 148q0 -66 27 -99t71 -33q56 0 107 53t79.5 130.5t28.5 150.5q0 62 -24.5 98t-70.5 36q-55 0 -107 -53.5t-81.5 -131t-29.5 -151.5z " />
<glyph unicode="p" horiz-adv-x="484" d="M173 510q-39 -186 -62 -287q44 126 111 206.5t133 80.5q41 0 64.5 -35t23.5 -99q0 -87 -40.5 -175.5t-115.5 -149.5t-161 -61q-33 0 -60 9q-15 -87 -15 -155q0 -18 1 -29h-30v9q-1 10 -1 14q0 69 7 119t32 166l56 262l17 115zM350 486q-68 0 -151.5 -133.5t-126.5 -319.5 q36 -19 77 -19q69 0 131 58.5t96.5 141t34.5 159.5q0 50 -16 81.5t-45 31.5z" />
<glyph unicode="q" horiz-adv-x="487" d="M41 124q0 87 40.5 175.5t115.5 149.5t161 61q49 0 89 -20q-16 -74 -36 -168t-29 -136t-20.5 -99t-16 -82t-9.5 -58.5t-6 -55.5t-1 -47q0 -18 1 -29h-30v9q-1 10 -1 14q0 72 10.5 137t59.5 290q-44 -121 -109.5 -198t-130.5 -77q-41 0 -64.5 35t-23.5 99zM73 127 q0 -50 16 -81.5t47 -31.5q67 0 150 133t126 320q-36 19 -77 19q-69 0 -131 -58.5t-96.5 -141t-34.5 -159.5z" />
<glyph unicode="r" horiz-adv-x="344" d="M92 0h-30v10q-1 9 -1 13q0 68 9.5 128.5t45.5 232.5l17 116l40 10q-8 -39 -21 -98.5t-17 -80.5q32 82 75.5 130.5t92.5 48.5q40 0 68 -14l-14 -32q-26 22 -65 22q-42 0 -89.5 -68.5t-79.5 -177t-32 -212.5q0 -18 1 -28z" />
<glyph unicode="s" horiz-adv-x="365" d="M287 128q0 -58 -50.5 -98t-126.5 -40q-61 0 -115 25l13 35q47 -36 115 -36q59 0 97 30.5t38 76.5q0 34 -20.5 59.5t-64.5 60.5q-30 24 -42 34.5t-27 36.5t-15 54q0 59 50 101.5t126 42.5q58 0 94 -17l-13 -35q-35 28 -92 28q-60 0 -98 -34t-38 -79q0 -30 17.5 -53.5 t54.5 -54.5q3 -3 18 -15t20.5 -17t17.5 -16.5t17 -19.5t12 -19.5t9.5 -23.5t2.5 -26z" />
<glyph unicode="t" horiz-adv-x="375" d="M314 106q-77 -116 -172 -116q-74 0 -74 81q0 23 37 196q24 109 41 188l-52 1l3 16l54 4l40 155l22 3q-5 -25 -16.5 -78.5t-16.5 -79.5h179l-7 -25l-177 3q-77 -361 -77 -383q0 -57 55 -57q69 0 147 100z" />
<glyph unicode="u" d="M358 0h-30q0 1 -0.5 9.5t-0.5 20.5q0 37 26 188q-40 -102 -98 -165t-120 -63q-35 0 -57 21.5t-22 69.5q0 6 0.5 11.5t1.5 13.5t2 15.5t4 22.5t6 27.5t8 37t10 46t13 59t15 71.5l17 115l40 10q-13 -60 -29.5 -134t-24.5 -112.5t-16.5 -79.5t-12 -63.5t-3.5 -36.5 q0 -32 16 -51t43 -19q68 0 140.5 119t95.5 249q10 60 11 64l3 26q3 26 3 28l40 10q-56 -265 -69 -339t-13 -142q0 -18 1 -29z" />
<glyph unicode="v" horiz-adv-x="390" d="M103 264q-7 127 -28 236l29 10q18 -101 28 -241q9 -126 9 -244h1q84 128 139 257t55 220q9 8 19 8q14 0 14 -18q0 -67 -66 -223t-159 -278l-32 9q0 107 -9 264z" />
<glyph unicode="w" horiz-adv-x="636" d="M102 256q-9 150 -27 244l29 10q14 -77 26 -251q7 -115 7 -234h1q82 125 136 255t54 220l29 10q18 -102 26 -243q7 -119 7 -242h1q82 126 136 255.5t54 221.5q9 8 19 8q14 0 14 -18q0 -68 -64 -224t-157 -277l-32 9q2 197 -18 422q-14 -86 -71.5 -210t-131.5 -221l-32 9 q0 152 -6 256z" />
<glyph unicode="x" horiz-adv-x="399" d="M8 5q0 34 55.5 114t118.5 136q-40 169 -85 245l27 10q19 -32 35 -76t24.5 -75.5t22.5 -87.5q122 121 146 231q8 8 19 8q13 0 13 -15q0 -34 -55 -113.5t-117 -133.5q14 -58 23 -90.5t26 -78.5t37 -79l-27 -10q-42 72 -83 241q-124 -121 -148 -233q-8 -8 -19 -8 q-13 0 -13 15z" />
<glyph unicode="y" horiz-adv-x="395" d="M148 -10q-60 -78 -129 -131.5t-120 -53.5q-38 0 -38 23q0 11 8 19q16 -6 34 -6q43 0 110 48.5t116 113.5l-12 1q0 103 -9 260q-7 127 -28 236l29 10q18 -101 28 -241q9 -126 9 -244h1q84 128 139 257t55 220q9 8 19 8q14 0 14 -18q0 -66 -65.5 -222.5t-160.5 -279.5z" />
<glyph unicode="z" horiz-adv-x="415" d="M3 -10l-7 14q215 228 325 430q-76 44 -150 44q-46 0 -65 -50l-22 5q10 43 31.5 60t56.5 17q70 0 158 -60q20 40 29 60q23 0 23 -15q0 -36 -106 -187.5t-214 -262.5q41 -1 86.5 -12t63.5 -11q35 0 57.5 13.5t38.5 55.5l22 -5q-15 -53 -43.5 -74.5t-73.5 -21.5 q-25 0 -68.5 15t-69.5 15q-39 0 -72 -30z" />
<glyph unicode="{" horiz-adv-x="259" d="M128 191q0 66 -75 74l7 30q120 14 120 152q0 14 -2 40t-2 41q0 167 154 167l-4 -24q-64 -1 -93 -36.5t-29 -106.5q0 -14 1.5 -40.5t1.5 -37.5q0 -64 -30 -111t-81 -60q26 -8 42.5 -29.5t16.5 -53.5q0 -38 -38.5 -122t-38.5 -121q0 -63 82 -64l-6 -24q-105 0 -105 81 q0 44 39.5 126.5t39.5 118.5z" />
<glyph unicode="|" horiz-adv-x="261" d="M45 -202l-22 -3l191 897l21 3z" />
<glyph unicode="}" horiz-adv-x="258" d="M143 369q0 -66 75 -74l-7 -30q-120 -14 -120 -152q0 -14 2 -40t2 -41q0 -167 -154 -167l4 24q64 1 93 36.5t29 106.5q0 14 -1.5 40.5t-1.5 37.5q0 64 30 111t81 60q-26 8 -42.5 29.5t-16.5 53.5q0 38 38.5 122t38.5 121q0 63 -82 64l6 24q105 0 105 -81 q0 -44 -39.5 -126.5t-39.5 -118.5z" />
<glyph unicode="~" horiz-adv-x="559" d="M176 279q-14 0 -72 -66l-10 8q60 87 89 87q19 0 102 -30.5t104 -30.5q13 0 72 66l10 -8q-58 -87 -89 -87q-19 0 -104 30.5t-102 30.5z" />
<glyph unicode="&#xa1;" horiz-adv-x="250" d="M148 488q0 19 11 37t27 18q20 0 20 -25q0 -20 -12 -37.5t-27 -17.5q-19 0 -19 25zM140 377h22q-92 -433 -108 -527l-34 -10q6 37 31 157q28 131 89 380z" />
<glyph unicode="&#xa2;" horiz-adv-x="420" d="M146 -122l24 112h-1q-58 0 -89.5 41t-31.5 120q0 86 33.5 169t92 136.5t123.5 53.5l24 109l26 3l-24 -114q37 -6 70 -37l-14 -32q-37 47 -86 47q-53 0 -103 -50t-80 -127.5t-30 -155.5q0 -139 97 -139q80 0 158 100l14 -8q-29 -44 -69.5 -74.5t-83.5 -38.5l-23 -112z" />
<glyph unicode="&#xa3;" horiz-adv-x="428" d="M375 320l-157 3l-23 -83q-22 -81 -60 -141t-82 -89q8 -5 39 -28t48.5 -33.5t49.5 -22t62 -11.5q52 0 80 16l-17 -32q-23 -10 -66 -10q-54 0 -105 29.5t-111 80.5q-21 -9 -42 -9q-17 0 -23 5.5t-4 14.5q4 22 34 22q17 0 37 -11q35 20 73 77.5t61 140.5l23 84l-92 2l3 17 l95 5h1q17 60 28 97t28 82t33.5 71.5t38 51t48.5 35.5t59 11q36 0 70 -19l-17 -38q-28 32 -74 32q-29 0 -51.5 -13t-39.5 -37t-31.5 -59t-27.5 -77t-27 -93q-8 -29 -12 -44h158z" />
<glyph unicode="&#xa4;" horiz-adv-x="475" d="M358 66l-52 82q-51 -46 -108 -46q-52 0 -82 35l-77 -72l-13 21l76 71q-15 29 -15 68q0 90 68 160l-50 78l23 21q41 -65 50 -78q46 36 97 36q53 0 82 -40l87 82l14 -21l-88 -82l-1 1q14 -30 14 -66q0 -82 -57 -147q20 -30 55 -80zM114 233q0 -45 23.5 -73t66.5 -28 q63 0 108 55.5t45 121.5q0 44 -23.5 73.5t-66.5 29.5q-62 0 -107.5 -56t-45.5 -123z" />
<glyph unicode="&#xa5;" horiz-adv-x="481" d="M52 125l5 22h147l14 65h-147l5 22h137l-88 416l27 10l88 -410h1l262 410l23 -10l-266 -416h134l-5 -22h-143l-14 -65h143l-4 -22h-144l-27 -125h-27l26 125h-147z" />
<glyph unicode="&#xa6;" horiz-adv-x="261" d="M161 347l-21 -3l74 348l21 3zM45 -202l-22 -3l75 352l21 3z" />
<glyph unicode="&#xa7;" horiz-adv-x="450" d="M349 90q0 -105 -64.5 -182.5t-163.5 -77.5q-61 0 -106 36l17 55q10 -17 34 -32t55 -15q54 0 90 44t36 100q0 40 -23.5 85t-51.5 80.5t-51.5 91.5t-23.5 117q0 108 64 188t167 80q57 0 91 -29l-17 -55q-24 40 -78 40q-53 0 -88 -44.5t-35 -102.5q0 -42 23 -88.5t51 -83.5 t51 -93t23 -114zM207 -125l1 -1q53 32 83.5 89t30.5 118q0 50 -23.5 102.5t-51 89.5t-51 87.5t-23.5 97.5q0 87 61 150v1q-52 -31 -81 -88.5t-29 -119.5q0 -53 23.5 -105t51.5 -88t51.5 -84t23.5 -94q0 -90 -67 -155z" />
<glyph unicode="&#xa8;" horiz-adv-x="333" d="M209 659q-9 -41 -36 -41q-25 0 -18 34q4 17 14.5 29t22.5 12q24 0 17 -34zM350 659q-7 -41 -35 -41q-25 0 -18 34q4 17 14 29t23 12q11 0 15.5 -9.5t0.5 -24.5z" />
<glyph unicode="&#xa9;" horiz-adv-x="575" d="M43 183q0 84 42.5 162.5t112.5 127.5t147 49q84 0 135.5 -58t51.5 -149q0 -127 -93.5 -232t-211.5 -105q-83 0 -133.5 57t-50.5 148zM232 0q108 0 192.5 97.5t84.5 213.5q0 82 -47 135.5t-122 53.5q-107 0 -191 -98.5t-84 -215.5q0 -82 46 -134t121 -52zM339 126l-1 -22 q-36 -19 -78 -19q-49 0 -74.5 30.5t-25.5 86.5q0 84 50 154.5t124 70.5q40 0 68 -18l-11 -24q-28 21 -64 21q-62 0 -101.5 -63t-39.5 -135q0 -49 21 -75.5t61 -26.5q42 0 71 20z" />
<glyph unicode="&#xaa;" horiz-adv-x="429" d="M125 462q0 62 29.5 125.5t84.5 107.5t119 44q38 0 71 -15l-30 -125q-30 -128 -30 -202q0 -5 0.5 -13t0.5 -12h-30q0 1 -0.5 8t-0.5 17q0 56 18 145q-32 -79 -77.5 -128t-89.5 -49q-30 0 -47.5 25.5t-17.5 71.5zM157 466q0 -35 11.5 -57t31.5 -22q44 0 99 83t88 202 q1 7 8 34q-26 13 -54 13q-72 0 -128 -83.5t-56 -169.5z" />
<glyph unicode="&#xab;" horiz-adv-x="440" d="M235 288l1 8q95 90 186 199l8 -7q-55 -77 -161 -196q54 -114 78 -196l-11 -7q-45 107 -101 199zM69 288l1 8q95 90 186 199l8 -7q-55 -77 -161 -196q54 -114 78 -196l-11 -7q-45 107 -101 199z" />
<glyph unicode="&#xac;" horiz-adv-x="554" d="M451 333l-42 -201h-25l36 171h-309l6 25q123 5 334 5z" />
<glyph unicode="&#xae;" horiz-adv-x="575" d="M43 183q0 84 42.5 162.5t112.5 127.5t147 49q84 0 135.5 -58t51.5 -149q0 -127 -93.5 -232t-211.5 -105q-83 0 -133.5 57t-50.5 148zM232 0q108 0 192.5 97.5t84.5 213.5q0 82 -47 135.5t-122 53.5q-107 0 -191 -98.5t-84 -215.5q0 -82 46 -134t121 -52zM198 89h-23 l58 272l8 60h67q45 0 68.5 -20.5t23.5 -56.5q0 -39 -26 -70.5t-67 -44.5l53 -140l-26 -5l-50 140q-7 -1 -21 -1h-36zM301 402h-36l-34 -161h38q46 0 76 29.5t30 69.5q0 62 -74 62z" />
<glyph unicode="&#xaf;" horiz-adv-x="340" d="M154 646l6 26h200l-6 -26h-200z" />
<glyph unicode="&#xb0;" horiz-adv-x="332" d="M310 471q0 -55 -38 -101t-90 -46q-35 0 -55 23t-20 62q0 55 37.5 100t89.5 45q35 0 55.5 -23t20.5 -60zM136 419q0 -31 15 -49.5t40 -18.5q38 0 63.5 35.5t25.5 76.5q0 29 -14.5 46.5t-39.5 17.5q-37 0 -63.5 -33t-26.5 -75z" />
<glyph unicode="&#xb1;" horiz-adv-x="533" d="M452 348h-151l-35 -162h-24l34 162h-154l5 23q72 2 155 2l34 163h25l-35 -163q59 1 153 1zM392 71h-330l5 23q114 3 332 3z" />
<glyph unicode="&#xb2;" horiz-adv-x="318" d="M280 372h-205l-1 16q56 45 82 67t69 63t62.5 75t19.5 64q0 26 -16.5 41t-46.5 15q-44 0 -98 -33v25q54 30 109 30q39 0 61.5 -19.5t22.5 -53.5q0 -32 -20 -67t-59.5 -72t-73 -64t-84.5 -64h70q58 0 119 8z" />
<glyph unicode="&#xb3;" horiz-adv-x="305" d="M297 483q0 -50 -45 -83t-109 -33q-43 0 -75 13l8 21q34 -14 69 -14q50 0 85 27.5t35 65.5q0 32 -25 46.5t-61 14.5q-16 0 -34 -4l3 16q60 14 101.5 45t41.5 68q0 47 -60 47q-39 0 -87 -25l2 21q43 26 97 26q36 0 58 -16t22 -46q0 -39 -35.5 -69.5t-89.5 -47.5 q99 -3 99 -73z" />
<glyph unicode="&#xb4;" horiz-adv-x="236" d="M268 730q-49 -86 -113 -149l-13 6q56 70 93 146z" />
<glyph unicode="&#xb6;" horiz-adv-x="543" d="M161 -147q38 0 68 16.5t47 36t31 52t17.5 48t9.5 40.5l103 484l20 98h-42l-93 -433h-26q-12 0 -23.5 1t-37 10t-43.5 25t-33 50.5t-15 81.5q0 114 72 200.5t181 86.5h91l-26 -120l-102 -484q-23 -106 -73 -161.5t-124 -55.5q-62 0 -121 24l9 26q59 -26 110 -26z" />
<glyph unicode="&#xb7;" horiz-adv-x="192" d="M86 208q-19 0 -19 23q0 16 11 30.5t25 14.5q19 0 19 -21q0 -16 -10.5 -31.5t-25.5 -15.5z" />
<glyph unicode="&#xb8;" horiz-adv-x="260" d="M78 -110q3 15 -11 25t-48 14l40 71h24l-30 -54q33 -7 47.5 -20.5t10.5 -32.5q-6 -30 -44.5 -47.5t-83.5 -19.5l2 18q85 11 93 46z" />
<glyph unicode="&#xb9;" horiz-adv-x="230" d="M154 372h-27l71 335l-68 -28l-2 19l100 37l3 -2z" />
<glyph unicode="&#xba;" horiz-adv-x="414" d="M413 626q0 -91 -57.5 -175t-135.5 -84q-43 0 -67.5 28t-24.5 80q0 92 58.5 177t135.5 85q44 0 67.5 -30t23.5 -81zM161 480q0 -46 19 -69.5t50 -23.5q59 0 105 77.5t46 158.5q0 44 -17.5 69t-49.5 25q-59 0 -106 -78t-47 -159z" />
<glyph unicode="&#xbb;" horiz-adv-x="440" d="M223 296l-1 -8q-95 -90 -186 -199l-8 7q55 77 161 196q-54 114 -78 196l11 7q45 -107 101 -199zM389 296l-1 -8q-95 -90 -186 -199l-8 7q55 77 161 196q-54 114 -78 196l11 7q45 -107 101 -199z" />
<glyph unicode="&#xbc;" horiz-adv-x="756" d="M119 -10h-26l486 670h26zM137 292h-27l71 335l-68 -28l-2 19l100 37l3 -2zM547 0h-28l18 85h-157l-1 14l225 264l19 -5l-53 -248q23 1 55 5l-11 -30h-49zM588 321l-184 -214h99q25 0 39 1z" />
<glyph unicode="&#xbd;" horiz-adv-x="736" d="M98 -10h-26l486 670h26zM137 292h-27l71 335l-68 -28l-2 19l100 37l3 -2zM618 0h-205l-1 16q56 45 82 67t69 63t62.5 75t19.5 64q0 26 -16.5 41t-46.5 15q-44 0 -98 -33v25q54 30 109 30q39 0 61.5 -19.5t22.5 -53.5q0 -32 -20 -67t-59.5 -72t-73 -64t-84.5 -64h70 q58 0 119 8z" />
<glyph unicode="&#xbe;" horiz-adv-x="793" d="M190 -10h-26l486 670h26zM280 403q0 -50 -45 -83t-109 -33q-42 0 -75 13l8 21q34 -14 69 -14q50 0 85 27.5t35 65.5q0 32 -25 46.5t-61 14.5q-16 0 -34 -4l3 16q60 14 101.5 45t41.5 68q0 47 -60 47q-39 0 -87 -25l2 21q43 26 97 26q36 0 58 -16t22 -46 q0 -39 -35.5 -69.5t-89.5 -47.5q99 -3 99 -73zM628 0h-28l18 85h-157l-1 14l225 264l19 -5l-53 -248q23 1 55 5l-11 -30h-49zM669 321l-184 -214h99q25 0 39 1z" />
<glyph unicode="&#xbf;" horiz-adv-x="450" d="M266 488q0 19 11 37t27 18q20 0 20 -25q0 -20 -12 -37.5t-27 -17.5q-19 0 -19 25zM258 369h22q2 -35 -7 -73q-9 -40 -43.5 -83t-71 -76t-71 -79t-43.5 -92q-12 -60 16.5 -96.5t78.5 -36.5q38 0 81.5 20t79.5 55l10 -19q-89 -84 -181 -84q-64 0 -96 44.5t-16 117.5 q9 44 33.5 83t54 68t58.5 57.5t53 62.5t32 70q2 7 5.5 31.5t4.5 29.5z" />
<glyph unicode="&#xc0;" horiz-adv-x="501" d="M433 748l-11 -17q-74 27 -124 84l35 25q42 -53 100 -92zM15 0h-28l267 532l59 118l46 10l49 -660h-28l-14 182h-259zM331 628l-209 -416h242l-32 416h-1z" />
<glyph unicode="&#xc1;" horiz-adv-x="501" d="M444 816q-72 -57 -156 -84l-4 17q69 37 134 92zM15 0h-28l267 532l59 118l46 10l49 -660h-28l-14 182h-259zM331 628l-209 -416h242l-32 416h-1z" />
<glyph unicode="&#xc2;" horiz-adv-x="501" d="M260 732l-5 13q64 48 102 92l32 6q21 -50 63 -98l-11 -13q-45 29 -74 75q-51 -46 -107 -75zM15 0h-28l267 532l59 118l46 10l49 -660h-28l-14 182h-259zM331 628l-209 -416h242l-32 416h-1z" />
<glyph unicode="&#xc3;" horiz-adv-x="501" d="M330 825q20 0 43 -21.5t38 -21.5q29 0 60 47l13 -5q-13 -29 -35.5 -51t-48.5 -22q-20 0 -42 21.5t-38 21.5q-29 0 -60 -47l-13 5q13 29 35.5 51t47.5 22zM15 0h-28l267 532l59 118l46 10l49 -660h-28l-14 182h-259zM331 628l-209 -416h242l-32 416h-1z" />
<glyph unicode="&#xc4;" horiz-adv-x="501" d="M309 802q0 -21 -10 -37t-26 -16q-19 0 -19 23q0 20 11.5 36t26.5 16q17 0 17 -22zM477 801q0 -19 -10 -35.5t-26 -16.5q-19 0 -19 24q0 19 11 35t27 16q17 0 17 -23zM15 0h-28l267 532l59 118l46 10l49 -660h-28l-14 182h-259zM331 628l-209 -416h242l-32 416h-1z" />
<glyph unicode="&#xc5;" horiz-adv-x="501" d="M434 808q0 -35 -26.5 -63t-58.5 -28q-23 0 -37 14.5t-14 37.5q0 35 26.5 62.5t60.5 27.5q22 0 35.5 -14t13.5 -37zM326 776q0 -33 28 -33q20 0 36 18t16 40q0 14 -8 23t-21 9q-20 0 -35.5 -17.5t-15.5 -39.5zM15 0h-28l267 532l59 118l46 10l49 -660h-28l-14 182h-259z M331 628l-209 -416h242l-32 416h-1z" />
<glyph unicode="&#xc6;" horiz-adv-x="735" d="M15 0h-28l353 532l74 118h278l-11 -31l-224 5l-33 -289l198 3l-11 -31l-190 2l-33 -283l250 5l-11 -31h-270l22 182h-243zM433 628l-277 -416h227z" />
<glyph unicode="&#xc7;" horiz-adv-x="468" d="M240 -110q3 15 -11 25t-48 14l36 63q-70 10 -107 66.5t-37 150.5q0 103 39 205.5t115 174t169 71.5q65 0 114 -26l-17 -34q-44 36 -110 36q-81 0 -146.5 -67.5t-98 -162.5t-32.5 -189q0 -97 38.5 -149.5t112.5 -52.5q66 0 124 38v-24q-53 -39 -132 -39h-10l-24 -44 q33 -7 47.5 -20.5t10.5 -32.5q-6 -30 -44.5 -47.5t-83.5 -19.5l2 18q85 11 93 46z" />
<glyph unicode="&#xc8;" horiz-adv-x="439" d="M430 748l-11 -17q-74 27 -124 84l35 25q42 -53 100 -92zM331 0h-272l114 535l17 115h283l-11 -31l-243 5l-61 -289l172 3l-11 -31l-166 2l-60 -283l249 5z" />
<glyph unicode="&#xc9;" horiz-adv-x="439" d="M441 816q-72 -57 -156 -84l-4 17q69 37 134 92zM331 0h-272l114 535l17 115h283l-11 -31l-243 5l-61 -289l172 3l-11 -31l-166 2l-60 -283l249 5z" />
<glyph unicode="&#xca;" horiz-adv-x="439" d="M257 732l-5 13q64 48 102 92l32 6q21 -50 63 -98l-11 -13q-45 29 -74 75q-51 -46 -107 -75zM331 0h-272l114 535l17 115h283l-11 -31l-243 5l-61 -289l172 3l-11 -31l-166 2l-60 -283l249 5z" />
<glyph unicode="&#xcb;" horiz-adv-x="439" d="M306 802q0 -21 -10 -37t-26 -16q-19 0 -19 23q0 20 11.5 36t26.5 16q17 0 17 -22zM474 801q0 -19 -10 -35.5t-26 -16.5q-19 0 -19 24q0 19 11 35t27 16q17 0 17 -23zM331 0h-272l114 535l17 115h283l-11 -31l-243 5l-61 -289l172 3l-11 -31l-166 2l-60 -283l249 5z" />
<glyph unicode="&#xcc;" horiz-adv-x="245" d="M302 748l-11 -17q-74 27 -124 84l35 25q42 -53 100 -92zM87 0h-28l114 535l17 115l37 10z" />
<glyph unicode="&#xcd;" horiz-adv-x="245" d="M313 816q-72 -57 -156 -84l-4 17q69 37 134 92zM87 0h-28l114 535l17 115l37 10z" />
<glyph unicode="&#xce;" horiz-adv-x="245" d="M129 732l-5 13q64 48 102 92l32 6q21 -50 63 -98l-11 -13q-45 29 -74 75q-51 -46 -107 -75zM87 0h-28l114 535l17 115l37 10z" />
<glyph unicode="&#xcf;" horiz-adv-x="264" d="M210 786q0 -19 -10 -35.5t-26 -16.5q-19 0 -19 24q0 19 11 35t27 16q17 0 17 -23zM300 786q0 -19 -10.5 -35.5t-26.5 -16.5q-18 0 -18 23q0 20 11 36t26 16q18 0 18 -23zM102 0h-28l114 535l17 115l37 10z" />
<glyph unicode="&#xd0;" horiz-adv-x="565" d="M173 535l17 115h96q20 0 33 -0.5t40 -5t45.5 -13t42 -25.5t38 -41.5t24.5 -63t10 -86.5q0 -75 -23 -147.5t-66 -133t-113.5 -97.5t-156.5 -37h-101l67 314h-64l4 22h65zM371 314h-217l-61 -288h77q79 0 142 34t100.5 90t56.5 121.5t19 133.5q0 62 -17.5 106.5t-39 65.5 t-56.5 32.5t-53.5 13t-46.5 1.5h-56l-61 -288h218z" />
<glyph unicode="&#xd1;" horiz-adv-x="587" d="M373 825q20 0 43 -21.5t38 -21.5q29 0 60 47l13 -5q-13 -29 -35.5 -51t-48.5 -22q-20 0 -42 21.5t-38 21.5q-29 0 -60 -47l-13 5q13 29 35.5 51t47.5 22zM173 535l17 115l45 10l173 -632h2l127 622l32 10l-140 -660h-42l-171 623h-1l-128 -623h-28z" />
<glyph unicode="&#xd2;" horiz-adv-x="584" d="M474 748l-11 -17q-74 27 -124 84l35 25q42 -53 100 -92zM543 444q0 -102 -38 -205.5t-111 -176t-160 -72.5q-77 0 -119 57.5t-42 159.5q0 101 38 204.5t111 176t160 72.5q77 0 119 -57t42 -159zM105 213q0 -93 36.5 -146t103.5 -53q59 0 110.5 40.5t84.5 103.5t52 136.5 t19 141.5q0 94 -36 147t-103 53q-77 0 -140.5 -69.5t-95 -165.5t-31.5 -188z" />
<glyph unicode="&#xd3;" horiz-adv-x="584" d="M485 816q-72 -57 -156 -84l-4 17q69 37 134 92zM543 444q0 -102 -38 -205.5t-111 -176t-160 -72.5q-77 0 -119 57.5t-42 159.5q0 101 38 204.5t111 176t160 72.5q77 0 119 -57t42 -159zM105 213q0 -93 36.5 -146t103.5 -53q59 0 110.5 40.5t84.5 103.5t52 136.5t19 141.5 q0 94 -36 147t-103 53q-77 0 -140.5 -69.5t-95 -165.5t-31.5 -188z" />
<glyph unicode="&#xd4;" horiz-adv-x="584" d="M301 732l-5 13q64 48 102 92l32 6q21 -50 63 -98l-11 -13q-45 29 -74 75q-51 -46 -107 -75zM543 444q0 -102 -38 -205.5t-111 -176t-160 -72.5q-77 0 -119 57.5t-42 159.5q0 101 38 204.5t111 176t160 72.5q77 0 119 -57t42 -159zM105 213q0 -93 36.5 -146t103.5 -53 q59 0 110.5 40.5t84.5 103.5t52 136.5t19 141.5q0 94 -36 147t-103 53q-77 0 -140.5 -69.5t-95 -165.5t-31.5 -188z" />
<glyph unicode="&#xd5;" horiz-adv-x="584" d="M371 825q20 0 43 -21.5t38 -21.5q29 0 60 47l13 -5q-13 -29 -35.5 -51t-48.5 -22q-20 0 -42 21.5t-38 21.5q-29 0 -60 -47l-13 5q13 29 35.5 51t47.5 22zM543 444q0 -102 -38 -205.5t-111 -176t-160 -72.5q-77 0 -119 57.5t-42 159.5q0 101 38 204.5t111 176t160 72.5 q77 0 119 -57t42 -159zM105 213q0 -93 36.5 -146t103.5 -53q59 0 110.5 40.5t84.5 103.5t52 136.5t19 141.5q0 94 -36 147t-103 53q-77 0 -140.5 -69.5t-95 -165.5t-31.5 -188z" />
<glyph unicode="&#xd6;" horiz-adv-x="584" d="M350 802q0 -21 -10 -37t-26 -16q-19 0 -19 23q0 20 11.5 36t26.5 16q17 0 17 -22zM518 801q0 -19 -10 -35.5t-26 -16.5q-19 0 -19 24q0 19 11 35t27 16q17 0 17 -23zM543 444q0 -102 -38 -205.5t-111 -176t-160 -72.5q-77 0 -119 57.5t-42 159.5q0 101 38 204.5t111 176 t160 72.5q77 0 119 -57t42 -159zM105 213q0 -93 36.5 -146t103.5 -53q59 0 110.5 40.5t84.5 103.5t52 136.5t19 141.5q0 94 -36 147t-103 53q-77 0 -140.5 -69.5t-95 -165.5t-31.5 -188z" />
<glyph unicode="&#xd7;" horiz-adv-x="515" d="M375 140l-105 166l-170 -158l-13 19l171 159l-106 168l18 16q42 -62 108 -166l171 159l12 -19l-171 -159q15 -24 106 -165l-3 -6z" />
<glyph unicode="&#xd8;" horiz-adv-x="584" d="M543 444q0 -102 -38 -205.5t-111 -176t-160 -72.5q-99 0 -138 92l-98 -102l-14 19l103 107q-14 45 -14 101q0 101 38 204.5t111 176t160 72.5q103 0 142 -99l97 102l15 -18l-104 -109q11 -42 11 -92zM105 213q0 -42 8 -79l385 401q-32 101 -126 101q-77 0 -140.5 -69.5 t-95 -165.5t-31.5 -188zM511 436q0 41 -7 72l-383 -400q33 -94 124 -94q59 0 110.5 40.5t84.5 103.5t52 136.5t19 141.5z" />
<glyph unicode="&#xd9;" horiz-adv-x="568" d="M469 748l-11 -17q-74 27 -124 84l35 25q42 -53 100 -92zM242 14q71 0 118.5 53.5t68.5 152.5l67 315l17 115l37 10l-92 -430q-25 -116 -83 -178t-143 -62q-67 0 -102.5 37t-35.5 103q0 32 10.5 85t67.5 320l18 115l37 10q-20 -96 -50 -234q-38 -178 -46 -220.5t-8 -68.5 q0 -58 31 -90.5t88 -32.5z" />
<glyph unicode="&#xda;" horiz-adv-x="568" d="M480 816q-72 -57 -156 -84l-4 17q69 37 134 92zM242 14q71 0 118.5 53.5t68.5 152.5l67 315l17 115l37 10l-92 -430q-25 -116 -83 -178t-143 -62q-67 0 -102.5 37t-35.5 103q0 32 10.5 85t67.5 320l18 115l37 10q-20 -96 -50 -234q-38 -178 -46 -220.5t-8 -68.5 q0 -58 31 -90.5t88 -32.5z" />
<glyph unicode="&#xdb;" horiz-adv-x="568" d="M296 732l-5 13q64 48 102 92l32 6q21 -50 63 -98l-11 -13q-45 29 -74 75q-51 -46 -107 -75zM242 14q71 0 118.5 53.5t68.5 152.5l67 315l17 115l37 10l-92 -430q-25 -116 -83 -178t-143 -62q-67 0 -102.5 37t-35.5 103q0 32 10.5 85t67.5 320l18 115l37 10 q-20 -96 -50 -234q-38 -178 -46 -220.5t-8 -68.5q0 -58 31 -90.5t88 -32.5z" />
<glyph unicode="&#xdc;" horiz-adv-x="568" d="M345 802q0 -21 -10 -37t-26 -16q-19 0 -19 23q0 20 11.5 36t26.5 16q17 0 17 -22zM513 801q0 -19 -10 -35.5t-26 -16.5q-19 0 -19 24q0 19 11 35t27 16q17 0 17 -23zM242 14q71 0 118.5 53.5t68.5 152.5l67 315l17 115l37 10l-92 -430q-25 -116 -83 -178t-143 -62 q-67 0 -102.5 37t-35.5 103q0 32 10.5 85t67.5 320l18 115l37 10q-20 -96 -50 -234q-38 -178 -46 -220.5t-8 -68.5q0 -58 31 -90.5t88 -32.5z" />
<glyph unicode="&#xdd;" horiz-adv-x="481" d="M434 816q-72 -57 -156 -84l-4 17q69 37 134 92zM200 0h-27l45 213l-93 437l27 10l88 -410h1l262 410l23 -10l-280 -438z" />
<glyph unicode="&#xde;" horiz-adv-x="463" d="M87 0h-28l114 535l17 115h35l-26 -121l1 3h65q83 0 124 -38.5t41 -110.5q0 -104 -70 -177.5t-186 -73.5h-59zM254 506h-60l-73 -348h64q101 0 158 65.5t57 153.5q0 129 -146 129z" />
<glyph unicode="&#xdf;" horiz-adv-x="465" d="M-73 -195l-8 18q53 36 78.5 72t37.5 92l99 468l-48 1l3 15l49 5l3 13q24 112 76 159t111 47q45 0 73.5 -25.5t28.5 -73.5q0 -63 -45 -117.5t-111 -74.5q51 -36 81.5 -97t30.5 -122q0 -79 -50 -137t-117 -58q-55 0 -90 30l5 24q34 -30 87 -30q56 0 94.5 50.5t38.5 119.5 q0 65 -35 124t-82 85l3 18q71 28 114.5 74t43.5 105q0 38 -21 59.5t-58 21.5q-52 0 -89.5 -43.5t-54.5 -124.5l-112 -519q-5 -26 -11 -43t-20 -43t-40.5 -49t-64.5 -44z" />
<glyph unicode="&#xe0;" horiz-adv-x="492" d="M380 587l-13 -5q-38 63 -49 149l31 2q6 -78 31 -146zM41 124q0 87 40.5 175.5t115.5 149.5t161 61q49 0 89 -20l-42 -173q-42 -173 -42 -288q0 -18 1 -29h-30v8q-1 9 -1 22q0 82 26 211q-43 -112 -106 -181.5t-124 -69.5q-41 0 -64.5 35t-23.5 99zM73 127q0 -50 16 -81.5 t45 -31.5q63 0 141 117t125 287q2 11 11 49q-35 19 -76 19q-69 0 -131 -58.5t-96.5 -141t-34.5 -159.5z" />
<glyph unicode="&#xe1;" horiz-adv-x="492" d="M412 730q-49 -86 -113 -149l-13 6q56 70 93 146zM41 124q0 87 40.5 175.5t115.5 149.5t161 61q49 0 89 -20l-42 -173q-42 -173 -42 -288q0 -18 1 -29h-30v8q-1 9 -1 22q0 82 26 211q-43 -112 -106 -181.5t-124 -69.5q-41 0 -64.5 35t-23.5 99zM73 127q0 -50 16 -81.5 t45 -31.5q63 0 141 117t125 287q2 11 11 49q-35 19 -76 19q-69 0 -131 -58.5t-96.5 -141t-34.5 -159.5z" />
<glyph unicode="&#xe2;" horiz-adv-x="492" d="M260 582l-6 9q57 69 95 140l29 6q8 -67 35 -146l-9 -9q-29 45 -46 121q-51 -78 -98 -121zM41 124q0 87 40.5 175.5t115.5 149.5t161 61q49 0 89 -20l-42 -173q-42 -173 -42 -288q0 -18 1 -29h-30v8q-1 9 -1 22q0 82 26 211q-43 -112 -106 -181.5t-124 -69.5 q-41 0 -64.5 35t-23.5 99zM73 127q0 -50 16 -81.5t45 -31.5q63 0 141 117t125 287q2 11 11 49q-35 19 -76 19q-69 0 -131 -58.5t-96.5 -141t-34.5 -159.5z" />
<glyph unicode="&#xe3;" horiz-adv-x="492" d="M314 703q23 0 49.5 -24t42.5 -24q29 0 60 51l12 -4q-8 -29 -31.5 -53t-50.5 -24q-22 0 -48 24t-43 24q-31 0 -60 -51l-11 4q10 29 32 53t48 24zM41 124q0 87 40.5 175.5t115.5 149.5t161 61q49 0 89 -20l-42 -173q-42 -173 -42 -288q0 -18 1 -29h-30v8q-1 9 -1 22 q0 82 26 211q-43 -112 -106 -181.5t-124 -69.5q-41 0 -64.5 35t-23.5 99zM73 127q0 -50 16 -81.5t45 -31.5q63 0 141 117t125 287q2 11 11 49q-35 19 -76 19q-69 0 -131 -58.5t-96.5 -141t-34.5 -159.5z" />
<glyph unicode="&#xe4;" horiz-adv-x="492" d="M305 659q-9 -41 -36 -41q-25 0 -18 34q4 17 14.5 29t22.5 12q24 0 17 -34zM446 659q-7 -41 -35 -41q-25 0 -18 34q4 17 14 29t23 12q11 0 15.5 -9.5t0.5 -24.5zM41 124q0 87 40.5 175.5t115.5 149.5t161 61q49 0 89 -20l-42 -173q-42 -173 -42 -288q0 -18 1 -29h-30v8 q-1 9 -1 22q0 82 26 211q-43 -112 -106 -181.5t-124 -69.5q-41 0 -64.5 35t-23.5 99zM73 127q0 -50 16 -81.5t45 -31.5q63 0 141 117t125 287q2 11 11 49q-35 19 -76 19q-69 0 -131 -58.5t-96.5 -141t-34.5 -159.5z" />
<glyph unicode="&#xe5;" horiz-adv-x="492" d="M417 682q0 -39 -26 -69.5t-58 -30.5q-22 0 -36.5 16t-14.5 41q0 40 27 69.5t59 29.5q22 0 35.5 -15.5t13.5 -40.5zM309 645q0 -17 8 -27.5t21 -10.5q19 0 36 20.5t17 48.5q0 17 -8.5 27t-21.5 10q-20 0 -36 -20t-16 -48zM41 124q0 87 40.5 175.5t115.5 149.5t161 61 q49 0 89 -20l-42 -173q-42 -173 -42 -288q0 -18 1 -29h-30v8q-1 9 -1 22q0 82 26 211q-43 -112 -106 -181.5t-124 -69.5q-41 0 -64.5 35t-23.5 99zM73 127q0 -50 16 -81.5t45 -31.5q63 0 141 117t125 287q2 11 11 49q-35 19 -76 19q-69 0 -131 -58.5t-96.5 -141 t-34.5 -159.5z" />
<glyph unicode="&#xe6;" horiz-adv-x="710" d="M41 124q0 87 40.5 175.5t116 149.5t163.5 61q63 0 124 -33q47 33 97 33q42 0 68 -22.5t26 -64.5q0 -69 -69.5 -125.5t-184.5 -68.5q-26 -4 -49 -2q-7 -32 -7 -68q0 -66 25.5 -105.5t73.5 -39.5q77 0 155 100l14 -8q-33 -52 -82.5 -84t-97.5 -32q-55 0 -87.5 44t-32.5 123 q0 19 1 28q-44 -89 -98.5 -142t-107.5 -53q-41 0 -64.5 35t-23.5 99zM73 127q0 -50 16 -81.5t47 -31.5q50 0 112.5 80.5t111.5 206.5q35 94 94 150q-59 35 -116 35q-70 0 -133 -58.5t-97.5 -141t-34.5 -159.5zM570 486q-62 0 -117 -72.5t-77 -168.5q136 8 202 60t66 110 q0 31 -20 51t-54 20z" />
<glyph unicode="&#xe7;" horiz-adv-x="420" d="M206 -110q3 15 -11 25t-48 14l35 62q-5 -1 -13 -1q-58 0 -89.5 41t-31.5 120q0 86 33.5 169t92.5 136.5t125 53.5q53 0 94 -39l-14 -32q-37 47 -86 47q-53 0 -103 -50t-80 -127.5t-30 -155.5q0 -139 97 -139q80 0 158 100l14 -8q-26 -41 -63.5 -70.5t-76.5 -39.5l-28 -50 q33 -7 47.5 -20.5t10.5 -32.5q-6 -30 -44.5 -47.5t-83.5 -19.5l2 18q85 11 93 46z" />
<glyph unicode="&#xe8;" horiz-adv-x="425" d="M330 587l-13 -5q-38 63 -49 149l31 2q6 -78 31 -146zM335 114l14 -8q-33 -52 -82.5 -84t-97.5 -32q-55 0 -87.5 44t-32.5 123q0 82 33.5 163.5t91.5 135.5t123 54q42 0 68 -22.5t26 -64.5q0 -70 -70 -126t-184 -68q-26 -4 -49 -2q-7 -32 -7 -68q0 -66 25.5 -105.5 t73.5 -39.5q77 0 155 100zM285 486q-62 0 -117 -72.5t-77 -168.5q136 8 202 60t66 110q0 31 -20 51t-54 20z" />
<glyph unicode="&#xe9;" horiz-adv-x="425" d="M362 730q-49 -86 -113 -149l-13 6q56 70 93 146zM335 114l14 -8q-33 -52 -82.5 -84t-97.5 -32q-55 0 -87.5 44t-32.5 123q0 82 33.5 163.5t91.5 135.5t123 54q42 0 68 -22.5t26 -64.5q0 -70 -70 -126t-184 -68q-26 -4 -49 -2q-7 -32 -7 -68q0 -66 25.5 -105.5t73.5 -39.5 q77 0 155 100zM285 486q-62 0 -117 -72.5t-77 -168.5q136 8 202 60t66 110q0 31 -20 51t-54 20z" />
<glyph unicode="&#xea;" horiz-adv-x="425" d="M210 582l-6 9q57 69 95 140l29 6q8 -67 35 -146l-9 -9q-29 45 -46 121q-51 -78 -98 -121zM335 114l14 -8q-33 -52 -82.5 -84t-97.5 -32q-55 0 -87.5 44t-32.5 123q0 82 33.5 163.5t91.5 135.5t123 54q42 0 68 -22.5t26 -64.5q0 -70 -70 -126t-184 -68q-26 -4 -49 -2 q-7 -32 -7 -68q0 -66 25.5 -105.5t73.5 -39.5q77 0 155 100zM285 486q-62 0 -117 -72.5t-77 -168.5q136 8 202 60t66 110q0 31 -20 51t-54 20z" />
<glyph unicode="&#xeb;" horiz-adv-x="425" d="M255 659q-9 -41 -36 -41q-25 0 -18 34q4 17 14.5 29t22.5 12q24 0 17 -34zM396 659q-7 -41 -35 -41q-25 0 -18 34q4 17 14 29t23 12q11 0 15.5 -9.5t0.5 -24.5zM335 114l14 -8q-33 -52 -82.5 -84t-97.5 -32q-55 0 -87.5 44t-32.5 123q0 82 33.5 163.5t91.5 135.5t123 54 q42 0 68 -22.5t26 -64.5q0 -70 -70 -126t-184 -68q-26 -4 -49 -2q-7 -32 -7 -68q0 -66 25.5 -105.5t73.5 -39.5q77 0 155 100zM285 486q-62 0 -117 -72.5t-77 -168.5q136 8 202 60t66 110q0 31 -20 51t-54 20z" />
<glyph unicode="&#xec;" horiz-adv-x="220" d="M208 587l-13 -5q-38 63 -49 149l31 2q6 -78 31 -146zM173 510q-56 -265 -69 -339t-13 -142q0 -18 1 -29h-30v10q-1 9 -1 13q0 104 39 285l16 74l17 118z" />
<glyph unicode="&#xed;" horiz-adv-x="220" d="M240 730q-49 -86 -113 -149l-13 6q56 70 93 146zM173 510q-56 -265 -69 -339t-13 -142q0 -18 1 -29h-30v10q-1 9 -1 13q0 104 39 285l16 74l17 118z" />
<glyph unicode="&#xee;" horiz-adv-x="220" d="M116 582l-10 7q45 66 85 142l33 6q9 -79 25 -148l-12 -7q-20 50 -35 120q-51 -75 -86 -120zM173 510q-56 -265 -69 -339t-13 -142q0 -18 1 -29h-30v10q-1 9 -1 13q0 104 39 285l16 74l17 118z" />
<glyph unicode="&#xef;" horiz-adv-x="220" d="M159 662q-7 -41 -35 -41q-25 0 -18 34q4 17 14 29t22 12q24 0 17 -34zM250 662q-9 -41 -36 -41q-12 0 -16.5 9.5t-0.5 24.5q3 17 13.5 29t22.5 12q24 0 17 -34zM173 510q-56 -265 -69 -339t-13 -142q0 -18 1 -29h-30v10q-1 9 -1 13q0 104 39 285l16 74l17 118z" />
<glyph unicode="&#xf0;" horiz-adv-x="465" d="M405 354q0 -90 -26.5 -171.5t-81.5 -137t-127 -55.5q-61 0 -92.5 40t-31.5 115q0 76 29 150.5t83.5 124.5t118.5 50q70 0 98 -58q-17 104 -69 175l-124 -63l-5 21l116 59q-41 49 -95 73l14 18q62 -24 107 -77l129 66l8 -21l-124 -63q73 -98 73 -246zM75 153 q0 -68 27 -103.5t77 -35.5q85 0 138.5 90t53.5 199q0 69 -26 106t-76 37q-84 0 -139 -93.5t-55 -199.5z" />
<glyph unicode="&#xf1;" horiz-adv-x="483" d="M278 703q23 0 49.5 -24t42.5 -24q29 0 60 51l12 -4q-8 -29 -31.5 -53t-50.5 -24q-22 0 -48 24t-43 24q-31 0 -60 -51l-11 4q10 29 32 53t48 24zM92 0h-30v10q-1 9 -1 13q0 68 9.5 128.5t45.5 232.5l17 116l40 10q-46 -221 -47 -226q42 102 100.5 164t118.5 62 q77 0 77 -93q0 -35 -29 -168t-29 -228q0 -4 0.5 -12t0.5 -9h-30q0 1 -0.5 9.5t-0.5 19.5q0 81 29 224t29 165q0 32 -17 50t-40 18q-46 0 -103.5 -67t-99 -176.5t-41.5 -214.5q0 -18 1 -28z" />
<glyph unicode="&#xf2;" horiz-adv-x="471" d="M370 587l-13 -5q-38 63 -49 149l31 2q6 -78 31 -146zM425 356q0 -80 -33.5 -163t-95 -141t-131.5 -58q-57 0 -88.5 37t-31.5 108q0 82 34.5 166.5t96 142.5t130.5 58q59 0 89 -40t30 -110zM79 148q0 -66 27 -99t71 -33q56 0 107 53t79.5 130.5t28.5 150.5q0 62 -24.5 98 t-70.5 36q-55 0 -107 -53.5t-81.5 -131t-29.5 -151.5z" />
<glyph unicode="&#xf3;" horiz-adv-x="471" d="M402 730q-49 -86 -113 -149l-13 6q56 70 93 146zM425 356q0 -80 -33.5 -163t-95 -141t-131.5 -58q-57 0 -88.5 37t-31.5 108q0 82 34.5 166.5t96 142.5t130.5 58q59 0 89 -40t30 -110zM79 148q0 -66 27 -99t71 -33q56 0 107 53t79.5 130.5t28.5 150.5q0 62 -24.5 98 t-70.5 36q-55 0 -107 -53.5t-81.5 -131t-29.5 -151.5z" />
<glyph unicode="&#xf4;" horiz-adv-x="471" d="M250 582l-6 9q57 69 95 140l29 6q8 -67 35 -146l-9 -9q-29 45 -46 121q-51 -78 -98 -121zM425 356q0 -80 -33.5 -163t-95 -141t-131.5 -58q-57 0 -88.5 37t-31.5 108q0 82 34.5 166.5t96 142.5t130.5 58q59 0 89 -40t30 -110zM79 148q0 -66 27 -99t71 -33q56 0 107 53 t79.5 130.5t28.5 150.5q0 62 -24.5 98t-70.5 36q-55 0 -107 -53.5t-81.5 -131t-29.5 -151.5z" />
<glyph unicode="&#xf5;" horiz-adv-x="471" d="M304 703q23 0 49.5 -24t42.5 -24q29 0 60 51l12 -4q-8 -29 -31.5 -53t-50.5 -24q-22 0 -48 24t-43 24q-31 0 -60 -51l-11 4q10 29 32 53t48 24zM425 356q0 -80 -33.5 -163t-95 -141t-131.5 -58q-57 0 -88.5 37t-31.5 108q0 82 34.5 166.5t96 142.5t130.5 58q59 0 89 -40 t30 -110zM79 148q0 -66 27 -99t71 -33q56 0 107 53t79.5 130.5t28.5 150.5q0 62 -24.5 98t-70.5 36q-55 0 -107 -53.5t-81.5 -131t-29.5 -151.5z" />
<glyph unicode="&#xf6;" horiz-adv-x="471" d="M295 659q-9 -41 -36 -41q-25 0 -18 34q4 17 14.5 29t22.5 12q24 0 17 -34zM436 659q-7 -41 -35 -41q-25 0 -18 34q4 17 14 29t23 12q11 0 15.5 -9.5t0.5 -24.5zM425 356q0 -80 -33.5 -163t-95 -141t-131.5 -58q-57 0 -88.5 37t-31.5 108q0 82 34.5 166.5t96 142.5 t130.5 58q59 0 89 -40t30 -110zM79 148q0 -66 27 -99t71 -33q56 0 107 53t79.5 130.5t28.5 150.5q0 62 -24.5 98t-70.5 36q-55 0 -107 -53.5t-81.5 -131t-29.5 -151.5z" />
<glyph unicode="&#xf7;" horiz-adv-x="531" d="M345 505q0 -20 -11 -38.5t-29 -18.5q-21 0 -21 26q0 20 12.5 38t28.5 18q20 0 20 -25zM443 312h-330l5 23q114 3 332 3zM276 177q0 -19 -11.5 -37.5t-28.5 -18.5q-22 0 -22 27q0 20 12.5 37.5t29.5 17.5q20 0 20 -26z" />
<glyph unicode="&#xf8;" horiz-adv-x="471" d="M425 356q0 -80 -33.5 -163t-95 -141t-131.5 -58q-78 0 -106 67l-55 -54l-12 16l60 59q-7 24 -7 57q0 82 34.5 166.5t96 142.5t130.5 58q77 0 106 -70l57 57l13 -16l-64 -62q7 -25 7 -59zM79 148q0 -20 3 -37l303 299q-21 74 -88 74q-55 0 -107 -53.5t-81.5 -131 t-29.5 -151.5zM392 350q0 14 -2 36l-303 -298q21 -72 90 -72q56 0 107 53t79.5 130.5t28.5 150.5z" />
<glyph unicode="&#xf9;" d="M351 587l-13 -5q-38 63 -49 149l31 2q6 -78 31 -146zM358 0h-30q0 1 -0.5 9.5t-0.5 20.5q0 37 26 188q-40 -102 -98 -165t-120 -63q-35 0 -57 21.5t-22 69.5q0 6 0.5 11.5t1.5 13.5t2 15.5t4 22.5t6 27.5t8 37t10 46t13 59t15 71.5l17 115l40 10q-13 -60 -29.5 -134 t-24.5 -112.5t-16.5 -79.5t-12 -63.5t-3.5 -36.5q0 -32 16 -51t43 -19q68 0 140.5 119t95.5 249q10 60 11 64l3 26q3 26 3 28l40 10q-56 -265 -69 -339t-13 -142q0 -18 1 -29z" />
<glyph unicode="&#xfa;" d="M383 730q-49 -86 -113 -149l-13 6q56 70 93 146zM358 0h-30q0 1 -0.5 9.5t-0.5 20.5q0 37 26 188q-40 -102 -98 -165t-120 -63q-35 0 -57 21.5t-22 69.5q0 6 0.5 11.5t1.5 13.5t2 15.5t4 22.5t6 27.5t8 37t10 46t13 59t15 71.5l17 115l40 10q-13 -60 -29.5 -134 t-24.5 -112.5t-16.5 -79.5t-12 -63.5t-3.5 -36.5q0 -32 16 -51t43 -19q68 0 140.5 119t95.5 249q10 60 11 64l3 26q3 26 3 28l40 10q-56 -265 -69 -339t-13 -142q0 -18 1 -29z" />
<glyph unicode="&#xfb;" d="M231 582l-6 9q57 69 95 140l29 6q8 -67 35 -146l-9 -9q-29 45 -46 121q-51 -78 -98 -121zM358 0h-30q0 1 -0.5 9.5t-0.5 20.5q0 37 26 188q-40 -102 -98 -165t-120 -63q-35 0 -57 21.5t-22 69.5q0 6 0.5 11.5t1.5 13.5t2 15.5t4 22.5t6 27.5t8 37t10 46t13 59t15 71.5 l17 115l40 10q-13 -60 -29.5 -134t-24.5 -112.5t-16.5 -79.5t-12 -63.5t-3.5 -36.5q0 -32 16 -51t43 -19q68 0 140.5 119t95.5 249q10 60 11 64l3 26q3 26 3 28l40 10q-56 -265 -69 -339t-13 -142q0 -18 1 -29z" />
<glyph unicode="&#xfc;" d="M276 659q-9 -41 -36 -41q-25 0 -18 34q4 17 14.5 29t22.5 12q24 0 17 -34zM417 659q-7 -41 -35 -41q-25 0 -18 34q4 17 14 29t23 12q11 0 15.5 -9.5t0.5 -24.5zM358 0h-30q0 1 -0.5 9.5t-0.5 20.5q0 37 26 188q-40 -102 -98 -165t-120 -63q-35 0 -57 21.5t-22 69.5 q0 6 0.5 11.5t1.5 13.5t2 15.5t4 22.5t6 27.5t8 37t10 46t13 59t15 71.5l17 115l40 10q-13 -60 -29.5 -134t-24.5 -112.5t-16.5 -79.5t-12 -63.5t-3.5 -36.5q0 -32 16 -51t43 -19q68 0 140.5 119t95.5 249q10 60 11 64l3 26q3 26 3 28l40 10q-56 -265 -69 -339t-13 -142 q0 -18 1 -29z" />
<glyph unicode="&#xfd;" horiz-adv-x="395" d="M315 730q-49 -86 -113 -149l-13 6q56 70 93 146zM148 -10q-60 -78 -129 -131.5t-120 -53.5q-38 0 -38 23q0 11 8 19q16 -6 34 -6q43 0 110 48.5t116 113.5l-12 1q0 103 -9 260q-7 127 -28 236l29 10q18 -101 28 -241q9 -126 9 -244h1q84 128 139 257t55 220q9 8 19 8 q14 0 14 -18q0 -66 -65.5 -222.5t-160.5 -279.5z" />
<glyph unicode="&#xfe;" horiz-adv-x="485" d="M173 510q-1 -5 -3 -13t-3 -13q-28 -133 -54 -259q43 125 110 205t133 80q41 0 64.5 -35t23.5 -99q0 -87 -40.5 -175.5t-115.5 -149.5t-161 -61q-33 0 -60 9q-15 -87 -15 -155q0 -18 1 -29h-30l-1 9v14q0 69 7 119t32 166l94 444l17 118l40 10q-27 -124 -39 -185zM351 486 q-68 0 -151.5 -133.5t-126.5 -319.5q36 -19 77 -19q69 0 131 58.5t96.5 141t34.5 159.5q0 50 -16 81.5t-45 31.5z" />
<glyph unicode="&#xff;" horiz-adv-x="395" d="M208 659q-9 -41 -36 -41q-25 0 -18 34q4 17 14.5 29t22.5 12q24 0 17 -34zM349 659q-7 -41 -35 -41q-25 0 -18 34q4 17 14 29t23 12q11 0 15.5 -9.5t0.5 -24.5zM148 -10q-60 -78 -129 -131.5t-120 -53.5q-38 0 -38 23q0 11 8 19q16 -6 34 -6q43 0 110 48.5t116 113.5 l-12 1q0 103 -9 260q-7 127 -28 236l29 10q18 -101 28 -241q9 -126 9 -244h1q84 128 139 257t55 220q9 8 19 8q14 0 14 -18q0 -66 -65.5 -222.5t-160.5 -279.5z" />
<glyph unicode="&#x100;" horiz-adv-x="501" d="M267 770l7 33h190l-7 -33h-190zM15 0h-28l267 532l59 118l46 10l49 -660h-28l-14 182h-259zM331 628l-209 -416h242l-32 416h-1z" />
<glyph unicode="&#x101;" horiz-adv-x="492" d="M247 646l6 26h200l-6 -26h-200zM41 124q0 87 40.5 175.5t115.5 149.5t161 61q49 0 89 -20l-42 -173q-42 -173 -42 -288q0 -18 1 -29h-30v8q-1 9 -1 22q0 82 26 211q-43 -112 -106 -181.5t-124 -69.5q-41 0 -64.5 35t-23.5 99zM73 127q0 -50 16 -81.5t45 -31.5 q63 0 141 117t125 287q2 11 11 49q-35 19 -76 19q-69 0 -131 -58.5t-96.5 -141t-34.5 -159.5z" />
<glyph unicode="&#x102;" horiz-adv-x="501" d="M345 737q-35 0 -55.5 30t-15.5 68l14 4q11 -68 64 -68q48 0 92 70l15 4q-14 -45 -47 -76.5t-67 -31.5zM15 0h-28l267 532l59 118l46 10l49 -660h-28l-14 182h-259zM331 628l-209 -416h242l-32 416h-1z" />
<glyph unicode="&#x103;" horiz-adv-x="492" d="M317 588q-34 0 -50.5 35.5t-4.5 99.5l17 4q-10 -111 48 -111q56 0 96 113l15 4q-16 -67 -49 -106t-72 -39zM41 124q0 87 40.5 175.5t115.5 149.5t161 61q49 0 89 -20l-42 -173q-42 -173 -42 -288q0 -18 1 -29h-30v8q-1 9 -1 22q0 82 26 211q-43 -112 -106 -181.5 t-124 -69.5q-41 0 -64.5 35t-23.5 99zM73 127q0 -50 16 -81.5t45 -31.5q63 0 141 117t125 287q2 11 11 49q-35 19 -76 19q-69 0 -131 -58.5t-96.5 -141t-34.5 -159.5z" />
<glyph unicode="&#x104;" horiz-adv-x="501" d="M15 0h-28l267 532l59 118l46 10l49 -660q-54 -19 -92.5 -54t-38.5 -68q0 -31 40 -31q24 0 54 15l4 -16q-31 -22 -74 -22q-27 0 -43 11.5t-16 32.5q0 38 42 77.5t96 60.5l-14 176h-259zM331 628l-209 -416h242l-32 416h-1z" />
<glyph unicode="&#x105;" horiz-adv-x="492" d="M41 124q0 87 40.5 175.5t115.5 149.5t161 61q49 0 89 -20l-42 -173q-42 -173 -42 -288q0 -18 1 -29q-54 -19 -92.5 -54t-38.5 -68q0 -31 40 -31q24 0 54 15l4 -16q-31 -22 -74 -22q-27 0 -43 11.5t-16 32.5q0 38 41.5 77t94.5 61q-1 4 -1 24q0 82 26 211 q-43 -112 -106 -181.5t-124 -69.5q-41 0 -64.5 35t-23.5 99zM73 127q0 -50 16 -81.5t45 -31.5q63 0 141 117t125 287q2 11 11 49q-35 19 -76 19q-69 0 -131 -58.5t-96.5 -141t-34.5 -159.5z" />
<glyph unicode="&#x106;" horiz-adv-x="468" d="M481 816q-72 -57 -156 -84l-4 17q69 37 134 92zM381 53v-24q-53 -39 -132 -39q-86 0 -131 57t-45 162q0 103 39 205.5t115 174t169 71.5q65 0 114 -26l-17 -34q-44 36 -110 36q-81 0 -146.5 -67.5t-98 -162.5t-32.5 -189q0 -97 38.5 -149.5t112.5 -52.5q66 0 124 38z" />
<glyph unicode="&#x107;" horiz-adv-x="420" d="M358 730q-49 -86 -113 -149l-13 6q56 70 93 146zM335 114l14 -8q-33 -52 -82.5 -84t-97.5 -32q-58 0 -89.5 41t-31.5 120q0 86 33.5 169t92.5 136.5t125 53.5q53 0 94 -39l-14 -32q-37 47 -86 47q-53 0 -103 -50t-80 -127.5t-30 -155.5q0 -139 97 -139q80 0 158 100z" />
<glyph unicode="&#x108;" horiz-adv-x="468" d="M297 732l-5 13q64 48 102 92l32 6q21 -50 63 -98l-11 -13q-45 29 -74 75q-51 -46 -107 -75zM381 53v-24q-53 -39 -132 -39q-86 0 -131 57t-45 162q0 103 39 205.5t115 174t169 71.5q65 0 114 -26l-17 -34q-44 36 -110 36q-81 0 -146.5 -67.5t-98 -162.5t-32.5 -189 q0 -97 38.5 -149.5t112.5 -52.5q66 0 124 38z" />
<glyph unicode="&#x109;" horiz-adv-x="420" d="M206 582l-6 9q57 69 95 140l29 6q8 -67 35 -146l-9 -9q-29 45 -46 121q-51 -78 -98 -121zM335 114l14 -8q-33 -52 -82.5 -84t-97.5 -32q-58 0 -89.5 41t-31.5 120q0 86 33.5 169t92.5 136.5t125 53.5q53 0 94 -39l-14 -32q-37 47 -86 47q-53 0 -103 -50t-80 -127.5 t-30 -155.5q0 -139 97 -139q80 0 158 100z" />
<glyph unicode="&#x10a;" horiz-adv-x="468" d="M431 803q0 -19 -11 -37t-27 -18q-20 0 -20 25q0 20 12 37.5t27 17.5q19 0 19 -25zM381 53v-24q-53 -39 -132 -39q-86 0 -131 57t-45 162q0 103 39 205.5t115 174t169 71.5q65 0 114 -26l-17 -34q-44 36 -110 36q-81 0 -146.5 -67.5t-98 -162.5t-32.5 -189 q0 -97 38.5 -149.5t112.5 -52.5q66 0 124 38z" />
<glyph unicode="&#x10b;" horiz-adv-x="420" d="M324 670q0 -19 -11 -37t-27 -18q-20 0 -20 25q0 20 12 37.5t27 17.5q19 0 19 -25zM335 114l14 -8q-33 -52 -82.5 -84t-97.5 -32q-58 0 -89.5 41t-31.5 120q0 86 33.5 169t92.5 136.5t125 53.5q53 0 94 -39l-14 -32q-37 47 -86 47q-53 0 -103 -50t-80 -127.5t-30 -155.5 q0 -139 97 -139q80 0 158 100z" />
<glyph unicode="&#x10c;" horiz-adv-x="468" d="M496 842l5 -13q-64 -48 -102 -92l-32 -6q-21 50 -63 98l11 13q45 -29 74 -75q51 46 107 75zM381 53v-24q-53 -39 -132 -39q-86 0 -131 57t-45 162q0 103 39 205.5t115 174t169 71.5q65 0 114 -26l-17 -34q-44 36 -110 36q-81 0 -146.5 -67.5t-98 -162.5t-32.5 -189 q0 -97 38.5 -149.5t112.5 -52.5q66 0 124 38z" />
<glyph unicode="&#x10d;" horiz-adv-x="420" d="M372 749l6 -9q-57 -69 -95 -140l-29 -6q-8 67 -35 146l9 9q29 -45 46 -121q51 78 98 121zM335 114l14 -8q-33 -52 -82.5 -84t-97.5 -32q-58 0 -89.5 41t-31.5 120q0 86 33.5 169t92.5 136.5t125 53.5q53 0 94 -39l-14 -32q-37 47 -86 47q-53 0 -103 -50t-80 -127.5 t-30 -155.5q0 -139 97 -139q80 0 158 100z" />
<glyph unicode="&#x10e;" horiz-adv-x="565" d="M475 842l5 -13q-64 -48 -102 -92l-32 -6q-21 50 -63 98l11 13q45 -29 74 -75q51 46 107 75zM173 535l17 115h96q20 0 33 -0.5t40 -5t45.5 -13t42 -25.5t38 -41.5t24.5 -63t10 -86.5q0 -75 -23 -147.5t-66 -133t-113.5 -97.5t-156.5 -37h-101zM275 624h-56l-126 -598h77 q79 0 142 34t100.5 90t56.5 121.5t19 133.5q0 62 -17.5 106.5t-39 65.5t-56.5 32.5t-53.5 13t-46.5 1.5z" />
<glyph unicode="&#x10f;" horiz-adv-x="493" d="M640 699q-32 -86 -92 -172l-14 8q41 82 70 166zM41 124q0 87 40.5 175.5t115.5 149.5t161 61q34 0 61 -9q7 33 15 69l17 115l40 10q-16 -78 -36.5 -173.5t-30 -139.5t-21.5 -102t-16.5 -84.5t-9.5 -61t-6.5 -57t-1.5 -48.5q0 -18 1 -29h-30v10q-1 9 -1 13q0 60 5.5 105 t25.5 141q-44 -123 -109.5 -201t-131.5 -78q-41 0 -64.5 35t-23.5 99zM73 127q0 -50 16 -81.5t45 -31.5q68 0 151.5 133.5t126.5 319.5q-36 19 -77 19q-69 0 -131 -58.5t-96.5 -141t-34.5 -159.5z" />
<glyph unicode="&#x110;" horiz-adv-x="565" d="M173 535l17 115h96q20 0 33 -0.5t40 -5t45.5 -13t42 -25.5t38 -41.5t24.5 -63t10 -86.5q0 -75 -23 -147.5t-66 -133t-113.5 -97.5t-156.5 -37h-101l67 314h-64l4 22h65zM371 314h-217l-61 -288h77q79 0 142 34t100.5 90t56.5 121.5t19 133.5q0 62 -17.5 106.5t-39 65.5 t-56.5 32.5t-53.5 13t-46.5 1.5h-56l-61 -288h218z" />
<glyph unicode="&#x111;" horiz-adv-x="493" d="M41 124q0 87 40.5 175.5t115.5 149.5t161 61q34 0 61 -9q7 33 15 69v1h-203l4 22h202l14 92l40 10q-4 -20 -11.5 -54.5t-10.5 -47.5h76l-5 -22h-75q-80 -369 -89 -440q-7 -52 -7 -102q0 -18 1 -29h-30v10q-1 9 -1 13q0 60 5.5 105t25.5 141q-44 -123 -109.5 -201 t-131.5 -78q-41 0 -64.5 35t-23.5 99zM73 127q0 -50 16 -81.5t45 -31.5q68 0 151.5 133.5t126.5 319.5q-36 19 -77 19q-69 0 -131 -58.5t-96.5 -141t-34.5 -159.5z" />
<glyph unicode="&#x112;" horiz-adv-x="439" d="M264 770l7 33h190l-7 -33h-190zM331 0h-272l114 535l17 115h283l-11 -31l-243 5l-61 -289l172 3l-11 -31l-166 2l-60 -283l249 5z" />
<glyph unicode="&#x113;" horiz-adv-x="425" d="M197 646l6 26h200l-6 -26h-200zM335 114l14 -8q-33 -52 -82.5 -84t-97.5 -32q-55 0 -87.5 44t-32.5 123q0 82 33.5 163.5t91.5 135.5t123 54q42 0 68 -22.5t26 -64.5q0 -70 -70 -126t-184 -68q-26 -4 -49 -2q-7 -32 -7 -68q0 -66 25.5 -105.5t73.5 -39.5q77 0 155 100z M285 486q-62 0 -117 -72.5t-77 -168.5q136 8 202 60t66 110q0 31 -20 51t-54 20z" />
<glyph unicode="&#x114;" horiz-adv-x="439" d="M342 737q-35 0 -55.5 30t-15.5 68l14 4q11 -68 64 -68q48 0 92 70l15 4q-14 -45 -47 -76.5t-67 -31.5zM331 0h-272l114 535l17 115h283l-11 -31l-243 5l-61 -289l172 3l-11 -31l-166 2l-60 -283l249 5z" />
<glyph unicode="&#x115;" horiz-adv-x="425" d="M267 588q-34 0 -50.5 35.5t-4.5 99.5l17 4q-10 -111 48 -111q56 0 96 113l15 4q-16 -67 -49 -106t-72 -39zM335 114l14 -8q-33 -52 -82.5 -84t-97.5 -32q-55 0 -87.5 44t-32.5 123q0 82 33.5 163.5t91.5 135.5t123 54q42 0 68 -22.5t26 -64.5q0 -70 -70 -126t-184 -68 q-26 -4 -49 -2q-7 -32 -7 -68q0 -66 25.5 -105.5t73.5 -39.5q77 0 155 100zM285 486q-62 0 -117 -72.5t-77 -168.5q136 8 202 60t66 110q0 31 -20 51t-54 20z" />
<glyph unicode="&#x116;" horiz-adv-x="439" d="M391 803q0 -19 -11 -37t-27 -18q-20 0 -20 25q0 20 12 37.5t27 17.5q19 0 19 -25zM331 0h-272l114 535l17 115h283l-11 -31l-243 5l-61 -289l172 3l-11 -31l-166 2l-60 -283l249 5z" />
<glyph unicode="&#x117;" horiz-adv-x="425" d="M328 670q0 -19 -11 -37t-27 -18q-20 0 -20 25q0 20 12 37.5t27 17.5q19 0 19 -25zM335 114l14 -8q-33 -52 -82.5 -84t-97.5 -32q-55 0 -87.5 44t-32.5 123q0 82 33.5 163.5t91.5 135.5t123 54q42 0 68 -22.5t26 -64.5q0 -70 -70 -126t-184 -68q-26 -4 -49 -2 q-7 -32 -7 -68q0 -66 25.5 -105.5t73.5 -39.5q77 0 155 100zM285 486q-62 0 -117 -72.5t-77 -168.5q136 8 202 60t66 110q0 31 -20 51t-54 20z" />
<glyph unicode="&#x118;" horiz-adv-x="439" d="M331 0q-54 -19 -92.5 -54t-38.5 -68q0 -31 40 -31q24 0 54 15l4 -16q-31 -22 -74 -22q-27 0 -43 11.5t-16 32.5q0 35 36.5 71.5t86.5 60.5h-229l114 535l17 115h283l-11 -31l-243 5l-61 -289l172 3l-11 -31l-166 2l-60 -283l249 5z" />
<glyph unicode="&#x119;" horiz-adv-x="449" d="M350 114l14 -8q-23 -35 -53 -62q-61 -57 -90.5 -94.5t-29.5 -64.5q0 -18 11 -28t29 -10q24 0 54 15l4 -16q-31 -22 -74 -22q-27 0 -43 13.5t-16 37.5q0 46 81 125q-26 -10 -53 -10q-55 0 -87.5 44t-32.5 123q0 82 33.5 163.5t91.5 135.5t123 54q42 0 68 -22.5t26 -64.5 q0 -70 -70 -126t-184 -68q-26 -4 -49 -2q-7 -32 -7 -68q0 -66 25.5 -105.5t73.5 -39.5q77 0 155 100zM300 486q-62 0 -117 -72.5t-77 -168.5q136 8 202 60t66 110q0 31 -20 51t-54 20z" />
<glyph unicode="&#x11a;" horiz-adv-x="439" d="M456 842l5 -13q-64 -48 -102 -92l-32 -6q-21 50 -63 98l11 13q45 -29 74 -75q51 46 107 75zM331 0h-272l114 535l17 115h283l-11 -31l-243 5l-61 -289l172 3l-11 -31l-166 2l-60 -283l249 5z" />
<glyph unicode="&#x11b;" horiz-adv-x="425" d="M376 749l6 -9q-57 -69 -95 -140l-29 -6q-8 67 -35 146l9 9q29 -45 46 -121q51 78 98 121zM335 114l14 -8q-33 -52 -82.5 -84t-97.5 -32q-55 0 -87.5 44t-32.5 123q0 82 33.5 163.5t91.5 135.5t123 54q42 0 68 -22.5t26 -64.5q0 -70 -70 -126t-184 -68q-26 -4 -49 -2 q-7 -32 -7 -68q0 -66 25.5 -105.5t73.5 -39.5q77 0 155 100zM285 486q-62 0 -117 -72.5t-77 -168.5q136 8 202 60t66 110q0 31 -20 51t-54 20z" />
<glyph unicode="&#x11c;" horiz-adv-x="517" d="M317 732l-5 13q64 48 102 92l32 6q21 -50 63 -98l-11 -13q-45 29 -74 75q-51 -46 -107 -75zM400 29q-64 -39 -144 -39q-89 0 -136 58.5t-47 165.5q0 78 25 157t68.5 143.5t108.5 105t139 40.5q60 0 109 -27l-17 -34q-42 37 -106 37q-65 0 -122 -38.5t-94 -99.5t-58 -133 t-21 -142q0 -99 41.5 -153.5t120.5 -54.5q57 0 109 26l21 102l18 115l36 10z" />
<glyph unicode="&#x11d;" horiz-adv-x="429" d="M176 582l-6 9q57 69 95 140l29 6q8 -67 35 -146l-9 -9q-29 45 -46 121q-51 -78 -98 -121zM331 -55q0 -58 -69 -99t-161 -41q-69 0 -106 26t-37 71q0 39 24.5 70t51.5 45l7 -11q-55 -48 -55 -98q0 -37 31.5 -58t89.5 -21q73 0 134.5 31t61.5 77q0 29 -30.5 50.5t-67.5 32 t-67.5 28t-30.5 39.5q0 34 71 77v1q-98 0 -98 104q0 54 25 109t71 93.5t98 38.5q101 0 176 5q3 -6 3 -11q0 -10 -9.5 -17t-25.5 -7q-28 0 -97 20l-2 -2q48 -21 48 -97q0 -144 -157 -242q-3 -2 -10.5 -6.5t-12 -7t-11 -7t-10.5 -7.5t-9.5 -7.5t-8.5 -8t-6 -7.5t-4.5 -7.5 t-1.5 -7.5q0 -15 30.5 -28.5t67 -24t67 -35t30.5 -60.5zM110 274q0 -44 18.5 -66.5t49.5 -22.5q59 0 109 71t50 143q0 40 -18.5 64t-53.5 24q-62 0 -108.5 -69t-46.5 -144z" />
<glyph unicode="&#x11e;" horiz-adv-x="517" d="M402 737q-35 0 -55.5 30t-15.5 68l14 4q11 -68 64 -68q48 0 92 70l15 4q-14 -45 -47 -76.5t-67 -31.5zM400 29q-64 -39 -144 -39q-89 0 -136 58.5t-47 165.5q0 78 25 157t68.5 143.5t108.5 105t139 40.5q60 0 109 -27l-17 -34q-42 37 -106 37q-65 0 -122 -38.5t-94 -99.5 t-58 -133t-21 -142q0 -99 41.5 -153.5t120.5 -54.5q57 0 109 26l21 102l18 115l36 10z" />
<glyph unicode="&#x11f;" horiz-adv-x="429" d="M261 588q-34 0 -50.5 35.5t-4.5 99.5l17 4q-10 -111 48 -111q56 0 96 113l15 4q-16 -67 -49 -106t-72 -39zM331 -55q0 -58 -69 -99t-161 -41q-69 0 -106 26t-37 71q0 39 24.5 70t51.5 45l7 -11q-55 -48 -55 -98q0 -37 31.5 -58t89.5 -21q73 0 134.5 31t61.5 77 q0 29 -30.5 50.5t-67.5 32t-67.5 28t-30.5 39.5q0 34 71 77v1q-98 0 -98 104q0 54 25 109t71 93.5t98 38.5q101 0 176 5q3 -6 3 -11q0 -10 -9.5 -17t-25.5 -7q-28 0 -97 20l-2 -2q48 -21 48 -97q0 -144 -157 -242q-3 -2 -10.5 -6.5t-12 -7t-11 -7t-10.5 -7.5t-9.5 -7.5 t-8.5 -8t-6 -7.5t-4.5 -7.5t-1.5 -7.5q0 -15 30.5 -28.5t67 -24t67 -35t30.5 -60.5zM110 274q0 -44 18.5 -66.5t49.5 -22.5q59 0 109 71t50 143q0 40 -18.5 64t-53.5 24q-62 0 -108.5 -69t-46.5 -144z" />
<glyph unicode="&#x120;" horiz-adv-x="517" d="M451 803q0 -19 -11 -37t-27 -18q-20 0 -20 25q0 20 12 37.5t27 17.5q19 0 19 -25zM400 29q-64 -39 -144 -39q-89 0 -136 58.5t-47 165.5q0 78 25 157t68.5 143.5t108.5 105t139 40.5q60 0 109 -27l-17 -34q-42 37 -106 37q-65 0 -122 -38.5t-94 -99.5t-58 -133t-21 -142 q0 -99 41.5 -153.5t120.5 -54.5q57 0 109 26l21 102l18 115l36 10z" />
<glyph unicode="&#x121;" horiz-adv-x="429" d="M309 670q0 -19 -11 -37t-27 -18q-20 0 -20 25q0 20 12 37.5t27 17.5q19 0 19 -25zM331 -55q0 -58 -69 -99t-161 -41q-69 0 -106 26t-37 71q0 39 24.5 70t51.5 45l7 -11q-55 -48 -55 -98q0 -37 31.5 -58t89.5 -21q73 0 134.5 31t61.5 77q0 29 -30.5 50.5t-67.5 32 t-67.5 28t-30.5 39.5q0 34 71 77v1q-98 0 -98 104q0 54 25 109t71 93.5t98 38.5q101 0 176 5q3 -6 3 -11q0 -10 -9.5 -17t-25.5 -7q-28 0 -97 20l-2 -2q48 -21 48 -97q0 -144 -157 -242q-3 -2 -10.5 -6.5t-12 -7t-11 -7t-10.5 -7.5t-9.5 -7.5t-8.5 -8t-6 -7.5t-4.5 -7.5 t-1.5 -7.5q0 -15 30.5 -28.5t67 -24t67 -35t30.5 -60.5zM110 274q0 -44 18.5 -66.5t49.5 -22.5q59 0 109 71t50 143q0 40 -18.5 64t-53.5 24q-62 0 -108.5 -69t-46.5 -144z" />
<glyph unicode="&#x122;" horiz-adv-x="517" d="M400 29q-64 -39 -144 -39q-89 0 -136 58.5t-47 165.5q0 78 25 157t68.5 143.5t108.5 105t139 40.5q60 0 109 -27l-17 -34q-42 37 -106 37q-65 0 -122 -38.5t-94 -99.5t-58 -133t-21 -142q0 -99 41.5 -153.5t120.5 -54.5q57 0 109 26l21 102l18 115l36 10zM273 -126 q-12 -60 -61 -118l-6 5q22 41 35 87h-1q-24 6 -18 33q3 15 12.5 25t21.5 10q25 0 17 -42z" />
<glyph unicode="&#x123;" horiz-adv-x="429" d="M258 635q12 60 61 118l6 -5q-22 -41 -35 -87h1q24 -6 18 -33q-3 -15 -12.5 -25t-21.5 -10q-25 0 -17 42zM331 -55q0 -58 -69 -99t-161 -41q-69 0 -106 26t-37 71q0 39 24.5 70t51.5 45l7 -11q-55 -48 -55 -98q0 -37 31.5 -58t89.5 -21q73 0 134.5 31t61.5 77 q0 29 -30.5 50.5t-67.5 32t-67.5 28t-30.5 39.5q0 34 71 77v1q-98 0 -98 104q0 54 25 109t71 93.5t98 38.5q101 0 176 5q3 -6 3 -11q0 -10 -9.5 -17t-25.5 -7q-28 0 -97 20l-2 -2q48 -21 48 -97q0 -144 -157 -242q-3 -2 -10.5 -6.5t-12 -7t-11 -7t-10.5 -7.5t-9.5 -7.5 t-8.5 -8t-6 -7.5t-4.5 -7.5t-1.5 -7.5q0 -15 30.5 -28.5t67 -24t67 -35t30.5 -60.5zM110 274q0 -44 18.5 -66.5t49.5 -22.5q59 0 109 71t50 143q0 40 -18.5 64t-53.5 24q-62 0 -108.5 -69t-46.5 -144z" />
<glyph unicode="&#x124;" horiz-adv-x="585" d="M291 732l-5 13q64 48 102 92l32 6q21 -50 63 -98l-11 -13q-45 29 -74 75q-51 -46 -107 -75zM87 0h-28l114 535l17 115l37 10l-71 -333h313l44 208l18 115l36 10l-140 -660h-27l63 297h-313z" />
<glyph unicode="&#x125;" horiz-adv-x="482" d="M93 733l-5 13q64 48 102 92l32 6q21 -50 63 -98l-11 -13q-45 29 -74 75q-51 -46 -107 -75zM364 0h-30q0 1 -0.5 9.5t-0.5 19.5q0 81 29 224t29 165q0 32 -17 50t-40 18q-33 0 -74.5 -38.5t-78 -99t-62.5 -141.5t-29 -159v-28l1 -20h-30q0 1 -0.5 8.5t-0.5 21.5 q0 95 39 278l56 262l17 115l40 10q-16 -76 -35.5 -166.5t-32 -148.5t-20.5 -98q42 103 101 165.5t119 62.5q77 0 77 -93q0 -35 -29 -168t-29 -228q0 -4 0.5 -12t0.5 -9z" />
<glyph unicode="&#x126;" horiz-adv-x="585" d="M87 0h-28l102 478h-82l7 30h81l6 27l17 115l37 10l-32 -152h312l6 27l18 115l36 10l-32 -152h84l-6 -30h-85l-101 -478h-27l63 297h-313zM156 327h313l32 151h-313z" />
<glyph unicode="&#x127;" horiz-adv-x="482" d="M364 0h-30q0 1 -0.5 9.5t-0.5 19.5q0 81 29 224t29 165q0 32 -17 50t-40 18q-33 0 -74.5 -38.5t-78 -99t-62.5 -141.5t-29 -159v-28l1 -20h-30q0 1 -0.5 8.5t-0.5 21.5q0 95 39 278l56 262l1 8h-89l4 22h88l13 85l40 10q-3 -15 -10 -47t-10 -48h189l-5 -22h-189 q-56 -260 -63 -296q42 103 101 165.5t119 62.5q77 0 77 -93q0 -35 -29 -168t-29 -228q0 -4 0.5 -12t0.5 -9z" />
<glyph unicode="&#x128;" horiz-adv-x="245" d="M199 825q20 0 43 -21.5t38 -21.5q29 0 60 47l13 -5q-13 -29 -35.5 -51t-48.5 -22q-20 0 -42 21.5t-38 21.5q-29 0 -60 -47l-13 5q13 29 35.5 51t47.5 22zM87 0h-28l114 535l17 115l37 10z" />
<glyph unicode="&#x129;" horiz-adv-x="220" d="M154 703q14 0 23.5 -12t17.5 -24t17 -12q21 0 43 51l13 -4q-9 -31 -26 -54t-39 -23q-19 0 -33.5 24t-24.5 24q-21 0 -43 -51l-13 4q26 77 65 77zM173 510q-56 -265 -69 -339t-13 -142q0 -18 1 -29h-30v10q-1 9 -1 13q0 104 39 285l16 74l17 118z" />
<glyph unicode="&#x12a;" horiz-adv-x="245" d="M136 770l7 33h190l-7 -33h-190zM87 0h-28l114 535l17 115l37 10z" />
<glyph unicode="&#x12b;" horiz-adv-x="220" d="M116 646l4 26h140l-4 -26h-140zM173 510q-56 -265 -69 -339t-13 -142q0 -18 1 -29h-30v10q-1 9 -1 13q0 104 39 285l16 74l17 118z" />
<glyph unicode="&#x12c;" horiz-adv-x="245" d="M214 737q-35 0 -55.5 30t-15.5 68l14 4q11 -68 64 -68q48 0 92 70l15 4q-14 -45 -47 -76.5t-67 -31.5zM87 0h-28l114 535l17 115l37 10z" />
<glyph unicode="&#x12d;" horiz-adv-x="220" d="M146 583q-32 0 -46 37t-1 103l19 4q-12 -116 38 -116t89 118l18 4q-17 -69 -48.5 -109.5t-68.5 -40.5zM173 510q-56 -265 -69 -339t-13 -142q0 -18 1 -29h-30v10q-1 9 -1 13q0 104 39 285l16 74l17 118z" />
<glyph unicode="&#x12e;" horiz-adv-x="264" d="M102 0q-35 -23 -65 -56t-30 -62q0 -35 40 -35q24 0 54 15l4 -16q-31 -22 -74 -22q-27 0 -43 12.5t-16 35.5q0 57 102 129l114 534l17 115l37 10z" />
<glyph unicode="&#x12f;" horiz-adv-x="220" d="M221 670q0 -19 -11 -37t-27 -18q-20 0 -20 25q0 20 12 37.5t27 17.5q19 0 19 -25zM107 0q-32 -29 -54.5 -62t-22.5 -57q0 -34 40 -34q24 0 54 15l4 -16q-31 -22 -74 -22q-27 0 -43 13.5t-16 37.5q0 27 25.5 61.5t60.5 63.5h-4l-1 10v13q0 104 39 285l16 74l17 118l40 10 q-56 -265 -69 -339t-13 -142q0 -18 1 -29z" />
<glyph unicode="&#x130;" horiz-adv-x="245" d="M263 803q0 -19 -11 -37t-27 -18q-20 0 -20 25q0 20 12 37.5t27 17.5q19 0 19 -25zM87 0h-28l114 535l17 115l37 10z" />
<glyph unicode="&#x131;" horiz-adv-x="220" d="M173 510q-56 -265 -69 -339t-13 -142q0 -18 1 -29h-30v10q-1 9 -1 13q0 104 39 285l16 74l17 118z" />
<glyph unicode="&#x132;" horiz-adv-x="488" d="M87 0h-28l114 535l17 115l37 10zM181 -171q51 23 79.5 62.5t41.5 99.5l116 544l17 115l35 10l-140 -660q-32 -151 -151 -195z" />
<glyph unicode="&#x133;" horiz-adv-x="436" d="M206 670q0 -19 -11 -37t-27 -18q-20 0 -20 25q0 20 12 37.5t27 17.5q19 0 19 -25zM437 670q0 -19 -11 -37t-27 -18q-20 0 -20 25q0 20 12 37.5t27 17.5q19 0 19 -25zM173 510q-56 -265 -69 -339t-13 -142q0 -18 1 -29h-30v10q-1 9 -1 13q0 104 39 285l16 74l17 118z M396 510q-6 -30 -112 -526q-25 -119 -137 -179l-8 18q46 28 74.5 66t41.5 98l85 398l17 115z" />
<glyph unicode="&#x134;" horiz-adv-x="243" d="M118 732l-5 13q64 48 102 92l32 6q21 -50 63 -98l-11 -13q-45 29 -74 75q-51 -46 -107 -75zM-64 -171q51 23 79.5 62.5t41.5 99.5l116 544l17 115l35 10l-140 -660q-32 -151 -151 -195z" />
<glyph unicode="&#x135;" horiz-adv-x="216" d="M127 582l-10 7q45 66 85 142l33 6q9 -79 25 -148l-12 -7q-20 50 -35 120q-51 -75 -86 -120zM176 510q-6 -30 -112 -526q-25 -119 -137 -179l-8 18q46 28 74.5 66t41.5 98l85 398l17 115z" />
<glyph unicode="&#x136;" horiz-adv-x="465" d="M173 535l17 115l38 10l-70 -328h77l252 328l28 -10l-258 -333l119 -317l-31 -10l-116 312h-77l-65 -302h-28zM216 -126q-12 -60 -61 -118l-6 5q22 41 35 87h-1q-24 6 -18 33q3 15 12.5 25t21.5 10q25 0 17 -42z" />
<glyph unicode="&#x137;" horiz-adv-x="417" d="M91 0h-30l-1 10v13q0 73 6.5 119t32.5 166l56 262l17 115l40 10q-38 -180 -78 -362q37 87 88 132t102 45q36 0 57 -21.5t21 -54.5q0 -59 -60.5 -118.5t-136.5 -90.5q59 -124 139 -225l-32 -10q-81 110 -140 242q81 38 139.5 90.5t58.5 108.5q0 26 -13.5 40.5t-36.5 14.5 q-52 0 -106 -67t-89 -174.5t-35 -215.5v-1q0 -18 1 -28zM213 -126q-12 -60 -61 -118l-6 5q22 41 35 87h-1q-24 6 -18 33q3 15 12.5 25t21.5 10q25 0 17 -42z" />
<glyph unicode="&#x138;" horiz-adv-x="396" d="M92 0h-30v10q-1 9 -1 13q0 68 9.5 128.5t45.5 232.5l17 116l40 10q-52 -244 -66 -320h1q46 141 116.5 230.5t132.5 89.5q25 0 48 -15l-20 -33q-20 17 -42 17q-36 0 -77.5 -41.5t-79.5 -109.5q13 -70 57 -161.5t100 -166.5l-26 -10q-52 67 -94 155.5t-54 149.5 q-35 -69 -56.5 -142t-21.5 -125q0 -18 1 -28z" />
<glyph unicode="&#x139;" horiz-adv-x="414" d="M322 816q-72 -57 -156 -84l-4 17q69 37 134 92zM331 0h-272l114 535l17 115l37 10l-134 -634l249 5z" />
<glyph unicode="&#x13a;" horiz-adv-x="219" d="M299 833q-72 -57 -156 -84l-4 17q69 37 134 92zM212 695q-15 -68 -33.5 -154t-27.5 -128t-20.5 -97.5t-16.5 -82t-11 -61t-8 -55t-3.5 -43t-1.5 -45.5q0 -18 1 -29h-30l-1 10v13q0 69 7 119t32 166l56 262l17 115z" />
<glyph unicode="&#x13b;" horiz-adv-x="414" d="M331 0h-272l114 535l17 115l37 10l-134 -634l249 5zM215 -126q-12 -60 -61 -118l-6 5q22 41 35 87h-1q-24 6 -18 33q3 15 12.5 25t21.5 10q25 0 17 -42z" />
<glyph unicode="&#x13c;" horiz-adv-x="219" d="M212 695q-15 -68 -33.5 -154t-27.5 -128t-20.5 -97.5t-16.5 -82t-11 -61t-8 -55t-3.5 -43t-1.5 -45.5q0 -18 1 -29h-30l-1 10v13q0 69 7 119t32 166l56 262l17 115zM90 -126q-12 -60 -61 -118l-6 5q22 41 35 87h-1q-24 6 -18 33q3 15 12.5 25t21.5 10q25 0 17 -42z" />
<glyph unicode="&#x13d;" horiz-adv-x="414" d="M404 683q-32 -86 -92 -172l-14 8q41 82 70 166zM331 0h-272l114 535l17 115l37 10l-134 -634l249 5z" />
<glyph unicode="&#x13e;" horiz-adv-x="219" d="M335 719q-32 -86 -92 -172l-14 8q41 82 70 166zM212 695q-15 -68 -33.5 -154t-27.5 -128t-20.5 -97.5t-16.5 -82t-11 -61t-8 -55t-3.5 -43t-1.5 -45.5q0 -18 1 -29h-30l-1 10v13q0 69 7 119t32 166l56 262l17 115z" />
<glyph unicode="&#x13f;" horiz-adv-x="531" d="M331 0h-272l114 535l17 115l37 10l-134 -634l249 5zM396 278q-19 0 -19 23q0 16 11 30.5t25 14.5q19 0 19 -21q0 -16 -10.5 -31.5t-25.5 -15.5z" />
<glyph unicode="&#x140;" horiz-adv-x="394" d="M212 695q-15 -68 -33.5 -154t-27.5 -128t-20.5 -97.5t-16.5 -82t-11 -61t-8 -55t-3.5 -43t-1.5 -45.5q0 -18 1 -29h-30l-1 10v13q0 69 7 119t32 166l56 262l17 115zM299 258q-19 0 -19 23q0 16 11 30.5t25 14.5q19 0 19 -21q0 -16 -10.5 -31.5t-25.5 -15.5z" />
<glyph unicode="&#x141;" horiz-adv-x="414" d="M331 0h-272l60 281l-88 -50l-6 21l100 57l48 226l17 115l37 10l-71 -333l163 92l7 -21l-176 -99l-57 -273l249 5z" />
<glyph unicode="&#x142;" horiz-adv-x="219" d="M280 445l-139 -78q-31 -149 -41 -213.5t-10 -124.5q0 -18 1 -29h-30l-1 10v13q0 69 7 119t32 166l8 39l-122 -69l-6 21l134 76l42 195l17 115l40 10q-43 -197 -65 -300l126 71z" />
<glyph unicode="&#x143;" horiz-adv-x="587" d="M487 816q-72 -57 -156 -84l-4 17q69 37 134 92zM173 535l17 115l45 10l173 -632h2l127 622l32 10l-140 -660h-42l-171 623h-1l-128 -623h-28z" />
<glyph unicode="&#x144;" horiz-adv-x="483" d="M376 730q-49 -86 -113 -149l-13 6q56 70 93 146zM92 0h-30v10q-1 9 -1 13q0 68 9.5 128.5t45.5 232.5l17 116l40 10q-46 -221 -47 -226q42 102 100.5 164t118.5 62q77 0 77 -93q0 -35 -29 -168t-29 -228q0 -4 0.5 -12t0.5 -9h-30q0 1 -0.5 9.5t-0.5 19.5q0 81 29 224 t29 165q0 32 -17 50t-40 18q-46 0 -103.5 -67t-99 -176.5t-41.5 -214.5q0 -18 1 -28z" />
<glyph unicode="&#x145;" horiz-adv-x="587" d="M173 535l17 115l45 10l173 -632h2l127 622l32 10l-140 -660h-42l-171 623h-1l-128 -623h-28zM239 -126q-12 -60 -61 -118l-6 5q22 41 35 87h-1q-24 6 -18 33q3 15 12.5 25t21.5 10q25 0 17 -42z" />
<glyph unicode="&#x146;" horiz-adv-x="483" d="M92 0h-30v10q-1 9 -1 13q0 68 9.5 128.5t45.5 232.5l17 116l40 10q-46 -221 -47 -226q42 102 100.5 164t118.5 62q77 0 77 -93q0 -35 -29 -168t-29 -228q0 -4 0.5 -12t0.5 -9h-30q0 1 -0.5 9.5t-0.5 19.5q0 81 29 224t29 165q0 32 -17 50t-40 18q-46 0 -103.5 -67 t-99 -176.5t-41.5 -214.5q0 -18 1 -28zM232 -126q-12 -60 -61 -118l-6 5q22 41 35 87h-1q-24 6 -18 33q3 15 12.5 25t21.5 10q25 0 17 -42z" />
<glyph unicode="&#x147;" horiz-adv-x="587" d="M502 842l5 -13q-64 -48 -102 -92l-32 -6q-21 50 -63 98l11 13q45 -29 74 -75q51 46 107 75zM173 535l17 115l45 10l173 -632h2l127 622l32 10l-140 -660h-42l-171 623h-1l-128 -623h-28z" />
<glyph unicode="&#x148;" horiz-adv-x="483" d="M390 749l6 -9q-57 -69 -95 -140l-29 -6q-8 67 -35 146l9 9q29 -45 46 -121q51 78 98 121zM92 0h-30v10q-1 9 -1 13q0 68 9.5 128.5t45.5 232.5l17 116l40 10q-46 -221 -47 -226q42 102 100.5 164t118.5 62q77 0 77 -93q0 -35 -29 -168t-29 -228q0 -4 0.5 -12t0.5 -9h-30 q0 1 -0.5 9.5t-0.5 19.5q0 81 29 224t29 165q0 32 -17 50t-40 18q-46 0 -103.5 -67t-99 -176.5t-41.5 -214.5q0 -18 1 -28z" />
<glyph unicode="&#x149;" horiz-adv-x="603" d="M237 670q0 -30 -29 -88t-73 -104l-10 9q56 68 78 140h-1q-19 3 -19 25q0 17 10.5 30t24.5 13q19 0 19 -25zM212 0h-30v10q-1 9 -1 13q0 68 9.5 128.5t45.5 232.5l17 116l40 10q-46 -221 -47 -226q42 102 100.5 164t118.5 62q77 0 77 -93q0 -35 -29 -168t-29 -228 q0 -4 0.5 -12t0.5 -9h-30q0 1 -0.5 9.5t-0.5 19.5q0 81 29 224t29 165q0 32 -17 50t-40 18q-46 0 -103.5 -67t-99 -176.5t-41.5 -214.5q0 -18 1 -28z" />
<glyph unicode="&#x14a;" horiz-adv-x="587" d="M280 -171q88 41 116 140l-180 654h-1l-128 -623h-28l114 535l17 115l45 10l173 -632h2l127 622l32 10l-140 -660q-30 -151 -151 -195z" />
<glyph unicode="&#x14b;" horiz-adv-x="458" d="M92 0h-30v10q-1 9 -1 13q0 68 9.5 128.5t45.5 232.5l17 116l40 10q-46 -221 -47 -226q42 102 100.5 164t118.5 62q77 0 77 -93q0 -13 -4 -39.5t-14 -74.5t-18 -86t-24.5 -114t-26.5 -120q-26 -119 -137 -178l-8 18q93 53 116 164q17 82 34.5 160.5t25.5 116t15 71.5 t9.5 50t2.5 28q0 73 -58 73q-46 0 -103.5 -67t-99 -176.5t-41.5 -214.5q0 -18 1 -28z" />
<glyph unicode="&#x14c;" horiz-adv-x="584" d="M308 770l7 33h190l-7 -33h-190zM543 444q0 -102 -38 -205.5t-111 -176t-160 -72.5q-77 0 -119 57.5t-42 159.5q0 101 38 204.5t111 176t160 72.5q77 0 119 -57t42 -159zM105 213q0 -93 36.5 -146t103.5 -53q59 0 110.5 40.5t84.5 103.5t52 136.5t19 141.5q0 94 -36 147 t-103 53q-77 0 -140.5 -69.5t-95 -165.5t-31.5 -188z" />
<glyph unicode="&#x14d;" horiz-adv-x="471" d="M237 646l6 26h200l-6 -26h-200zM425 356q0 -80 -33.5 -163t-95 -141t-131.5 -58q-57 0 -88.5 37t-31.5 108q0 82 34.5 166.5t96 142.5t130.5 58q59 0 89 -40t30 -110zM79 148q0 -66 27 -99t71 -33q56 0 107 53t79.5 130.5t28.5 150.5q0 62 -24.5 98t-70.5 36 q-55 0 -107 -53.5t-81.5 -131t-29.5 -151.5z" />
<glyph unicode="&#x14e;" horiz-adv-x="584" d="M386 737q-35 0 -55.5 30t-15.5 68l14 4q11 -68 64 -68q48 0 92 70l15 4q-14 -45 -47 -76.5t-67 -31.5zM543 444q0 -102 -38 -205.5t-111 -176t-160 -72.5q-77 0 -119 57.5t-42 159.5q0 101 38 204.5t111 176t160 72.5q77 0 119 -57t42 -159zM105 213q0 -93 36.5 -146 t103.5 -53q59 0 110.5 40.5t84.5 103.5t52 136.5t19 141.5q0 94 -36 147t-103 53q-77 0 -140.5 -69.5t-95 -165.5t-31.5 -188z" />
<glyph unicode="&#x14f;" horiz-adv-x="471" d="M307 588q-34 0 -50.5 35.5t-4.5 99.5l17 4q-10 -111 48 -111q56 0 96 113l15 4q-16 -67 -49 -106t-72 -39zM425 356q0 -80 -33.5 -163t-95 -141t-131.5 -58q-57 0 -88.5 37t-31.5 108q0 82 34.5 166.5t96 142.5t130.5 58q59 0 89 -40t30 -110zM79 148q0 -66 27 -99 t71 -33q56 0 107 53t79.5 130.5t28.5 150.5q0 62 -24.5 98t-70.5 36q-55 0 -107 -53.5t-81.5 -131t-29.5 -151.5z" />
<glyph unicode="&#x150;" horiz-adv-x="584" d="M407 819q-84 -57 -180 -84l-4 14q82 38 155 92zM589 819q-84 -57 -180 -84l-4 14q82 38 155 92zM543 444q0 -102 -38 -205.5t-111 -176t-160 -72.5q-77 0 -119 57.5t-42 159.5q0 101 38 204.5t111 176t160 72.5q77 0 119 -57t42 -159zM105 213q0 -93 36.5 -146t103.5 -53 q59 0 110.5 40.5t84.5 103.5t52 136.5t19 141.5q0 94 -36 147t-103 53q-77 0 -140.5 -69.5t-95 -165.5t-31.5 -188z" />
<glyph unicode="&#x151;" horiz-adv-x="471" d="M346 731q-47 -88 -108 -149l-11 6q55 69 92 145zM451 731q-47 -88 -108 -149l-11 6q55 69 92 145zM425 356q0 -80 -33.5 -163t-95 -141t-131.5 -58q-57 0 -88.5 37t-31.5 108q0 82 34.5 166.5t96 142.5t130.5 58q59 0 89 -40t30 -110zM79 148q0 -66 27 -99t71 -33 q56 0 107 53t79.5 130.5t28.5 150.5q0 62 -24.5 98t-70.5 36q-55 0 -107 -53.5t-81.5 -131t-29.5 -151.5z" />
<glyph unicode="&#x152;" horiz-adv-x="744" d="M636 0h-340q-29 -10 -62 -10q-77 0 -119 57.5t-42 159.5q0 101 38 204.5t111 176t160 72.5q32 0 58 -10h338l-11 -31l-284 4q60 -55 60 -179q0 -51 -11 -109l103 3l-11 -31l-98 2q-23 -90 -69 -166t-107 -117l297 5zM105 213q0 -93 36.5 -146t103.5 -53q59 0 110.5 40.5 t84.5 103.5t52 136.5t19 141.5q0 94 -36 147t-103 53q-77 0 -140.5 -69.5t-95 -165.5t-31.5 -188z" />
<glyph unicode="&#x153;" horiz-adv-x="744" d="M654 114l14 -8q-33 -52 -82.5 -84t-97.5 -32q-53 0 -85.5 41.5t-34.5 114.5q-37 -68 -90 -110t-113 -42q-57 0 -88.5 37t-31.5 108q0 82 34.5 166.5t96 142.5t130.5 58q56 0 86 -36.5t33 -101.5q36 64 86 103t105 39q42 0 68 -22.5t26 -64.5q0 -69 -69.5 -125.5 t-184.5 -68.5q-26 -4 -49 -2q-7 -32 -7 -68q0 -66 25.5 -105.5t73.5 -39.5q77 0 155 100zM604 486q-62 0 -117 -72.5t-77 -168.5q136 8 202 60t66 110q0 31 -20 51t-54 20zM79 148q0 -66 27 -99t71 -33q56 0 107 53t79.5 130.5t28.5 150.5q0 62 -24.5 98t-70.5 36 q-55 0 -107 -53.5t-81.5 -131t-29.5 -151.5z" />
<glyph unicode="&#x154;" horiz-adv-x="474" d="M428 816q-72 -57 -156 -84l-4 17q69 37 134 92zM87 0h-28l114 535l17 115h100q83 0 124.5 -37.5t41.5 -107.5q0 -79 -45 -139.5t-127 -83.5l92 -282l-31 -10l-91 285q-32 -5 -60 -5h-50zM279 624h-60l-69 -328h54q107 0 164.5 59.5t57.5 142.5q0 126 -147 126z" />
<glyph unicode="&#x155;" horiz-adv-x="344" d="M337 730q-49 -86 -113 -149l-13 6q56 70 93 146zM92 0h-30v10q-1 9 -1 13q0 68 9.5 128.5t45.5 232.5l17 116l40 10q-8 -39 -21 -98.5t-17 -80.5q32 82 75.5 130.5t92.5 48.5q40 0 68 -14l-14 -32q-26 22 -65 22q-42 0 -89.5 -68.5t-79.5 -177t-32 -212.5q0 -18 1 -28z " />
<glyph unicode="&#x156;" horiz-adv-x="474" d="M87 0h-28l114 535l17 115h100q83 0 124.5 -37.5t41.5 -107.5q0 -79 -45 -139.5t-127 -83.5l92 -282l-31 -10l-91 285q-32 -5 -60 -5h-50zM279 624h-60l-69 -328h54q107 0 164.5 59.5t57.5 142.5q0 126 -147 126zM217 -126q-12 -60 -61 -118l-6 5q22 41 35 87h-1 q-24 6 -18 33q3 15 12.5 25t21.5 10q25 0 17 -42z" />
<glyph unicode="&#x157;" horiz-adv-x="344" d="M92 0h-30v10q-1 9 -1 13q0 68 9.5 128.5t45.5 232.5l17 116l40 10q-8 -39 -21 -98.5t-17 -80.5q32 82 75.5 130.5t92.5 48.5q40 0 68 -14l-14 -32q-26 22 -65 22q-42 0 -89.5 -68.5t-79.5 -177t-32 -212.5q0 -18 1 -28zM84 -126q-12 -60 -61 -118l-6 5q22 41 35 87h-1 q-24 6 -18 33q3 15 12.5 25t21.5 10q25 0 17 -42z" />
<glyph unicode="&#x158;" horiz-adv-x="474" d="M443 842l5 -13q-64 -48 -102 -92l-32 -6q-21 50 -63 98l11 13q45 -29 74 -75q51 46 107 75zM87 0h-28l114 535l17 115h100q83 0 124.5 -37.5t41.5 -107.5q0 -79 -45 -139.5t-127 -83.5l92 -282l-31 -10l-91 285q-32 -5 -60 -5h-50zM279 624h-60l-69 -328h54 q107 0 164.5 59.5t57.5 142.5q0 126 -147 126z" />
<glyph unicode="&#x159;" horiz-adv-x="344" d="M351 749l6 -9q-57 -69 -95 -140l-29 -6q-8 67 -35 146l9 9q29 -45 46 -121q51 78 98 121zM92 0h-30v10q-1 9 -1 13q0 68 9.5 128.5t45.5 232.5l17 116l40 10q-8 -39 -21 -98.5t-17 -80.5q32 82 75.5 130.5t92.5 48.5q40 0 68 -14l-14 -32q-26 22 -65 22 q-42 0 -89.5 -68.5t-79.5 -177t-32 -212.5q0 -18 1 -28z" />
<glyph unicode="&#x15a;" horiz-adv-x="420" d="M419 816q-72 -57 -156 -84l-4 17q69 37 134 92zM340 171q0 -75 -59.5 -128t-144.5 -53q-65 0 -125 29l13 35q18 -15 52.5 -27.5t72.5 -12.5q69 0 114.5 44t45.5 105q0 37 -19 68.5t-46 56t-54.5 49.5t-46.5 60t-19 76q0 77 58.5 132t144.5 55q61 0 105 -22l-12 -35 q-13 12 -42 22.5t-63 10.5q-68 0 -114 -45.5t-46 -106.5q0 -36 19 -68.5t46.5 -58t54.5 -51.5t46 -60.5t19 -74.5z" />
<glyph unicode="&#x15b;" horiz-adv-x="365" d="M331 716q-49 -86 -113 -149l-13 6q56 70 93 146zM287 128q0 -58 -50.5 -98t-126.5 -40q-61 0 -115 25l13 35q47 -36 115 -36q59 0 97 30.5t38 76.5q0 34 -20.5 59.5t-64.5 60.5q-30 24 -42 34.5t-27 36.5t-15 54q0 59 50 101.5t126 42.5q58 0 94 -17l-13 -35 q-35 28 -92 28q-60 0 -98 -34t-38 -79q0 -30 17.5 -53.5t54.5 -54.5q3 -3 18 -15t20.5 -17t17.5 -16.5t17 -19.5t12 -19.5t9.5 -23.5t2.5 -26z" />
<glyph unicode="&#x15c;" horiz-adv-x="420" d="M235 732l-5 13q64 48 102 92l32 6q21 -50 63 -98l-11 -13q-45 29 -74 75q-51 -46 -107 -75zM340 171q0 -75 -59.5 -128t-144.5 -53q-65 0 -125 29l13 35q18 -15 52.5 -27.5t72.5 -12.5q69 0 114.5 44t45.5 105q0 37 -19 68.5t-46 56t-54.5 49.5t-46.5 60t-19 76 q0 77 58.5 132t144.5 55q61 0 105 -22l-12 -35q-13 12 -42 22.5t-63 10.5q-68 0 -114 -45.5t-46 -106.5q0 -36 19 -68.5t46.5 -58t54.5 -51.5t46 -60.5t19 -74.5z" />
<glyph unicode="&#x15d;" horiz-adv-x="365" d="M179 568l-6 9q57 69 95 140l29 6q8 -67 35 -146l-9 -9q-29 45 -46 121q-51 -78 -98 -121zM287 128q0 -58 -50.5 -98t-126.5 -40q-61 0 -115 25l13 35q47 -36 115 -36q59 0 97 30.5t38 76.5q0 34 -20.5 59.5t-64.5 60.5q-30 24 -42 34.5t-27 36.5t-15 54q0 59 50 101.5 t126 42.5q58 0 94 -17l-13 -35q-35 28 -92 28q-60 0 -98 -34t-38 -79q0 -30 17.5 -53.5t54.5 -54.5q3 -3 18 -15t20.5 -17t17.5 -16.5t17 -19.5t12 -19.5t9.5 -23.5t2.5 -26z" />
<glyph unicode="&#x15e;" horiz-adv-x="420" d="M169 -110q3 15 -11 25t-48 14l34 61h-8q-65 0 -125 29l13 35q18 -15 52.5 -27.5t72.5 -12.5q69 0 114.5 44t45.5 105q0 37 -19 68.5t-46 56t-54.5 49.5t-46.5 60t-19 76q0 77 58.5 132t144.5 55q61 0 105 -22l-12 -35q-13 12 -42 22.5t-63 10.5q-68 0 -114 -45.5 t-46 -106.5q0 -36 19 -68.5t46.5 -58t54.5 -51.5t46 -60.5t19 -74.5q0 -67 -48.5 -117.5t-121.5 -61.5l-26 -46q33 -7 47.5 -20.5t10.5 -32.5q-6 -30 -44.5 -47.5t-83.5 -19.5l2 18q85 11 93 46z" />
<glyph unicode="&#x15f;" horiz-adv-x="365" d="M157 -110q3 15 -11 25t-48 14l35 62q-8 -1 -23 -1q-61 0 -115 25l13 35q47 -36 115 -36q59 0 97 30.5t38 76.5q0 34 -20.5 59.5t-64.5 60.5q-30 24 -42 34.5t-27 36.5t-15 54q0 59 50 101.5t126 42.5q58 0 94 -17l-13 -35q-35 28 -92 28q-60 0 -98 -34t-38 -79 q0 -30 17.5 -53.5t54.5 -54.5q3 -3 18 -15t20.5 -17t17.5 -16.5t17 -19.5t12 -19.5t9.5 -23.5t2.5 -26q0 -47 -35.5 -84t-92.5 -49l-27 -49q33 -7 47.5 -20.5t10.5 -32.5q-6 -30 -44.5 -47.5t-83.5 -19.5l2 18q85 11 93 46z" />
<glyph unicode="&#x160;" horiz-adv-x="420" d="M434 842l5 -13q-64 -48 -102 -92l-32 -6q-21 50 -63 98l11 13q45 -29 74 -75q51 46 107 75zM340 171q0 -75 -59.5 -128t-144.5 -53q-65 0 -125 29l13 35q18 -15 52.5 -27.5t72.5 -12.5q69 0 114.5 44t45.5 105q0 37 -19 68.5t-46 56t-54.5 49.5t-46.5 60t-19 76 q0 77 58.5 132t144.5 55q61 0 105 -22l-12 -35q-13 12 -42 22.5t-63 10.5q-68 0 -114 -45.5t-46 -106.5q0 -36 19 -68.5t46.5 -58t54.5 -51.5t46 -60.5t19 -74.5z" />
<glyph unicode="&#x161;" horiz-adv-x="365" d="M345 735l6 -9q-57 -69 -95 -140l-29 -6q-8 67 -35 146l9 9q29 -45 46 -121q51 78 98 121zM287 128q0 -58 -50.5 -98t-126.5 -40q-61 0 -115 25l13 35q47 -36 115 -36q59 0 97 30.5t38 76.5q0 34 -20.5 59.5t-64.5 60.5q-30 24 -42 34.5t-27 36.5t-15 54q0 59 50 101.5 t126 42.5q58 0 94 -17l-13 -35q-35 28 -92 28q-60 0 -98 -34t-38 -79q0 -30 17.5 -53.5t54.5 -54.5q3 -3 18 -15t20.5 -17t17.5 -16.5t17 -19.5t12 -19.5t9.5 -23.5t2.5 -26z" />
<glyph unicode="&#x162;" horiz-adv-x="411" d="M162 -110q3 15 -11 25t-48 14l40 71h-4l132 624l-168 -5l11 31h352l-2 -31l-165 5l-132 -624l-30 -54q33 -7 47.5 -20.5t10.5 -32.5q-6 -30 -44.5 -47.5t-83.5 -19.5l2 18q85 11 93 46z" />
<glyph unicode="&#x163;" horiz-adv-x="375" d="M174 -110q3 15 -11 25t-48 14l34 61h-7q-74 0 -74 81q0 23 37 196q24 109 41 188l-52 1l3 16l54 4l40 155l22 3q-5 -25 -16.5 -78.5t-16.5 -79.5h179l-7 -25l-177 3q-77 -361 -77 -383q0 -57 55 -57q69 0 147 100l14 -8q-61 -92 -138 -112l-27 -48q33 -7 47.5 -20.5 t10.5 -32.5q-6 -30 -44.5 -47.5t-83.5 -19.5l2 18q85 11 93 46z" />
<glyph unicode="&#x164;" horiz-adv-x="411" d="M413 842l5 -13q-64 -48 -102 -92l-32 -6q-21 50 -63 98l11 13q45 -29 74 -75q51 46 107 75zM167 0h-28l132 624l-168 -5l11 31h352l-2 -31l-165 5z" />
<glyph unicode="&#x165;" horiz-adv-x="375" d="M355 694q-32 -86 -92 -172l-14 8q41 82 70 166zM314 106q-77 -116 -172 -116q-74 0 -74 81q0 23 37 196q24 109 41 188l-52 1l3 16l54 4l40 155l22 3q-5 -25 -16.5 -78.5t-16.5 -79.5h179l-7 -25l-177 3q-77 -361 -77 -383q0 -57 55 -57q69 0 147 100z" />
<glyph unicode="&#x166;" horiz-adv-x="411" d="M167 0h-28l67 314h-142l4 22h142l61 288l-168 -5l11 31h352l-2 -31l-165 5l-61 -288h140l-5 -22h-139z" />
<glyph unicode="&#x167;" horiz-adv-x="375" d="M314 106q-77 -116 -172 -116q-74 0 -74 81q0 26 35 186h-50l3 22h52q28 132 38 176l-52 1l3 16l54 4l40 155l22 3q-5 -25 -16.5 -78.5t-16.5 -79.5h179l-7 -25l-177 3q-33 -156 -37 -175h160l-4 -22h-161q-35 -168 -35 -186q0 -57 55 -57q69 0 147 100z" />
<glyph unicode="&#x168;" horiz-adv-x="568" d="M366 825q20 0 43 -21.5t38 -21.5q29 0 60 47l13 -5q-13 -29 -35.5 -51t-48.5 -22q-20 0 -42 21.5t-38 21.5q-29 0 -60 -47l-13 5q13 29 35.5 51t47.5 22zM242 14q71 0 118.5 53.5t68.5 152.5l67 315l17 115l37 10l-92 -430q-25 -116 -83 -178t-143 -62q-67 0 -102.5 37 t-35.5 103q0 32 10.5 85t67.5 320l18 115l37 10q-20 -96 -50 -234q-38 -178 -46 -220.5t-8 -68.5q0 -58 31 -90.5t88 -32.5z" />
<glyph unicode="&#x169;" d="M285 703q23 0 49.5 -24t42.5 -24q29 0 60 51l12 -4q-8 -29 -31.5 -53t-50.5 -24q-23 0 -49 24t-42 24q-31 0 -60 -51l-11 4q10 29 32 53t48 24zM358 0h-30q0 1 -0.5 9.5t-0.5 20.5q0 37 26 188q-40 -102 -98 -165t-120 -63q-35 0 -57 21.5t-22 69.5q0 6 0.5 11.5 t1.5 13.5t2 15.5t4 22.5t6 27.5t8 37t10 46t13 59t15 71.5l17 115l40 10q-13 -60 -29.5 -134t-24.5 -112.5t-16.5 -79.5t-12 -63.5t-3.5 -36.5q0 -32 16 -51t43 -19q68 0 140.5 119t95.5 249q10 60 11 64l3 26q3 26 3 28l40 10q-56 -265 -69 -339t-13 -142q0 -18 1 -29z" />
<glyph unicode="&#x16a;" horiz-adv-x="568" d="M303 770l7 33h190l-7 -33h-190zM242 14q71 0 118.5 53.5t68.5 152.5l67 315l17 115l37 10l-92 -430q-25 -116 -83 -178t-143 -62q-67 0 -102.5 37t-35.5 103q0 32 10.5 85t67.5 320l18 115l37 10q-20 -96 -50 -234q-38 -178 -46 -220.5t-8 -68.5q0 -58 31 -90.5t88 -32.5 z" />
<glyph unicode="&#x16b;" d="M218 646l6 26h200l-6 -26h-200zM358 0h-30q0 1 -0.5 9.5t-0.5 20.5q0 37 26 188q-40 -102 -98 -165t-120 -63q-35 0 -57 21.5t-22 69.5q0 6 0.5 11.5t1.5 13.5t2 15.5t4 22.5t6 27.5t8 37t10 46t13 59t15 71.5l17 115l40 10q-13 -60 -29.5 -134t-24.5 -112.5t-16.5 -79.5 t-12 -63.5t-3.5 -36.5q0 -32 16 -51t43 -19q68 0 140.5 119t95.5 249q10 60 11 64l3 26q3 26 3 28l40 10q-56 -265 -69 -339t-13 -142q0 -18 1 -29z" />
<glyph unicode="&#x16c;" horiz-adv-x="568" d="M381 737q-35 0 -55.5 30t-15.5 68l14 4q11 -68 64 -68q48 0 92 70l15 4q-14 -45 -47 -76.5t-67 -31.5zM242 14q71 0 118.5 53.5t68.5 152.5l67 315l17 115l37 10l-92 -430q-25 -116 -83 -178t-143 -62q-67 0 -102.5 37t-35.5 103q0 32 10.5 85t67.5 320l18 115l37 10 q-20 -96 -50 -234q-38 -178 -46 -220.5t-8 -68.5q0 -58 31 -90.5t88 -32.5z" />
<glyph unicode="&#x16d;" d="M288 588q-34 0 -50.5 35.5t-4.5 99.5l17 4q-10 -111 48 -111q56 0 96 113l15 4q-16 -67 -49 -106t-72 -39zM358 0h-30q0 1 -0.5 9.5t-0.5 20.5q0 37 26 188q-40 -102 -98 -165t-120 -63q-35 0 -57 21.5t-22 69.5q0 6 0.5 11.5t1.5 13.5t2 15.5t4 22.5t6 27.5t8 37t10 46 t13 59t15 71.5l17 115l40 10q-13 -60 -29.5 -134t-24.5 -112.5t-16.5 -79.5t-12 -63.5t-3.5 -36.5q0 -32 16 -51t43 -19q68 0 140.5 119t95.5 249q10 60 11 64l3 26q3 26 3 28l40 10q-56 -265 -69 -339t-13 -142q0 -18 1 -29z" />
<glyph unicode="&#x16e;" horiz-adv-x="568" d="M470 808q0 -35 -26.5 -63t-58.5 -28q-23 0 -37 14.5t-14 37.5q0 35 26.5 62.5t60.5 27.5q22 0 35.5 -14t13.5 -37zM362 776q0 -33 28 -33q20 0 36 18t16 40q0 14 -8 23t-21 9q-20 0 -35.5 -17.5t-15.5 -39.5zM242 14q71 0 118.5 53.5t68.5 152.5l67 315l17 115l37 10 l-92 -430q-25 -116 -83 -178t-143 -62q-67 0 -102.5 37t-35.5 103q0 32 10.5 85t67.5 320l18 115l37 10q-20 -96 -50 -234q-38 -178 -46 -220.5t-8 -68.5q0 -58 31 -90.5t88 -32.5z" />
<glyph unicode="&#x16f;" d="M388 682q0 -39 -26 -69.5t-58 -30.5q-22 0 -36.5 16t-14.5 41q0 40 27 69.5t59 29.5q22 0 35.5 -15.5t13.5 -40.5zM280 645q0 -17 8 -27.5t21 -10.5q19 0 36 20.5t17 48.5q0 17 -8.5 27t-21.5 10q-20 0 -36 -20t-16 -48zM358 0h-30q0 1 -0.5 9.5t-0.5 20.5q0 37 26 188 q-40 -102 -98 -165t-120 -63q-35 0 -57 21.5t-22 69.5q0 6 0.5 11.5t1.5 13.5t2 15.5t4 22.5t6 27.5t8 37t10 46t13 59t15 71.5l17 115l40 10q-13 -60 -29.5 -134t-24.5 -112.5t-16.5 -79.5t-12 -63.5t-3.5 -36.5q0 -32 16 -51t43 -19q68 0 140.5 119t95.5 249q10 60 11 64 l3 26q3 26 3 28l40 10q-56 -265 -69 -339t-13 -142q0 -18 1 -29z" />
<glyph unicode="&#x170;" horiz-adv-x="568" d="M402 819q-84 -57 -180 -84l-4 14q82 38 155 92zM584 819q-84 -57 -180 -84l-4 14q82 38 155 92zM242 14q71 0 118.5 53.5t68.5 152.5l67 315l17 115l37 10l-92 -430q-25 -116 -83 -178t-143 -62q-67 0 -102.5 37t-35.5 103q0 32 10.5 85t67.5 320l18 115l37 10 q-20 -96 -50 -234q-38 -178 -46 -220.5t-8 -68.5q0 -58 31 -90.5t88 -32.5z" />
<glyph unicode="&#x171;" d="M327 731q-47 -88 -108 -149l-11 6q55 69 92 145zM432 731q-47 -88 -108 -149l-11 6q55 69 92 145zM358 0h-30q0 1 -0.5 9.5t-0.5 20.5q0 37 26 188q-40 -102 -98 -165t-120 -63q-35 0 -57 21.5t-22 69.5q0 6 0.5 11.5t1.5 13.5t2 15.5t4 22.5t6 27.5t8 37t10 46t13 59 t15 71.5l17 115l40 10q-13 -60 -29.5 -134t-24.5 -112.5t-16.5 -79.5t-12 -63.5t-3.5 -36.5q0 -32 16 -51t43 -19q68 0 140.5 119t95.5 249q10 60 11 64l3 26q3 26 3 28l40 10q-56 -265 -69 -339t-13 -142q0 -18 1 -29z" />
<glyph unicode="&#x172;" horiz-adv-x="579" d="M257 14q71 0 118.5 53.5t68.5 152.5l67 315l17 115l37 10l-92 -430q-32 -151 -119 -209q-45 -35 -64.5 -51t-38.5 -41t-19 -47q0 -35 40 -35q24 0 54 15l4 -16q-31 -22 -74 -22q-59 0 -59 48q0 54 95 123q-25 -5 -45 -5q-67 0 -102.5 37t-35.5 103q0 32 10.5 85t67.5 320 l18 115l37 10q-20 -96 -50 -234q-38 -178 -46 -220.5t-8 -68.5q0 -58 31 -90.5t88 -32.5z" />
<glyph unicode="&#x173;" d="M358 0q-54 -19 -92.5 -54t-38.5 -68q0 -31 40 -31q24 0 54 15l4 -16q-31 -22 -74 -22q-27 0 -43 11.5t-16 32.5q0 38 41.5 77t94.5 61q-1 4 -1 24q0 37 26 188q-40 -102 -98 -165t-120 -63q-35 0 -57 21.5t-22 69.5q0 6 0.5 11.5t1.5 13.5t2 15.5t4 22.5t6 27.5t8 37 t10 46t13 59t15 71.5l17 115l40 10q-13 -60 -29.5 -134t-24.5 -112.5t-16.5 -79.5t-12 -63.5t-3.5 -36.5q0 -32 16 -51t43 -19q68 0 140.5 119t95.5 249q10 60 11 64l3 26q3 26 3 28l40 10q-56 -265 -69 -339t-13 -142q0 -18 1 -29z" />
<glyph unicode="&#x174;" horiz-adv-x="771" d="M395 732l-5 13q64 48 102 92l32 6q21 -50 63 -98l-11 -13q-45 29 -74 75q-51 -46 -107 -75zM143 0l-18 650l27 10l17 -635h1l287 625h28l20 -625h1l287 635l23 -10l-295 -650h-40l-20 600h-2l-275 -600h-41z" />
<glyph unicode="&#x175;" horiz-adv-x="636" d="M281 582l-6 9q57 69 95 140l29 6q8 -67 35 -146l-9 -9q-29 45 -46 121q-51 -78 -98 -121zM102 256q-9 150 -27 244l29 10q14 -77 26 -251q7 -115 7 -234h1q82 125 136 255t54 220l29 10q18 -102 26 -243q7 -119 7 -242h1q82 126 136 255.5t54 221.5q9 8 19 8q14 0 14 -18 q0 -68 -64 -224t-157 -277l-32 9q2 197 -18 422q-14 -86 -71.5 -210t-131.5 -221l-32 9q0 152 -6 256z" />
<glyph unicode="&#x176;" horiz-adv-x="481" d="M250 732l-5 13q64 48 102 92l32 6q21 -50 63 -98l-11 -13q-45 29 -74 75q-51 -46 -107 -75zM200 0h-27l45 213l-93 437l27 10l88 -410h1l262 410l23 -10l-280 -438z" />
<glyph unicode="&#x177;" horiz-adv-x="395" d="M163 582l-6 9q57 69 95 140l29 6q8 -67 35 -146l-9 -9q-29 45 -46 121q-51 -78 -98 -121zM148 -10q-60 -78 -129 -131.5t-120 -53.5q-38 0 -38 23q0 11 8 19q16 -6 34 -6q43 0 110 48.5t116 113.5l-12 1q0 103 -9 260q-7 127 -28 236l29 10q18 -101 28 -241 q9 -126 9 -244h1q84 128 139 257t55 220q9 8 19 8q14 0 14 -18q0 -66 -65.5 -222.5t-160.5 -279.5z" />
<glyph unicode="&#x178;" horiz-adv-x="481" d="M299 802q0 -21 -10 -37t-26 -16q-19 0 -19 23q0 20 11.5 36t26.5 16q17 0 17 -22zM467 801q0 -19 -10 -35.5t-26 -16.5q-19 0 -19 24q0 19 11 35t27 16q17 0 17 -23zM200 0h-27l45 213l-93 437l27 10l88 -410h1l262 410l23 -10l-280 -438z" />
<glyph unicode="&#x179;" horiz-adv-x="436" d="M412 816q-72 -57 -156 -84l-4 17q69 37 134 92zM338 0h-345l-2 18l444 604q-245 0 -310 -7l12 35h334l1 -18l-444 -604q119 0 155.5 0.5t79.5 4t89 12.5z" />
<glyph unicode="&#x17a;" horiz-adv-x="415" d="M338 730q-49 -86 -113 -149l-13 6q56 70 93 146zM3 -10l-7 14q215 228 325 430q-76 44 -150 44q-46 0 -65 -50l-22 5q10 43 31.5 60t56.5 17q70 0 158 -60q20 40 29 60q23 0 23 -15q0 -36 -106 -187.5t-214 -262.5q41 -1 86.5 -12t63.5 -11q35 0 57.5 13.5t38.5 55.5 l22 -5q-15 -53 -43.5 -74.5t-73.5 -21.5q-25 0 -68.5 15t-69.5 15q-39 0 -72 -30z" />
<glyph unicode="&#x17b;" horiz-adv-x="436" d="M362 803q0 -19 -11 -37t-27 -18q-20 0 -20 25q0 20 12 37.5t27 17.5q19 0 19 -25zM338 0h-345l-2 18l444 604q-245 0 -310 -7l12 35h334l1 -18l-444 -604q119 0 155.5 0.5t79.5 4t89 12.5z" />
<glyph unicode="&#x17c;" horiz-adv-x="415" d="M304 670q0 -19 -11 -37t-27 -18q-20 0 -20 25q0 20 12 37.5t27 17.5q19 0 19 -25zM3 -10l-7 14q215 228 325 430q-76 44 -150 44q-46 0 -65 -50l-22 5q10 43 31.5 60t56.5 17q70 0 158 -60q20 40 29 60q23 0 23 -15q0 -36 -106 -187.5t-214 -262.5q41 -1 86.5 -12 t63.5 -11q35 0 57.5 13.5t38.5 55.5l22 -5q-15 -53 -43.5 -74.5t-73.5 -21.5q-25 0 -68.5 15t-69.5 15q-39 0 -72 -30z" />
<glyph unicode="&#x17d;" horiz-adv-x="436" d="M427 842l5 -13q-64 -48 -102 -92l-32 -6q-21 50 -63 98l11 13q45 -29 74 -75q51 46 107 75zM338 0h-345l-2 18l444 604q-245 0 -310 -7l12 35h334l1 -18l-444 -604q119 0 155.5 0.5t79.5 4t89 12.5z" />
<glyph unicode="&#x17e;" horiz-adv-x="415" d="M352 749l6 -9q-57 -69 -95 -140l-29 -6q-8 67 -35 146l9 9q29 -45 46 -121q51 78 98 121zM3 -10l-7 14q215 228 325 430q-76 44 -150 44q-46 0 -65 -50l-22 5q10 43 31.5 60t56.5 17q70 0 158 -60q20 40 29 60q23 0 23 -15q0 -36 -106 -187.5t-214 -262.5q41 -1 86.5 -12 t63.5 -11q35 0 57.5 13.5t38.5 55.5l22 -5q-15 -53 -43.5 -74.5t-73.5 -21.5q-25 0 -68.5 15t-69.5 15q-39 0 -72 -30z" />
<glyph unicode="&#x18f;" horiz-adv-x="512" d="M133 500l-18 10q38 65 95 107.5t117 42.5q68 0 106.5 -56t38.5 -157q0 -108 -41 -213.5t-110.5 -174.5t-144.5 -69q-47 0 -75 27t-28 78q0 93 87.5 163t207.5 89q42 6 65 7q7 39 7 85q0 90 -31.5 142t-92.5 52q-52 0 -100.5 -37.5t-82.5 -95.5zM103 96q0 -37 21.5 -59.5 t61.5 -22.5q83 0 151 95t93 225q-71 -5 -129 -23.5t-94 -43.5t-60 -56t-34 -59.5t-10 -55.5z" />
<glyph unicode="&#x192;" horiz-adv-x="432" d="M386 307l-163 3l-78 -260q-60 -201 -180 -201q-52 0 -90 26l19 28q9 -9 32 -19.5t47 -10.5q94 0 148 180l76 258l-78 1l6 15l78 5q5 16 24 82t26 86q53 160 175 160q49 0 83 -26l-21 -36q-27 38 -78 38q-44 0 -75.5 -32t-57.5 -107q-11 -32 -50 -165h166z" />
<glyph unicode="&#x19d;" horiz-adv-x="587" d="M-66 -195l2 24q96 46 121 162l116 544l17 115l45 10l173 -632h2l127 622l32 10l-140 -660h-42l-171 623h-1q-16 -79 -41.5 -201t-86.5 -422q-30 -150 -153 -195z" />
<glyph unicode="&#x1cd;" horiz-adv-x="501" d="M459 842l5 -13q-64 -48 -102 -92l-32 -6q-21 50 -63 98l11 13q45 -29 74 -75q51 46 107 75zM15 0h-28l267 532l59 118l46 10l49 -660h-28l-14 182h-259zM331 628l-209 -416h242l-32 416h-1z" />
<glyph unicode="&#x1ce;" horiz-adv-x="492" d="M426 749l6 -9q-57 -69 -95 -140l-29 -6q-8 67 -35 146l9 9q29 -45 46 -121q51 78 98 121zM41 124q0 87 40.5 175.5t115.5 149.5t161 61q49 0 89 -20l-42 -173q-42 -173 -42 -288q0 -18 1 -29h-30v8q-1 9 -1 22q0 82 26 211q-43 -112 -106 -181.5t-124 -69.5 q-41 0 -64.5 35t-23.5 99zM73 127q0 -50 16 -81.5t45 -31.5q63 0 141 117t125 287q2 11 11 49q-35 19 -76 19q-69 0 -131 -58.5t-96.5 -141t-34.5 -159.5z" />
<glyph unicode="&#x1cf;" horiz-adv-x="245" d="M328 842l5 -13q-64 -48 -102 -92l-32 -6q-21 50 -63 98l11 13q45 -29 74 -75q51 46 107 75zM87 0h-28l114 535l17 115l37 10z" />
<glyph unicode="&#x1d0;" horiz-adv-x="220" d="M239 737l10 -7q-45 -66 -85 -142l-33 -6q-9 79 -25 148l12 7q20 -50 35 -120q51 75 86 120zM173 510q-56 -265 -69 -339t-13 -142q0 -18 1 -29h-30v10q-1 9 -1 13q0 104 39 285l16 74l17 118z" />
<glyph unicode="&#x1d1;" horiz-adv-x="584" d="M500 842l5 -13q-64 -48 -102 -92l-32 -6q-21 50 -63 98l11 13q45 -29 74 -75q51 46 107 75zM543 444q0 -102 -38 -205.5t-111 -176t-160 -72.5q-77 0 -119 57.5t-42 159.5q0 101 38 204.5t111 176t160 72.5q77 0 119 -57t42 -159zM105 213q0 -93 36.5 -146t103.5 -53 q59 0 110.5 40.5t84.5 103.5t52 136.5t19 141.5q0 94 -36 147t-103 53q-77 0 -140.5 -69.5t-95 -165.5t-31.5 -188z" />
<glyph unicode="&#x1d2;" horiz-adv-x="471" d="M416 749l6 -9q-57 -69 -95 -140l-29 -6q-8 67 -35 146l9 9q29 -45 46 -121q51 78 98 121zM425 356q0 -80 -33.5 -163t-95 -141t-131.5 -58q-57 0 -88.5 37t-31.5 108q0 82 34.5 166.5t96 142.5t130.5 58q59 0 89 -40t30 -110zM79 148q0 -66 27 -99t71 -33q56 0 107 53 t79.5 130.5t28.5 150.5q0 62 -24.5 98t-70.5 36q-55 0 -107 -53.5t-81.5 -131t-29.5 -151.5z" />
<glyph unicode="&#x1d3;" horiz-adv-x="568" d="M495 842l5 -13q-64 -48 -102 -92l-32 -6q-21 50 -63 98l11 13q45 -29 74 -75q51 46 107 75zM242 14q71 0 118.5 53.5t68.5 152.5l67 315l17 115l37 10l-92 -430q-25 -116 -83 -178t-143 -62q-67 0 -102.5 37t-35.5 103q0 32 10.5 85t67.5 320l18 115l37 10 q-20 -96 -50 -234q-38 -178 -46 -220.5t-8 -68.5q0 -58 31 -90.5t88 -32.5z" />
<glyph unicode="&#x1d4;" d="M397 749l6 -9q-57 -69 -95 -140l-29 -6q-8 67 -35 146l9 9q29 -45 46 -121q51 78 98 121zM358 0h-30q0 1 -0.5 9.5t-0.5 20.5q0 37 26 188q-40 -102 -98 -165t-120 -63q-35 0 -57 21.5t-22 69.5q0 6 0.5 11.5t1.5 13.5t2 15.5t4 22.5t6 27.5t8 37t10 46t13 59t15 71.5 l17 115l40 10q-13 -60 -29.5 -134t-24.5 -112.5t-16.5 -79.5t-12 -63.5t-3.5 -36.5q0 -32 16 -51t43 -19q68 0 140.5 119t95.5 249q10 60 11 64l3 26q3 26 3 28l40 10q-56 -265 -69 -339t-13 -142q0 -18 1 -29z" />
<glyph unicode="&#x1d5;" horiz-adv-x="568" d="M340 944l7 33h190l-7 -33h-190zM345 802q0 -21 -10 -37t-26 -16q-19 0 -19 23q0 20 11.5 36t26.5 16q17 0 17 -22zM513 801q0 -19 -10 -35.5t-26 -16.5q-19 0 -19 24q0 19 11 35t27 16q17 0 17 -23zM242 14q71 0 118.5 53.5t68.5 152.5l67 315l17 115l37 10l-92 -430 q-25 -116 -83 -178t-143 -62q-67 0 -102.5 37t-35.5 103q0 32 10.5 85t67.5 320l18 115l37 10q-20 -96 -50 -234q-38 -178 -46 -220.5t-8 -68.5q0 -58 31 -90.5t88 -32.5z" />
<glyph unicode="&#x1d6;" d="M259 839l6 26h200l-6 -26h-200zM276 659q-9 -41 -36 -41q-25 0 -18 34q4 17 14.5 29t22.5 12q24 0 17 -34zM417 659q-7 -41 -35 -41q-25 0 -18 34q4 17 14 29t23 12q11 0 15.5 -9.5t0.5 -24.5zM358 0h-30q0 1 -0.5 9.5t-0.5 20.5q0 37 26 188q-40 -102 -98 -165t-120 -63 q-35 0 -57 21.5t-22 69.5q0 6 0.5 11.5t1.5 13.5t2 15.5t4 22.5t6 27.5t8 37t10 46t13 59t15 71.5l17 115l40 10q-13 -60 -29.5 -134t-24.5 -112.5t-16.5 -79.5t-12 -63.5t-3.5 -36.5q0 -32 16 -51t43 -19q68 0 140.5 119t95.5 249q10 60 11 64l3 26q3 26 3 28l40 10 q-56 -265 -69 -339t-13 -142q0 -18 1 -29z" />
<glyph unicode="&#x1d7;" horiz-adv-x="568" d="M517 990q-72 -57 -156 -84l-4 17q69 37 134 92zM345 802q0 -21 -10 -37t-26 -16q-19 0 -19 23q0 20 11.5 36t26.5 16q17 0 17 -22zM513 801q0 -19 -10 -35.5t-26 -16.5q-19 0 -19 24q0 19 11 35t27 16q17 0 17 -23zM242 14q71 0 118.5 53.5t68.5 152.5l67 315l17 115 l37 10l-92 -430q-25 -116 -83 -178t-143 -62q-67 0 -102.5 37t-35.5 103q0 32 10.5 85t67.5 320l18 115l37 10q-20 -96 -50 -234q-38 -178 -46 -220.5t-8 -68.5q0 -58 31 -90.5t88 -32.5z" />
<glyph unicode="&#x1d8;" d="M424 923q-49 -86 -113 -149l-13 6q56 70 93 146zM276 659q-9 -41 -36 -41q-25 0 -18 34q4 17 14.5 29t22.5 12q24 0 17 -34zM417 659q-7 -41 -35 -41q-25 0 -18 34q4 17 14 29t23 12q11 0 15.5 -9.5t0.5 -24.5zM358 0h-30q0 1 -0.5 9.5t-0.5 20.5q0 37 26 188 q-40 -102 -98 -165t-120 -63q-35 0 -57 21.5t-22 69.5q0 6 0.5 11.5t1.5 13.5t2 15.5t4 22.5t6 27.5t8 37t10 46t13 59t15 71.5l17 115l40 10q-13 -60 -29.5 -134t-24.5 -112.5t-16.5 -79.5t-12 -63.5t-3.5 -36.5q0 -32 16 -51t43 -19q68 0 140.5 119t95.5 249q10 60 11 64 l3 26q3 26 3 28l40 10q-56 -265 -69 -339t-13 -142q0 -18 1 -29z" />
<glyph unicode="&#x1d9;" horiz-adv-x="568" d="M532 1016l5 -13q-64 -48 -102 -92l-32 -6q-21 50 -63 98l11 13q45 -29 74 -75q51 46 107 75zM345 802q0 -21 -10 -37t-26 -16q-19 0 -19 23q0 20 11.5 36t26.5 16q17 0 17 -22zM513 801q0 -19 -10 -35.5t-26 -16.5q-19 0 -19 24q0 19 11 35t27 16q17 0 17 -23zM242 14 q71 0 118.5 53.5t68.5 152.5l67 315l17 115l37 10l-92 -430q-25 -116 -83 -178t-143 -62q-67 0 -102.5 37t-35.5 103q0 32 10.5 85t67.5 320l18 115l37 10q-20 -96 -50 -234q-38 -178 -46 -220.5t-8 -68.5q0 -58 31 -90.5t88 -32.5z" />
<glyph unicode="&#x1da;" d="M438 942l6 -9q-57 -69 -95 -140l-29 -6q-8 67 -35 146l9 9q29 -45 46 -121q51 78 98 121zM276 659q-9 -41 -36 -41q-25 0 -18 34q4 17 14.5 29t22.5 12q24 0 17 -34zM417 659q-7 -41 -35 -41q-25 0 -18 34q4 17 14 29t23 12q11 0 15.5 -9.5t0.5 -24.5zM358 0h-30 q0 1 -0.5 9.5t-0.5 20.5q0 37 26 188q-40 -102 -98 -165t-120 -63q-35 0 -57 21.5t-22 69.5q0 6 0.5 11.5t1.5 13.5t2 15.5t4 22.5t6 27.5t8 37t10 46t13 59t15 71.5l17 115l40 10q-13 -60 -29.5 -134t-24.5 -112.5t-16.5 -79.5t-12 -63.5t-3.5 -36.5q0 -32 16 -51t43 -19 q68 0 140.5 119t95.5 249q10 60 11 64l3 26q3 26 3 28l40 10q-56 -265 -69 -339t-13 -142q0 -18 1 -29z" />
<glyph unicode="&#x1db;" horiz-adv-x="568" d="M506 922l-11 -17q-74 27 -124 84l35 25q42 -53 100 -92zM345 802q0 -21 -10 -37t-26 -16q-19 0 -19 23q0 20 11.5 36t26.5 16q17 0 17 -22zM513 801q0 -19 -10 -35.5t-26 -16.5q-19 0 -19 24q0 19 11 35t27 16q17 0 17 -23zM242 14q71 0 118.5 53.5t68.5 152.5l67 315 l17 115l37 10l-92 -430q-25 -116 -83 -178t-143 -62q-67 0 -102.5 37t-35.5 103q0 32 10.5 85t67.5 320l18 115l37 10q-20 -96 -50 -234q-38 -178 -46 -220.5t-8 -68.5q0 -58 31 -90.5t88 -32.5z" />
<glyph unicode="&#x1dc;" d="M392 780l-13 -5q-38 63 -49 149l31 2q6 -78 31 -146zM276 659q-9 -41 -36 -41q-25 0 -18 34q4 17 14.5 29t22.5 12q24 0 17 -34zM417 659q-7 -41 -35 -41q-25 0 -18 34q4 17 14 29t23 12q11 0 15.5 -9.5t0.5 -24.5zM358 0h-30q0 1 -0.5 9.5t-0.5 20.5q0 37 26 188 q-40 -102 -98 -165t-120 -63q-35 0 -57 21.5t-22 69.5q0 6 0.5 11.5t1.5 13.5t2 15.5t4 22.5t6 27.5t8 37t10 46t13 59t15 71.5l17 115l40 10q-13 -60 -29.5 -134t-24.5 -112.5t-16.5 -79.5t-12 -63.5t-3.5 -36.5q0 -32 16 -51t43 -19q68 0 140.5 119t95.5 249q10 60 11 64 l3 26q3 26 3 28l40 10q-56 -265 -69 -339t-13 -142q0 -18 1 -29z" />
<glyph unicode="&#x1e6;" horiz-adv-x="517" d="M516 842l5 -13q-64 -48 -102 -92l-32 -6q-21 50 -63 98l11 13q45 -29 74 -75q51 46 107 75zM400 29q-64 -39 -144 -39q-89 0 -136 58.5t-47 165.5q0 78 25 157t68.5 143.5t108.5 105t139 40.5q60 0 109 -27l-17 -34q-42 37 -106 37q-65 0 -122 -38.5t-94 -99.5t-58 -133 t-21 -142q0 -99 41.5 -153.5t120.5 -54.5q57 0 109 26l21 102l18 115l36 10z" />
<glyph unicode="&#x1e7;" horiz-adv-x="429" d="M369 749l6 -9q-57 -69 -95 -140l-29 -6q-8 67 -35 146l9 9q29 -45 46 -121q51 78 98 121zM331 -55q0 -58 -69 -99t-161 -41q-69 0 -106 26t-37 71q0 39 24.5 70t51.5 45l7 -11q-55 -48 -55 -98q0 -37 31.5 -58t89.5 -21q73 0 134.5 31t61.5 77q0 29 -30.5 50.5t-67.5 32 t-67.5 28t-30.5 39.5q0 34 71 77v1q-98 0 -98 104q0 54 25 109t71 93.5t98 38.5q101 0 176 5q3 -6 3 -11q0 -10 -9.5 -17t-25.5 -7q-28 0 -97 20l-2 -2q48 -21 48 -97q0 -144 -157 -242q-3 -2 -10.5 -6.5t-12 -7t-11 -7t-10.5 -7.5t-9.5 -7.5t-8.5 -8t-6 -7.5t-4.5 -7.5 t-1.5 -7.5q0 -15 30.5 -28.5t67 -24t67 -35t30.5 -60.5zM110 274q0 -44 18.5 -66.5t49.5 -22.5q59 0 109 71t50 143q0 40 -18.5 64t-53.5 24q-62 0 -108.5 -69t-46.5 -144z" />
<glyph unicode="&#x1ea;" horiz-adv-x="598" d="M558 444q0 -128 -60 -254.5t-155 -175.5q-127 -74 -127 -132q0 -35 40 -35q24 0 54 15l4 -16q-31 -22 -73 -22q-28 0 -44 13t-16 35q0 55 94 120q-16 -2 -26 -2q-77 0 -119 57.5t-42 159.5q0 101 38 204.5t111 176t160 72.5q77 0 119 -57t42 -159zM120 213 q0 -93 36.5 -146t103.5 -53q59 0 110.5 40.5t84.5 103.5t52 136.5t19 141.5q0 94 -36 147t-103 53q-77 0 -140.5 -69.5t-95 -165.5t-31.5 -188z" />
<glyph unicode="&#x1eb;" horiz-adv-x="471" d="M425 356q0 -93 -46.5 -190t-118.5 -143q-55 -40 -80 -73.5t-25 -71.5q0 -31 40 -31q24 0 54 15l4 -16q-31 -22 -74 -22q-27 0 -43 11.5t-16 32.5q0 65 77 129q-15 -3 -32 -3q-57 0 -88.5 37t-31.5 108q0 82 34.5 166.5t96 142.5t130.5 58q59 0 89 -40t30 -110zM79 148 q0 -66 27 -99t71 -33q56 0 107 53t79.5 130.5t28.5 150.5q0 62 -24.5 98t-70.5 36q-55 0 -107 -53.5t-81.5 -131t-29.5 -151.5z" />
<glyph unicode="&#x1f4;" horiz-adv-x="517" d="M501 816q-72 -57 -156 -84l-4 17q69 37 134 92zM400 29q-64 -39 -144 -39q-89 0 -136 58.5t-47 165.5q0 78 25 157t68.5 143.5t108.5 105t139 40.5q60 0 109 -27l-17 -34q-42 37 -106 37q-65 0 -122 -38.5t-94 -99.5t-58 -133t-21 -142q0 -99 41.5 -153.5t120.5 -54.5 q57 0 109 26l21 102l18 115l36 10z" />
<glyph unicode="&#x1f5;" horiz-adv-x="429" d="M342 730q-49 -86 -113 -149l-13 6q56 70 93 146zM331 -55q0 -58 -69 -99t-161 -41q-69 0 -106 26t-37 71q0 39 24.5 70t51.5 45l7 -11q-55 -48 -55 -98q0 -37 31.5 -58t89.5 -21q73 0 134.5 31t61.5 77q0 29 -30.5 50.5t-67.5 32t-67.5 28t-30.5 39.5q0 34 71 77v1 q-98 0 -98 104q0 54 25 109t71 93.5t98 38.5q101 0 176 5q3 -6 3 -11q0 -10 -9.5 -17t-25.5 -7q-28 0 -97 20l-2 -2q48 -21 48 -97q0 -144 -157 -242q-3 -2 -10.5 -6.5t-12 -7t-11 -7t-10.5 -7.5t-9.5 -7.5t-8.5 -8t-6 -7.5t-4.5 -7.5t-1.5 -7.5q0 -15 30.5 -28.5t67 -24 t67 -35t30.5 -60.5zM110 274q0 -44 18.5 -66.5t49.5 -22.5q59 0 109 71t50 143q0 40 -18.5 64t-53.5 24q-62 0 -108.5 -69t-46.5 -144z" />
<glyph unicode="&#x1fa;" horiz-adv-x="501" d="M485 1008q-72 -57 -156 -84l-4 17q69 37 134 92zM434 808q0 -35 -26.5 -63t-58.5 -28q-23 0 -37 14.5t-14 37.5q0 35 26.5 62.5t60.5 27.5q22 0 35.5 -14t13.5 -37zM326 776q0 -33 28 -33q20 0 36 18t16 40q0 14 -8 23t-21 9q-20 0 -35.5 -17.5t-15.5 -39.5zM15 0h-28 l267 532l59 118l46 10l49 -660h-28l-14 182h-259zM331 628l-209 -416h242l-32 416h-1z" />
<glyph unicode="&#x1fb;" horiz-adv-x="492" d="M463 968q-49 -86 -113 -149l-13 6q56 70 93 146zM417 682q0 -39 -26 -69.5t-58 -30.5q-22 0 -36.5 16t-14.5 41q0 40 27 69.5t59 29.5q22 0 35.5 -15.5t13.5 -40.5zM309 645q0 -17 8 -27.5t21 -10.5q19 0 36 20.5t17 48.5q0 17 -8.5 27t-21.5 10q-20 0 -36 -20t-16 -48z M41 124q0 87 40.5 175.5t115.5 149.5t161 61q49 0 89 -20l-42 -173q-42 -173 -42 -288q0 -18 1 -29h-30v8q-1 9 -1 22q0 82 26 211q-43 -112 -106 -181.5t-124 -69.5q-41 0 -64.5 35t-23.5 99zM73 127q0 -50 16 -81.5t45 -31.5q63 0 141 117t125 287q2 11 11 49 q-35 19 -76 19q-69 0 -131 -58.5t-96.5 -141t-34.5 -159.5z" />
<glyph unicode="&#x1fc;" horiz-adv-x="735" d="M582 816q-72 -57 -156 -84l-4 17q69 37 134 92zM15 0h-28l353 532l74 118h278l-11 -31l-224 5l-33 -289l198 3l-11 -31l-190 2l-33 -283l250 5l-11 -31h-270l22 182h-243zM433 628l-277 -416h227z" />
<glyph unicode="&#x1fd;" horiz-adv-x="710" d="M538 730q-49 -86 -113 -149l-13 6q56 70 93 146zM41 124q0 87 40.5 175.5t116 149.5t163.5 61q63 0 124 -33q47 33 97 33q42 0 68 -22.5t26 -64.5q0 -69 -69.5 -125.5t-184.5 -68.5q-26 -4 -49 -2q-7 -32 -7 -68q0 -66 25.5 -105.5t73.5 -39.5q77 0 155 100l14 -8 q-33 -52 -82.5 -84t-97.5 -32q-55 0 -87.5 44t-32.5 123q0 19 1 28q-44 -89 -98.5 -142t-107.5 -53q-41 0 -64.5 35t-23.5 99zM73 127q0 -50 16 -81.5t47 -31.5q50 0 112.5 80.5t111.5 206.5q35 94 94 150q-59 35 -116 35q-70 0 -133 -58.5t-97.5 -141t-34.5 -159.5z M570 486q-62 0 -117 -72.5t-77 -168.5q136 8 202 60t66 110q0 31 -20 51t-54 20z" />
<glyph unicode="&#x1fe;" horiz-adv-x="584" d="M485 816q-72 -57 -156 -84l-4 17q69 37 134 92zM543 444q0 -102 -38 -205.5t-111 -176t-160 -72.5q-99 0 -138 92l-98 -102l-14 19l103 107q-14 45 -14 101q0 101 38 204.5t111 176t160 72.5q103 0 142 -99l97 102l15 -18l-104 -109q11 -42 11 -92zM105 213q0 -42 8 -79 l385 401q-32 101 -126 101q-77 0 -140.5 -69.5t-95 -165.5t-31.5 -188zM511 436q0 41 -7 72l-383 -400q33 -94 124 -94q59 0 110.5 40.5t84.5 103.5t52 136.5t19 141.5z" />
<glyph unicode="&#x1ff;" horiz-adv-x="471" d="M402 730q-49 -86 -113 -149l-13 6q56 70 93 146zM425 356q0 -80 -33.5 -163t-95 -141t-131.5 -58q-78 0 -106 67l-55 -54l-12 16l60 59q-7 24 -7 57q0 82 34.5 166.5t96 142.5t130.5 58q77 0 106 -70l57 57l13 -16l-64 -62q7 -25 7 -59zM79 148q0 -20 3 -37l303 299 q-21 74 -88 74q-55 0 -107 -53.5t-81.5 -131t-29.5 -151.5zM392 350q0 14 -2 36l-303 -298q21 -72 90 -72q56 0 107 53t79.5 130.5t28.5 150.5z" />
<glyph unicode="&#x218;" horiz-adv-x="420" d="M340 171q0 -75 -59.5 -128t-144.5 -53q-65 0 -125 29l13 35q18 -15 52.5 -27.5t72.5 -12.5q69 0 114.5 44t45.5 105q0 37 -19 68.5t-46 56t-54.5 49.5t-46.5 60t-19 76q0 77 58.5 132t144.5 55q61 0 105 -22l-12 -35q-13 12 -42 22.5t-63 10.5q-68 0 -114 -45.5 t-46 -106.5q0 -36 19 -68.5t46.5 -58t54.5 -51.5t46 -60.5t19 -74.5zM154 -126q-12 -60 -61 -118l-6 5q22 41 35 87h-1q-24 6 -18 33q3 15 12.5 25t21.5 10q25 0 17 -42z" />
<glyph unicode="&#x219;" horiz-adv-x="365" d="M287 128q0 -58 -50.5 -98t-126.5 -40q-61 0 -115 25l13 35q47 -36 115 -36q59 0 97 30.5t38 76.5q0 34 -20.5 59.5t-64.5 60.5q-30 24 -42 34.5t-27 36.5t-15 54q0 59 50 101.5t126 42.5q58 0 94 -17l-13 -35q-35 28 -92 28q-60 0 -98 -34t-38 -79q0 -30 17.5 -53.5 t54.5 -54.5q3 -3 18 -15t20.5 -17t17.5 -16.5t17 -19.5t12 -19.5t9.5 -23.5t2.5 -26zM142 -126q-12 -60 -61 -118l-6 5q22 41 35 87h-1q-24 6 -18 33q3 15 12.5 25t21.5 10q25 0 17 -42z" />
<glyph unicode="&#x21a;" horiz-adv-x="411" d="M167 0h-28l132 624l-168 -5l11 31h352l-2 -31l-165 5zM154 -126q-12 -60 -61 -118l-6 5q22 41 35 87h-1q-24 6 -18 33q3 15 12.5 25t21.5 10q25 0 17 -42z" />
<glyph unicode="&#x21b;" horiz-adv-x="375" d="M314 106q-77 -116 -172 -116q-74 0 -74 81q0 23 37 196q24 109 41 188l-52 1l3 16l54 4l40 155l22 3q-5 -25 -16.5 -78.5t-16.5 -79.5h179l-7 -25l-177 3q-77 -361 -77 -383q0 -57 55 -57q69 0 147 100zM159 -126q-12 -60 -61 -118l-6 5q22 41 35 87h-1q-24 6 -18 33 q3 15 12.5 25t21.5 10q25 0 17 -42z" />
<glyph unicode="&#x232;" horiz-adv-x="481" d="M257 770l7 33h190l-7 -33h-190zM200 0h-27l45 213l-93 437l27 10l88 -410h1l262 410l23 -10l-280 -438z" />
<glyph unicode="&#x233;" horiz-adv-x="395" d="M150 646l6 26h200l-6 -26h-200zM148 -10q-60 -78 -129 -131.5t-120 -53.5q-38 0 -38 23q0 11 8 19q16 -6 34 -6q43 0 110 48.5t116 113.5l-12 1q0 103 -9 260q-7 127 -28 236l29 10q18 -101 28 -241q9 -126 9 -244h1q84 128 139 257t55 220q9 8 19 8q14 0 14 -18 q0 -66 -65.5 -222.5t-160.5 -279.5z" />
<glyph unicode="&#x237;" horiz-adv-x="216" d="M176 510q-6 -30 -112 -526q-25 -119 -137 -179l-8 18q46 28 74.5 66t41.5 98l85 398l17 115z" />
<glyph unicode="&#x259;" horiz-adv-x="425" d="M90 386l-14 8q33 52 82.5 84t97.5 32q55 0 87.5 -44t32.5 -123q0 -82 -33.5 -163.5t-91.5 -135.5t-123 -54q-42 0 -68 22.5t-26 64.5q0 70 70 126t184 68q26 4 49 2q7 32 7 68q0 66 -25.5 105.5t-73.5 39.5q-77 0 -155 -100zM66 85q0 -31 20 -51t54 -20q62 0 117 72.5 t77 168.5q-136 -8 -202 -60t-66 -110z" />
<glyph unicode="&#x272;" d="M368 0h-30q0 1 -0.5 9.5t-0.5 19.5q0 81 29 224t29 165q0 32 -17 50t-40 18q-65 0 -140 -118t-115 -294q-3 -15 -9.5 -45t-9.5 -45q-25 -119 -137 -179l-8 18q46 28 74.5 66t41.5 98l85 398l17 115l39 10q-45 -209 -49 -229q42 103 101.5 166t119.5 63q77 0 77 -93 q0 -35 -29 -168t-29 -228q0 -4 0.5 -12t0.5 -9z" />
<glyph unicode="&#x2c6;" horiz-adv-x="299" d="M148 582l-6 9q57 69 95 140l29 6q8 -67 35 -146l-9 -9q-29 45 -46 121q-51 -78 -98 -121z" />
<glyph unicode="&#x2c7;" horiz-adv-x="299" d="M327 749l6 -9q-57 -69 -95 -140l-29 -6q-8 67 -35 146l9 9q29 -45 46 -121q51 78 98 121z" />
<glyph unicode="&#x2d8;" horiz-adv-x="314" d="M226 588q-34 0 -50.5 35.5t-4.5 99.5l17 4q-10 -111 48 -111q56 0 96 113l15 4q-16 -67 -49 -106t-72 -39z" />
<glyph unicode="&#x2d9;" horiz-adv-x="190" d="M212 670q0 -19 -11 -37t-27 -18q-20 0 -20 25q0 20 12 37.5t27 17.5q19 0 19 -25z" />
<glyph unicode="&#x2da;" horiz-adv-x="270" d="M290 682q0 -39 -26 -69.5t-58 -30.5q-22 0 -36.5 16t-14.5 41q0 40 27 69.5t59 29.5q22 0 35.5 -15.5t13.5 -40.5zM182 645q0 -17 8 -27.5t21 -10.5q19 0 36 20.5t17 48.5q0 17 -8.5 27t-21.5 10q-20 0 -36 -20t-16 -48z" />
<glyph unicode="&#x2db;" horiz-adv-x="299" d="M166 0q-54 -19 -92.5 -54t-38.5 -68q0 -31 40 -31q24 0 54 15l4 -16q-31 -22 -74 -22q-27 0 -43 11.5t-16 32.5q0 42 49.5 84.5t106.5 60.5z" />
<glyph unicode="&#x2dc;" horiz-adv-x="368" d="M230 703q23 0 49.5 -24t42.5 -24q29 0 60 51l12 -4q-8 -29 -31.5 -53t-50.5 -24q-22 0 -48 24t-43 24q-31 0 -60 -51l-11 4q10 29 32 53t48 24z" />
<glyph unicode="&#x2dd;" horiz-adv-x="334" d="M256 731q-47 -88 -108 -149l-11 6q55 69 92 145zM361 731q-47 -88 -108 -149l-11 6q55 69 92 145z" />
<glyph unicode="&#x1e0c;" horiz-adv-x="565" d="M173 535l17 115h96q20 0 33 -0.5t40 -5t45.5 -13t42 -25.5t38 -41.5t24.5 -63t10 -86.5q0 -75 -23 -147.5t-66 -133t-113.5 -97.5t-156.5 -37h-101zM275 624h-56l-126 -598h77q79 0 142 34t100.5 90t56.5 121.5t19 133.5q0 62 -17.5 106.5t-39 65.5t-56.5 32.5t-53.5 13 t-46.5 1.5zM247 -113q0 -19 -11 -37t-27 -18q-20 0 -20 25q0 20 12 37.5t27 17.5q19 0 19 -25z" />
<glyph unicode="&#x1e0d;" horiz-adv-x="493" d="M41 124q0 87 40.5 175.5t115.5 149.5t161 61q34 0 61 -9q7 33 15 69l17 115l40 10q-16 -78 -36.5 -173.5t-30 -139.5t-21.5 -102t-16.5 -84.5t-9.5 -61t-6.5 -57t-1.5 -48.5q0 -18 1 -29h-30v10q-1 9 -1 13q0 60 5.5 105t25.5 141q-44 -123 -109.5 -201t-131.5 -78 q-41 0 -64.5 35t-23.5 99zM73 127q0 -50 16 -81.5t45 -31.5q68 0 151.5 133.5t126.5 319.5q-36 19 -77 19q-69 0 -131 -58.5t-96.5 -141t-34.5 -159.5zM215 -113q0 -19 -11 -37t-27 -18q-20 0 -20 25q0 20 12 37.5t27 17.5q19 0 19 -25z" />
<glyph unicode="&#x1e24;" horiz-adv-x="585" d="M87 0h-28l114 535l17 115l37 10l-71 -333h313l44 208l18 115l36 10l-140 -660h-27l63 297h-313zM255 -113q0 -19 -11 -37t-27 -18q-20 0 -20 25q0 20 12 37.5t27 17.5q19 0 19 -25z" />
<glyph unicode="&#x1e25;" horiz-adv-x="482" d="M364 0h-30q0 1 -0.5 9.5t-0.5 19.5q0 81 29 224t29 165q0 32 -17 50t-40 18q-33 0 -74.5 -38.5t-78 -99t-62.5 -141.5t-29 -159v-28l1 -20h-30q0 1 -0.5 8.5t-0.5 21.5q0 95 39 278l56 262l17 115l40 10q-16 -76 -35.5 -166.5t-32 -148.5t-20.5 -98q42 103 101 165.5 t119 62.5q77 0 77 -93q0 -35 -29 -168t-29 -228q0 -4 0.5 -12t0.5 -9zM243 -113q0 -19 -11 -37t-27 -18q-20 0 -20 25q0 20 12 37.5t27 17.5q19 0 19 -25z" />
<glyph unicode="&#x1e44;" horiz-adv-x="587" d="M437 803q0 -19 -11 -37t-27 -18q-20 0 -20 25q0 20 12 37.5t27 17.5q19 0 19 -25zM173 535l17 115l45 10l173 -632h2l127 622l32 10l-140 -660h-42l-171 623h-1l-128 -623h-28z" />
<glyph unicode="&#x1e45;" horiz-adv-x="483" d="M342 670q0 -19 -11 -37t-27 -18q-20 0 -20 25q0 20 12 37.5t27 17.5q19 0 19 -25zM92 0h-30v10q-1 9 -1 13q0 68 9.5 128.5t45.5 232.5l17 116l40 10q-46 -221 -47 -226q42 102 100.5 164t118.5 62q77 0 77 -93q0 -35 -29 -168t-29 -228q0 -4 0.5 -12t0.5 -9h-30 q0 1 -0.5 9.5t-0.5 19.5q0 81 29 224t29 165q0 32 -17 50t-40 18q-46 0 -103.5 -67t-99 -176.5t-41.5 -214.5q0 -18 1 -28z" />
<glyph unicode="&#x1e5a;" horiz-adv-x="474" d="M87 0h-28l114 535l17 115h100q83 0 124.5 -37.5t41.5 -107.5q0 -79 -45 -139.5t-127 -83.5l92 -282l-31 -10l-91 285q-32 -5 -60 -5h-50zM279 624h-60l-69 -328h54q107 0 164.5 59.5t57.5 142.5q0 126 -147 126zM221 -113q0 -19 -11 -37t-27 -18q-20 0 -20 25 q0 20 12 37.5t27 17.5q19 0 19 -25z" />
<glyph unicode="&#x1e5b;" horiz-adv-x="344" d="M92 0h-30v10q-1 9 -1 13q0 68 9.5 128.5t45.5 232.5l17 116l40 10q-8 -39 -21 -98.5t-17 -80.5q32 82 75.5 130.5t92.5 48.5q40 0 68 -14l-14 -32q-26 22 -65 22q-42 0 -89.5 -68.5t-79.5 -177t-32 -212.5q0 -18 1 -28zM88 -113q0 -19 -11 -37t-27 -18q-20 0 -20 25 q0 20 12 37.5t27 17.5q19 0 19 -25z" />
<glyph unicode="&#x1e62;" horiz-adv-x="420" d="M340 171q0 -75 -59.5 -128t-144.5 -53q-65 0 -125 29l13 35q18 -15 52.5 -27.5t72.5 -12.5q69 0 114.5 44t45.5 105q0 37 -19 68.5t-46 56t-54.5 49.5t-46.5 60t-19 76q0 77 58.5 132t144.5 55q61 0 105 -22l-12 -35q-13 12 -42 22.5t-63 10.5q-68 0 -114 -45.5 t-46 -106.5q0 -36 19 -68.5t46.5 -58t54.5 -51.5t46 -60.5t19 -74.5zM158 -113q0 -19 -11 -37t-27 -18q-20 0 -20 25q0 20 12 37.5t27 17.5q19 0 19 -25z" />
<glyph unicode="&#x1e63;" horiz-adv-x="365" d="M287 128q0 -58 -50.5 -98t-126.5 -40q-61 0 -115 25l13 35q47 -36 115 -36q59 0 97 30.5t38 76.5q0 34 -20.5 59.5t-64.5 60.5q-30 24 -42 34.5t-27 36.5t-15 54q0 59 50 101.5t126 42.5q58 0 94 -17l-13 -35q-35 28 -92 28q-60 0 -98 -34t-38 -79q0 -30 17.5 -53.5 t54.5 -54.5q3 -3 18 -15t20.5 -17t17.5 -16.5t17 -19.5t12 -19.5t9.5 -23.5t2.5 -26zM146 -113q0 -19 -11 -37t-27 -18q-20 0 -20 25q0 20 12 37.5t27 17.5q19 0 19 -25z" />
<glyph unicode="&#x1e6c;" horiz-adv-x="411" d="M167 0h-28l132 624l-168 -5l11 31h352l-2 -31l-165 5zM158 -113q0 -19 -11 -37t-27 -18q-20 0 -20 25q0 20 12 37.5t27 17.5q19 0 19 -25z" />
<glyph unicode="&#x1e6d;" horiz-adv-x="375" d="M314 106q-77 -116 -172 -116q-74 0 -74 81q0 23 37 196q24 109 41 188l-52 1l3 16l54 4l40 155l22 3q-5 -25 -16.5 -78.5t-16.5 -79.5h179l-7 -25l-177 3q-77 -361 -77 -383q0 -57 55 -57q69 0 147 100zM163 -113q0 -19 -11 -37t-27 -18q-20 0 -20 25q0 20 12 37.5 t27 17.5q19 0 19 -25z" />
<glyph unicode="&#x1e80;" horiz-adv-x="771" d="M568 748l-11 -17q-74 27 -124 84l35 25q42 -53 100 -92zM143 0l-18 650l27 10l17 -635h1l287 625h28l20 -625h1l287 635l23 -10l-295 -650h-40l-20 600h-2l-275 -600h-41z" />
<glyph unicode="&#x1e81;" horiz-adv-x="636" d="M401 587l-13 -5q-38 63 -49 149l31 2q6 -78 31 -146zM102 256q-9 150 -27 244l29 10q14 -77 26 -251q7 -115 7 -234h1q82 125 136 255t54 220l29 10q18 -102 26 -243q7 -119 7 -242h1q82 126 136 255.5t54 221.5q9 8 19 8q14 0 14 -18q0 -68 -64 -224t-157 -277l-32 9 q2 197 -18 422q-14 -86 -71.5 -210t-131.5 -221l-32 9q0 152 -6 256z" />
<glyph unicode="&#x1e82;" horiz-adv-x="771" d="M579 816q-72 -57 -156 -84l-4 17q69 37 134 92zM143 0l-18 650l27 10l17 -635h1l287 625h28l20 -625h1l287 635l23 -10l-295 -650h-40l-20 600h-2l-275 -600h-41z" />
<glyph unicode="&#x1e83;" horiz-adv-x="636" d="M433 730q-49 -86 -113 -149l-13 6q56 70 93 146zM102 256q-9 150 -27 244l29 10q14 -77 26 -251q7 -115 7 -234h1q82 125 136 255t54 220l29 10q18 -102 26 -243q7 -119 7 -242h1q82 126 136 255.5t54 221.5q9 8 19 8q14 0 14 -18q0 -68 -64 -224t-157 -277l-32 9 q2 197 -18 422q-14 -86 -71.5 -210t-131.5 -221l-32 9q0 152 -6 256z" />
<glyph unicode="&#x1e84;" horiz-adv-x="771" d="M444 802q0 -21 -10 -37t-26 -16q-19 0 -19 23q0 20 11.5 36t26.5 16q17 0 17 -22zM612 801q0 -19 -10 -35.5t-26 -16.5q-19 0 -19 24q0 19 11 35t27 16q17 0 17 -23zM143 0l-18 650l27 10l17 -635h1l287 625h28l20 -625h1l287 635l23 -10l-295 -650h-40l-20 600h-2 l-275 -600h-41z" />
<glyph unicode="&#x1e85;" horiz-adv-x="636" d="M326 659q-9 -41 -36 -41q-25 0 -18 34q4 17 14.5 29t22.5 12q24 0 17 -34zM467 659q-7 -41 -35 -41q-25 0 -18 34q4 17 14 29t23 12q11 0 15.5 -9.5t0.5 -24.5zM102 256q-9 150 -27 244l29 10q14 -77 26 -251q7 -115 7 -234h1q82 125 136 255t54 220l29 10 q18 -102 26 -243q7 -119 7 -242h1q82 126 136 255.5t54 221.5q9 8 19 8q14 0 14 -18q0 -68 -64 -224t-157 -277l-32 9q2 197 -18 422q-14 -86 -71.5 -210t-131.5 -221l-32 9q0 152 -6 256z" />
<glyph unicode="&#x1e92;" horiz-adv-x="436" d="M338 0h-345l-2 18l444 604q-245 0 -310 -7l12 35h334l1 -18l-444 -604q119 0 155.5 0.5t79.5 4t89 12.5zM168 -113q0 -19 -11 -37t-27 -18q-20 0 -20 25q0 20 12 37.5t27 17.5q19 0 19 -25z" />
<glyph unicode="&#x1e93;" horiz-adv-x="415" d="M3 -10l-7 14q215 228 325 430q-76 44 -150 44q-46 0 -65 -50l-22 5q10 43 31.5 60t56.5 17q70 0 158 -60q20 40 29 60q23 0 23 -15q0 -36 -106 -187.5t-214 -262.5q41 -1 86.5 -12t63.5 -11q35 0 57.5 13.5t38.5 55.5l22 -5q-15 -53 -43.5 -74.5t-73.5 -21.5 q-25 0 -68.5 15t-69.5 15q-39 0 -72 -30zM159 -113q0 -19 -11 -37t-27 -18q-20 0 -20 25q0 20 12 37.5t27 17.5q19 0 19 -25z" />
<glyph unicode="&#x1e9e;" horiz-adv-x="544" d="M79 77l78 367q22 102 86.5 159t138.5 57q52 0 87 -29t40 -80l-199 -178q37 -25 57 -40.5t46.5 -41t38.5 -54t12 -62.5q0 -75 -57.5 -130t-138.5 -55q-56 0 -105 25l6 29q42 -30 103 -30q66 0 114.5 47t48.5 112q0 57 -36.5 96.5t-115.5 92.5l3 19l195 174 q-7 40 -34.5 60.5t-64.5 20.5q-67 0 -123.5 -55t-73.5 -134l-79 -369q-9 -47 -30 -88l-24 10q19 42 27 77z" />
<glyph unicode="&#x1ea0;" horiz-adv-x="501" d="M15 0h-28l267 532l59 118l46 10l49 -660h-28l-14 182h-259zM331 628l-209 -416h242l-32 416h-1zM200 -113q0 -19 -11 -37t-27 -18q-20 0 -20 25q0 20 12 37.5t27 17.5q19 0 19 -25z" />
<glyph unicode="&#x1ea1;" horiz-adv-x="492" d="M41 124q0 87 40.5 175.5t115.5 149.5t161 61q49 0 89 -20l-42 -173q-42 -173 -42 -288q0 -18 1 -29h-30v8q-1 9 -1 22q0 82 26 211q-43 -112 -106 -181.5t-124 -69.5q-41 0 -64.5 35t-23.5 99zM73 127q0 -50 16 -81.5t45 -31.5q63 0 141 117t125 287q2 11 11 49 q-35 19 -76 19q-69 0 -131 -58.5t-96.5 -141t-34.5 -159.5zM189 -113q0 -19 -11 -37t-27 -18q-20 0 -20 25q0 20 12 37.5t27 17.5q19 0 19 -25z" />
<glyph unicode="&#x1eb8;" horiz-adv-x="439" d="M331 0h-272l114 535l17 115h283l-11 -31l-243 5l-61 -289l172 3l-11 -31l-166 2l-60 -283l249 5zM216 -113q0 -19 -11 -37t-27 -18q-20 0 -20 25q0 20 12 37.5t27 17.5q19 0 19 -25z" />
<glyph unicode="&#x1eb9;" horiz-adv-x="425" d="M335 114l14 -8q-33 -52 -82.5 -84t-97.5 -32q-55 0 -87.5 44t-32.5 123q0 82 33.5 163.5t91.5 135.5t123 54q42 0 68 -22.5t26 -64.5q0 -70 -70 -126t-184 -68q-26 -4 -49 -2q-7 -32 -7 -68q0 -66 25.5 -105.5t73.5 -39.5q77 0 155 100zM285 486q-62 0 -117 -72.5 t-77 -168.5q136 8 202 60t66 110q0 31 -20 51t-54 20zM211 -113q0 -19 -11 -37t-27 -18q-20 0 -20 25q0 20 12 37.5t27 17.5q19 0 19 -25z" />
<glyph unicode="&#x1ebc;" horiz-adv-x="439" d="M327 825q20 0 43 -21.5t38 -21.5q29 0 60 47l13 -5q-13 -29 -35.5 -51t-48.5 -22q-20 0 -42 21.5t-38 21.5q-29 0 -60 -47l-13 5q13 29 35.5 51t47.5 22zM331 0h-272l114 535l17 115h283l-11 -31l-243 5l-61 -289l172 3l-11 -31l-166 2l-60 -283l249 5z" />
<glyph unicode="&#x1ebd;" horiz-adv-x="425" d="M264 703q23 0 49.5 -24t42.5 -24q29 0 60 51l12 -4q-8 -29 -31.5 -53t-50.5 -24q-22 0 -48 24t-43 24q-31 0 -60 -51l-11 4q10 29 32 53t48 24zM335 114l14 -8q-33 -52 -82.5 -84t-97.5 -32q-55 0 -87.5 44t-32.5 123q0 82 33.5 163.5t91.5 135.5t123 54q42 0 68 -22.5 t26 -64.5q0 -70 -70 -126t-184 -68q-26 -4 -49 -2q-7 -32 -7 -68q0 -66 25.5 -105.5t73.5 -39.5q77 0 155 100zM285 486q-62 0 -117 -72.5t-77 -168.5q136 8 202 60t66 110q0 31 -20 51t-54 20z" />
<glyph unicode="&#x1eca;" horiz-adv-x="245" d="M87 0h-28l114 535l17 115l37 10zM72 -113q0 -19 -11 -37t-27 -18q-20 0 -20 25q0 20 12 37.5t27 17.5q19 0 19 -25z" />
<glyph unicode="&#x1ecb;" horiz-adv-x="220" d="M206 670q0 -19 -11 -37t-27 -18q-20 0 -20 25q0 20 12 37.5t27 17.5q19 0 19 -25zM173 510q-56 -265 -69 -339t-13 -142q0 -18 1 -29h-30v10q-1 9 -1 13q0 104 39 285l16 74l17 118zM61 -113q0 -19 -11 -37t-27 -18q-20 0 -20 25q0 20 12 37.5t27 17.5q19 0 19 -25z" />
<glyph unicode="&#x1ecc;" horiz-adv-x="584" d="M543 444q0 -102 -38 -205.5t-111 -176t-160 -72.5q-77 0 -119 57.5t-42 159.5q0 101 38 204.5t111 176t160 72.5q77 0 119 -57t42 -159zM105 213q0 -93 36.5 -146t103.5 -53q59 0 110.5 40.5t84.5 103.5t52 136.5t19 141.5q0 94 -36 147t-103 53q-77 0 -140.5 -69.5 t-95 -165.5t-31.5 -188zM241 -113q0 -19 -11 -37t-27 -18q-20 0 -20 25q0 20 12 37.5t27 17.5q19 0 19 -25z" />
<glyph unicode="&#x1ecd;" horiz-adv-x="471" d="M425 356q0 -80 -33.5 -163t-95 -141t-131.5 -58q-57 0 -88.5 37t-31.5 108q0 82 34.5 166.5t96 142.5t130.5 58q59 0 89 -40t30 -110zM79 148q0 -66 27 -99t71 -33q56 0 107 53t79.5 130.5t28.5 150.5q0 62 -24.5 98t-70.5 36q-55 0 -107 -53.5t-81.5 -131t-29.5 -151.5z M185 -113q0 -19 -11 -37t-27 -18q-20 0 -20 25q0 20 12 37.5t27 17.5q19 0 19 -25z" />
<glyph unicode="&#x1ee4;" horiz-adv-x="568" d="M242 14q71 0 118.5 53.5t68.5 152.5l67 315l17 115l37 10l-92 -430q-25 -116 -83 -178t-143 -62q-67 0 -102.5 37t-35.5 103q0 32 10.5 85t67.5 320l18 115l37 10q-20 -96 -50 -234q-38 -178 -46 -220.5t-8 -68.5q0 -58 31 -90.5t88 -32.5zM236 -113q0 -19 -11 -37 t-27 -18q-20 0 -20 25q0 20 12 37.5t27 17.5q19 0 19 -25z" />
<glyph unicode="&#x1ee5;" d="M358 0h-30q0 1 -0.5 9.5t-0.5 20.5q0 37 26 188q-40 -102 -98 -165t-120 -63q-35 0 -57 21.5t-22 69.5q0 6 0.5 11.5t1.5 13.5t2 15.5t4 22.5t6 27.5t8 37t10 46t13 59t15 71.5l17 115l40 10q-13 -60 -29.5 -134t-24.5 -112.5t-16.5 -79.5t-12 -63.5t-3.5 -36.5 q0 -32 16 -51t43 -19q68 0 140.5 119t95.5 249q10 60 11 64l3 26q3 26 3 28l40 10q-56 -265 -69 -339t-13 -142q0 -18 1 -29zM215 -113q0 -19 -11 -37t-27 -18q-20 0 -20 25q0 20 12 37.5t27 17.5q19 0 19 -25z" />
<glyph unicode="&#x1ef2;" horiz-adv-x="481" d="M423 748l-11 -17q-74 27 -124 84l35 25q42 -53 100 -92zM200 0h-27l45 213l-93 437l27 10l88 -410h1l262 410l23 -10l-280 -438z" />
<glyph unicode="&#x1ef3;" horiz-adv-x="395" d="M283 587l-13 -5q-38 63 -49 149l31 2q6 -78 31 -146zM148 -10q-60 -78 -129 -131.5t-120 -53.5q-38 0 -38 23q0 11 8 19q16 -6 34 -6q43 0 110 48.5t116 113.5l-12 1q0 103 -9 260q-7 127 -28 236l29 10q18 -101 28 -241q9 -126 9 -244h1q84 128 139 257t55 220q9 8 19 8 q14 0 14 -18q0 -66 -65.5 -222.5t-160.5 -279.5z" />
<glyph unicode="&#x1ef8;" horiz-adv-x="481" d="M320 825q20 0 43 -21.5t38 -21.5q29 0 60 47l13 -5q-13 -29 -35.5 -51t-48.5 -22q-20 0 -42 21.5t-38 21.5q-29 0 -60 -47l-13 5q13 29 35.5 51t47.5 22zM200 0h-27l45 213l-93 437l27 10l88 -410h1l262 410l23 -10l-280 -438z" />
<glyph unicode="&#x1ef9;" horiz-adv-x="395" d="M217 703q23 0 49.5 -24t42.5 -24q29 0 60 51l12 -4q-8 -29 -31.5 -53t-50.5 -24q-23 0 -49 24t-42 24q-31 0 -60 -51l-11 4q10 29 32 53t48 24zM148 -10q-60 -78 -129 -131.5t-120 -53.5q-38 0 -38 23q0 11 8 19q16 -6 34 -6q43 0 110 48.5t116 113.5l-12 1q0 103 -9 260 q-7 127 -28 236l29 10q18 -101 28 -241q9 -126 9 -244h1q84 128 139 257t55 220q9 8 19 8q14 0 14 -18q0 -66 -65.5 -222.5t-160.5 -279.5z" />
<glyph unicode="&#x2013;" horiz-adv-x="390" d="M33 277l3 26h339l-3 -26h-339z" />
<glyph unicode="&#x2014;" horiz-adv-x="606" d="M36 277l5 26h546l-5 -26h-546z" />
<glyph unicode="&#x2018;" horiz-adv-x="224" d="M130 503q0 30 29 88t73 104l10 -9q-56 -68 -78 -140h1q19 -3 19 -25q0 -17 -10.5 -30t-24.5 -13q-19 0 -19 25z" />
<glyph unicode="&#x2019;" horiz-adv-x="224" d="M237 670q0 -30 -29 -88t-73 -104l-10 9q56 68 78 140h-1q-19 3 -19 25q0 17 10.5 30t24.5 13q19 0 19 -25z" />
<glyph unicode="&#x201a;" horiz-adv-x="190" d="M67 33q0 -30 -29 -88t-73 -104l-10 9q56 68 78 140h-1q-19 3 -19 25q0 17 10.5 30t24.5 13q19 0 19 -25z" />
<glyph unicode="&#x201c;" horiz-adv-x="351" d="M130 503q0 30 29 88t73 104l10 -9q-56 -68 -78 -140h1q19 -3 19 -25q0 -17 -10.5 -30t-24.5 -13q-19 0 -19 25zM257 503q0 30 29 88t73 104l10 -9q-56 -68 -78 -140h1q19 -3 19 -25q0 -17 -10.5 -30t-24.5 -13q-19 0 -19 25z" />
<glyph unicode="&#x201d;" horiz-adv-x="351" d="M364 670q0 -30 -29 -88t-73 -104l-10 9q56 68 78 140h-1q-19 3 -19 25q0 17 10.5 30t24.5 13q19 0 19 -25zM237 670q0 -30 -29 -88t-73 -104l-10 9q56 68 78 140h-1q-19 3 -19 25q0 17 10.5 30t24.5 13q19 0 19 -25z" />
<glyph unicode="&#x201e;" horiz-adv-x="317" d="M67 33q0 -30 -29 -88t-73 -104l-10 9q56 68 78 140h-1q-19 3 -19 25q0 17 10.5 30t24.5 13q19 0 19 -25zM194 33q0 -30 -29 -88t-73 -104l-10 9q56 68 78 140h-1q-19 3 -19 25q0 17 10.5 30t24.5 13q19 0 19 -25z" />
<glyph unicode="&#x2020;" horiz-adv-x="449" d="M184 -5l-27 -5l100 450l-152 -4l7 28l149 -4l37 195l27 5l-47 -200l151 4l-6 -28l-149 4z" />
<glyph unicode="&#x2021;" horiz-adv-x="449" d="M184 -5l-27 -5l47 200l-152 -4l7 28l149 -4l20 117l28 113l-151 -4l7 28l149 -4l37 195l27 5l-47 -200l151 4l-6 -28l-149 4l-20 -113l-29 -117l151 4l-7 -28l-148 4z" />
<glyph unicode="&#x2022;" horiz-adv-x="396" d="M288 292q0 -46 -34 -85t-80 -39q-28 0 -44.5 16t-16.5 46q0 46 35.5 85t80.5 39q27 0 43 -16t16 -46z" />
<glyph unicode="&#x2026;" horiz-adv-x="601" d="M444 -10q-19 0 -19 23q0 16 11 30.5t25 14.5q19 0 19 -21q0 -16 -10.5 -31.5t-25.5 -15.5zM244 -10q-19 0 -19 23q0 16 11 30.5t25 14.5q19 0 19 -21q0 -16 -10.5 -31.5t-25.5 -15.5zM44 -10q-19 0 -19 23q0 16 11 30.5t25 14.5q19 0 19 -21q0 -16 -10.5 -31.5 t-25.5 -15.5z" />
<glyph unicode="&#x2030;" horiz-adv-x="1261" d="M217 -10h-26l486 670h26zM378 539q0 -89 -50 -170.5t-127 -81.5q-44 0 -68 30t-24 86q0 55 20.5 112t63 98.5t94.5 41.5q44 0 67.5 -30t23.5 -86zM141 403q0 -97 67 -97q60 0 99.5 77t39.5 156q0 96 -68 96q-60 0 -99 -76.5t-39 -155.5zM810 247q0 -89 -50 -170.5 t-127 -81.5q-44 0 -68 30t-24 86q0 55 20.5 112t63 98.5t94.5 41.5q44 0 67.5 -30t23.5 -86zM1184 247q0 -89 -50 -170.5t-127 -81.5q-44 0 -68 30t-24 86q0 55 20.5 112t63 98.5t94.5 41.5q44 0 67.5 -30t23.5 -86zM573 111q0 -97 67 -97q60 0 99.5 77t39.5 156 q0 96 -68 96q-60 0 -99 -76.5t-39 -155.5zM947 111q0 -97 67 -97q60 0 99.5 77t39.5 156q0 96 -68 96q-60 0 -99 -76.5t-39 -155.5z" />
<glyph unicode="&#x2039;" horiz-adv-x="274" d="M69 288l1 8q95 90 186 199l8 -7q-55 -77 -161 -196q54 -114 78 -196l-11 -7q-45 107 -101 199z" />
<glyph unicode="&#x203a;" horiz-adv-x="274" d="M223 296l-1 -8q-95 -90 -186 -199l-8 7q55 77 161 196q-54 114 -78 196l11 7q45 -107 101 -199z" />
<glyph unicode="&#x2044;" horiz-adv-x="456" d="M-71 -10h-26l486 670h26z" />
<glyph unicode="&#x2070;" horiz-adv-x="393" d="M395 619q0 -89 -50 -170.5t-127 -81.5q-44 0 -68 30t-24 86q0 55 20.5 112t63 98.5t94.5 41.5q44 0 67.5 -30t23.5 -86zM158 483q0 -97 67 -97q60 0 99.5 77t39.5 156q0 96 -68 96q-60 0 -99 -76.5t-39 -155.5z" />
<glyph unicode="&#x2074;" horiz-adv-x="343" d="M257 372h-28l18 85h-157l-1 14l225 264l19 -5l-53 -248q23 1 55 5l-11 -30h-49zM298 693l-184 -214h99q25 0 39 1z" />
<glyph unicode="&#x2075;" horiz-adv-x="317" d="M313 498q0 -54 -43 -92.5t-114 -38.5q-40 0 -73 13l8 19q37 -13 69 -13q54 0 88 33t34 77q0 33 -20.5 49t-52.5 16q-39 0 -66 -12l-5 4l38 177h94q52 0 88 5l-11 -29h-155l-31 -137q32 10 64 10q43 0 65.5 -21t22.5 -60z" />
<glyph unicode="&#x2076;" horiz-adv-x="340" d="M348 501q0 -52 -39.5 -93t-95.5 -41q-90 0 -90 106q0 94 62.5 178t152.5 84q30 0 44 -7l-10 -21q-13 8 -40 8q-54 0 -100.5 -47.5t-67.5 -137.5q46 49 107 49q35 0 56 -21t21 -57zM155 466q0 -80 62 -80q42 0 70.5 35t28.5 78q0 29 -14.5 45.5t-41.5 16.5q-57 0 -102 -56 q-3 -24 -3 -39z" />
<glyph unicode="&#x2077;" horiz-adv-x="307" d="M143 372h-31q23 85 88.5 180.5t131.5 153.5h-74q-60 0 -119 -7l12 31h205l3 -4l-2 -13q-69 -67 -130 -161t-84 -180z" />
<glyph unicode="&#x2078;" horiz-adv-x="365" d="M111 436q0 35 33.5 67t80.5 47q-62 39 -62 88q0 40 38 68.5t86 28.5q36 0 59 -18.5t23 -48.5q0 -35 -30.5 -66t-76.5 -47q76 -47 76 -96q0 -38 -39 -65t-92 -27q-43 0 -69.5 19t-26.5 50zM193 643q0 -44 57 -80q39 18 64.5 45t25.5 57q0 23 -17 37t-44 14 q-34 0 -60 -21.5t-26 -51.5zM141 441q0 -25 20 -40.5t53 -15.5q38 0 66 20.5t28 50.5q0 24 -18 43.5t-53 42.5q-40 -17 -68 -44.5t-28 -56.5z" />
<glyph unicode="&#x2079;" horiz-adv-x="341" d="M121 596q0 54 39.5 96.5t97.5 42.5q88 0 88 -106q0 -94 -62.5 -178t-152.5 -84q-30 0 -44 7l10 21q13 -8 40 -8q54 0 101 44.5t68 129.5q-46 -49 -107 -49q-35 0 -56.5 22.5t-21.5 61.5zM314 635q0 81 -61 81q-43 0 -71.5 -36.5t-28.5 -82.5q0 -67 57 -67t101 55 q3 30 3 50z" />
<glyph unicode="&#x207f;" horiz-adv-x="423" d="M171 372h-30q-1 8 -1 22q0 46 7 91.5t32 161.5l12 85l37 7q-19 -94 -34 -162q31 73 73.5 117.5t86.5 44.5q25 0 41.5 -16t16.5 -51q0 -28 -21 -121.5t-21 -159.5q0 -3 0.5 -8.5t0.5 -10.5h-30q0 1 -0.5 8.5t-0.5 16.5q0 57 20.5 154t20.5 117q0 22 -11.5 35t-28.5 13 q-52 0 -111.5 -105t-59.5 -216q0 -16 1 -23z" />
<glyph unicode="&#x2080;" horiz-adv-x="393" d="M281 82q0 -89 -50 -170.5t-127 -81.5q-44 0 -68 30t-24 86q0 55 20.5 112t63 98.5t94.5 41.5q44 0 67.5 -30t23.5 -86zM44 -54q0 -97 67 -97q60 0 99.5 77t39.5 156q0 96 -68 96q-60 0 -99 -76.5t-39 -155.5z" />
<glyph unicode="&#x2081;" horiz-adv-x="260" d="M31 -168h-27l71 335l-68 -28l-2 19l100 37l3 -2z" />
<glyph unicode="&#x2082;" horiz-adv-x="324" d="M166 -168h-205l-1 16q56 45 82 67t69 63t62.5 75t19.5 64q0 26 -16.5 41t-46.5 15q-44 0 -98 -33v25q54 30 109 30q39 0 61.5 -19.5t22.5 -53.5q0 -32 -20 -67t-59.5 -72t-73 -64t-84.5 -64h70q58 0 119 8z" />
<glyph unicode="&#x2083;" horiz-adv-x="304" d="M177 -54q0 -50 -45 -83t-109 -33q-43 0 -75 13l8 21q34 -14 69 -14q50 0 85 27.5t35 65.5q0 32 -25 46.5t-61 14.5q-16 0 -34 -4l3 16q60 14 101.5 45t41.5 68q0 47 -60 47q-39 0 -87 -25l2 21q43 26 97 26q36 0 58 -16t22 -46q0 -39 -35.5 -69.5t-89.5 -47.5 q99 -3 99 -73z" />
<glyph unicode="&#x2084;" horiz-adv-x="347" d="M140 -168h-28l18 85h-157l-1 14l225 264l19 -5l-53 -248q23 1 55 5l-11 -30h-49zM181 153l-184 -214h99q25 0 39 1z" />
<glyph unicode="&#x2085;" horiz-adv-x="323" d="M203 -39q0 -54 -43 -92.5t-114 -38.5q-40 0 -73 13l8 19q37 -13 69 -13q54 0 88 33t34 77q0 33 -20.5 49t-52.5 16q-39 0 -66 -12l-5 4l38 177h94q52 0 88 5l-11 -29h-155l-31 -137q32 10 64 10q43 0 65.5 -21t22.5 -60z" />
<glyph unicode="&#x2086;" horiz-adv-x="337" d="M234 -36q0 -52 -39.5 -93t-95.5 -41q-90 0 -90 106q0 94 62.5 178t152.5 84q30 0 44 -7l-10 -21q-13 8 -40 8q-54 0 -100.5 -47.5t-67.5 -137.5q46 49 107 49q35 0 56 -21t21 -57zM41 -71q0 -80 62 -80q42 0 70.5 35t28.5 78q0 29 -14.5 45.5t-41.5 16.5q-57 0 -102 -56 q-3 -24 -3 -39z" />
<glyph unicode="&#x2087;" horiz-adv-x="305" d="M25 -168h-31q23 85 88.5 180.5t131.5 153.5h-74q-60 0 -119 -7l12 31h205l3 -4l-2 -13q-69 -67 -130 -161t-84 -180z" />
<glyph unicode="&#x2088;" horiz-adv-x="365" d="M-3 -101q0 35 33.5 67t80.5 47q-62 39 -62 88q0 40 38 68.5t86 28.5q36 0 59 -18.5t23 -48.5q0 -35 -30.5 -66t-76.5 -47q76 -47 76 -96q0 -38 -39 -65t-92 -27q-43 0 -69.5 19t-26.5 50zM79 106q0 -44 57 -80q39 18 64.5 45t25.5 57q0 23 -17 37t-44 14q-34 0 -60 -21.5 t-26 -51.5zM27 -96q0 -25 20 -40.5t53 -15.5q38 0 66 20.5t28 50.5q0 24 -18 43.5t-53 42.5q-40 -17 -68 -44.5t-28 -56.5z" />
<glyph unicode="&#x2089;" horiz-adv-x="340" d="M6 59q0 54 39.5 96.5t97.5 42.5q88 0 88 -106q0 -94 -62.5 -178t-152.5 -84q-30 0 -44 7l10 21q13 -8 40 -8q54 0 101 44.5t68 129.5q-46 -49 -107 -49q-35 0 -56.5 22.5t-21.5 61.5zM199 98q0 81 -61 81q-43 0 -71.5 -36.5t-28.5 -82.5q0 -67 57 -67t101 55q3 30 3 50z " />
<glyph unicode="&#x20ac;" horiz-adv-x="489" d="M50 250l8 22h56q6 54 23 108h-46l7 22h46q39 112 111 185t164 73q63 0 112 -26l-17 -34q-44 36 -108 36q-79 0 -139.5 -65.5t-93.5 -168.5h237l-6 -22h-237q-14 -44 -21 -108h224l-7 -22h-219q-1 -12 -1 -35q0 -96 34.5 -148t100.5 -52t124 38v-24q-53 -39 -132 -39 q-78 0 -119 56.5t-41 160.5q0 15 2 43h-62z" />
<glyph unicode="&#x2122;" d="M314 628h-1l-64 -203h-18l72 225l32 3l8 -208l96 205l31 3l-22 -228h-23l23 205l-98 -205h-26zM145 425h-22l44 207l-56 -3l7 21h128l-2 -21l-55 3z" />
<glyph unicode="&#x2212;" horiz-adv-x="531" d="M443 312h-330l5 23q114 3 332 3z" />
<glyph unicode="&#x221e;" horiz-adv-x="770" d="M680 320q0 -82 -50.5 -152t-123.5 -70q-51 0 -77.5 35t-44.5 100q-97 -135 -187 -135q-47 0 -73 32.5t-26 87.5q0 82 52 149t123 67q28 0 49.5 -11.5t35 -34t21.5 -43t17 -51.5q100 140 191 140q44 0 68.5 -30.5t24.5 -83.5zM125 223q0 -47 20.5 -73t56.5 -26 q77 0 175 135l-1 3q-21 76 -44.5 111t-67.5 35q-59 0 -99 -58t-40 -127zM578 408q-77 0 -175 -139q22 -76 45 -110.5t66 -34.5q59 0 98.5 58.5t39.5 128.5q0 47 -20 72t-54 25z" />
<glyph unicode="&#x2248;" horiz-adv-x="559" d="M213 453q-14 0 -72 -66l-10 8q60 87 89 87q19 0 102 -30.5t104 -30.5q13 0 72 66l10 -8q-58 -87 -89 -87q-19 0 -104 30.5t-102 30.5zM165 229q-14 0 -72 -66l-10 8q60 87 89 87q19 0 102 -30.5t104 -30.5q13 0 72 66l10 -8q-58 -87 -89 -87q-19 0 -104 30.5t-102 30.5z " />
<glyph unicode="&#x2260;" horiz-adv-x="533" d="M150 116l-13 13l57 82h-102l5 23q15 1 54.5 1.5t59.5 0.5l122 177h-197l5 23q36 1 210 3l64 93l5 3l12 -13l-57 -83h98l-7 -26h-109l-122 -177q72 1 194 1l-7 -26h-204l-63 -92z" />
<glyph unicode="&#x2264;" horiz-adv-x="531" d="M491 537l-6 -28l-316 -122l263 -123l-5 -28q-170 74 -295 139l5 24zM401 115h-330l5 23q114 3 332 3z" />
<glyph unicode="&#x2265;" horiz-adv-x="532" d="M97 236l6 28l317 122l-264 123l6 28q173 -76 294 -139l-5 -24zM402 115h-330l5 23q114 3 332 3z" />
<glyph unicode="&#x25fc;" horiz-adv-x="510" d="M0 510h510v-510h-510v510z" />
<glyph unicode="&#xfb00;" horiz-adv-x="499" d="M515 451l-122 3l-99 -470q-5 -24 -10 -39t-19 -42.5t-41.5 -52t-66.5 -45.5l-8 18q48 28 75.5 65.5t40.5 99.5l98 463l-194 4l-99 -471q-5 -24 -10 -38.5t-19 -42.5t-41.5 -52.5t-66.5 -45.5l-8 18q48 28 75.5 65.5t40.5 99.5l98 467l-51 1l3 15l53 5v2q-2 42 8 83 q12 50 58.5 81.5t107.5 31.5q57 0 97 -20q38 41 96 41q37 0 60 -14l-11 -28q-29 17 -65 17q-71 0 -90 -94q-12 -60 -9 -100h126zM180 562q-12 -43 -8 -86h196v2q-3 42 10 99q8 34 22 56q-43 17 -94 17q-102 0 -126 -88z" />
<glyph unicode="&#xfb01;" horiz-adv-x="449" d="M400 500q-54 -257 -67 -330t-13 -141q0 -18 1 -29h-30q0 1 -0.5 9t-0.5 20q0 101 39 279l16 74l9 67l-185 5l-99 -470q-5 -24 -10 -38.5t-19 -42.5t-41.5 -52.5t-66.5 -45.5l-8 18q47 27 75 65.5t41 99.5l98 467l-51 1l3 15l53 5v2q-3 44 10 98t56.5 86.5t107.5 32.5 q54 0 89 -21l-11 -28q-42 24 -94 24q-95 0 -120 -93q-14 -54 -10 -101h185l33 27z" />
<glyph unicode="&#xfb02;" horiz-adv-x="464" d="M291 451l-122 3l-99 -470q-5 -24 -10 -38.5t-19 -42.5t-41.5 -52.5t-66.5 -45.5l-8 18q48 28 75.5 66t40.5 99l98 467l-51 1l3 15l53 5v2q-3 44 10 98q12 53 59.5 86t119.5 33q47 0 84 -10l40 10q-15 -68 -33.5 -154t-27.5 -128t-20.5 -97.5t-16.5 -82t-11 -61t-8 -55 t-3.5 -43t-1.5 -45.5q0 -18 1 -29h-30v10q-1 9 -1 13q0 71 7 119t32 166l56 262l13 87q-49 13 -96 13q-111 0 -135 -93q-14 -53 -10 -101h125z" />
<glyph unicode="&#xfb03;" horiz-adv-x="674" d="M625 500q-54 -257 -67 -330t-13 -141q0 -18 1 -29h-30q0 1 -0.5 9t-0.5 20q0 101 39 279l16 74l9 67l-185 5l-99 -470q-5 -24 -10 -38.5t-19 -42.5t-41.5 -52.5t-66.5 -45.5l-8 18q47 27 75 65.5t41 99.5l98 463l-195 4l-99 -471q-5 -24 -10 -38.5t-19 -42.5t-41.5 -52.5 t-66.5 -45.5l-8 18q48 28 75.5 65.5t40.5 99.5l98 467l-51 1l3 15l53 5v2q-2 42 8 83q13 50 59 81.5t107 31.5q67 0 103 -23q47 44 122 44q54 0 89 -21l-11 -28q-42 24 -94 24q-95 0 -120 -93q-14 -54 -10 -101h185l33 27zM180 562q-12 -43 -8 -86h197v2q-3 44 10 98 q8 32 25 55q-42 19 -98 19q-101 0 -126 -88z" />
<glyph unicode="&#xfb04;" horiz-adv-x="688" d="M515 451l-122 3l-99 -470q-5 -24 -10 -38.5t-19 -42.5t-41.5 -52.5t-66.5 -45.5l-8 18q48 28 75.5 66t40.5 99l98 463l-194 4l-99 -471q-5 -24 -10 -38.5t-19 -42.5t-41.5 -52.5t-66.5 -45.5l-8 18q48 28 75.5 65.5t40.5 99.5l98 467l-51 1l3 15l53 5v2q-2 42 8 83 q13 50 59 81.5t107 31.5q68 0 104 -24q50 45 135 45q47 0 84 -10l40 10q-15 -68 -33.5 -154t-27.5 -128t-20.5 -97.5t-16.5 -82t-11 -61t-8 -55t-3.5 -43t-1.5 -45.5q0 -18 1 -29h-30v10q-1 9 -1 13q0 71 7 119t32 166l56 262l13 87q-49 13 -96 13q-111 0 -135 -93 q-14 -53 -10 -101h125zM180 562q-12 -43 -8 -86h196v2q-3 44 10 98q8 30 26 55q-42 19 -98 19q-101 0 -126 -88z" />
<glyph unicode="&#xfb06;" horiz-adv-x="740" d="M287 128q0 -58 -50.5 -98t-126.5 -40q-61 0 -115 25l13 35q47 -36 115 -36q59 0 97 30.5t38 76.5q0 34 -20.5 59.5t-64.5 60.5q-30 24 -42 34.5t-27 36.5t-15 54q0 59 50 101.5t126 42.5q35 0 67 -8q-12 28 -12 55q0 57 47 100t109 43q51 0 82.5 -31.5t31.5 -76.5 q0 -60 -54 -116h188l-7 -25l-177 3q-77 -365 -77 -383q0 -57 55 -57q69 0 147 100l14 -8q-77 -116 -172 -116q-74 0 -74 81q0 23 37 196q24 109 41 188l-52 1l3 16l54 4q43 60 43 115q0 38 -24.5 61.5t-65.5 23.5q-54 0 -88.5 -37.5t-34.5 -86.5q0 -32 13 -59l-13 -35 q-35 28 -92 28q-60 0 -98 -34t-38 -79q0 -30 17.5 -53.5t54.5 -54.5q3 -3 18 -15t20.5 -17t17.5 -16.5t17 -19.5t12 -19.5t9.5 -23.5t2.5 -26z" />
<glyph horiz-adv-x="243" d="M302 816q-72 -57 -156 -84l-4 17q69 37 134 92zM-64 -171q51 23 79.5 62.5t41.5 99.5l116 544l17 115l35 10l-140 -660q-32 -151 -151 -195z" />
<glyph horiz-adv-x="429" d="M48 102q0 62 29.5 125.5t84.5 107.5t119 44q38 0 71 -15l-30 -125q-30 -128 -30 -202q0 -5 0.5 -13t0.5 -12h-30q0 1 -0.5 8t-0.5 17q0 56 18 145q-32 -79 -77.5 -128t-89.5 -49q-30 0 -47.5 25.5t-17.5 71.5zM80 106q0 -35 11.5 -57t31.5 -22q44 0 99 83t88 202 q1 7 8 34q-26 13 -54 13q-72 0 -128 -83.5t-56 -169.5z" />
<glyph horiz-adv-x="425" d="M351 282q0 -63 -29.5 -126t-85.5 -107t-122 -44q-37 0 -68 11l85 403l12 86l38 7q-59 -280 -70 -329q31 87 79 141.5t95 54.5q30 0 48 -25.5t18 -71.5zM275 357q-47 0 -105.5 -94t-88.5 -225q26 -13 53 -13q48 0 92 41.5t68.5 99.5t24.5 112q0 34 -11.5 56.5t-32.5 22.5z " />
<glyph horiz-adv-x="373" d="M268 96l9 -11q-24 -36 -60.5 -58t-71.5 -22q-44 0 -68 30t-24 88q0 96 56 176t131 80q40 0 71 -27l-12 -29q-28 35 -64 35q-57 0 -103.5 -74t-46.5 -159q0 -98 69 -98q57 0 114 69z" />
<glyph horiz-adv-x="438" d="M48 102q0 62 29.5 125.5t84.5 107.5t119 44q21 0 43 -5q6 30 10 47l12 84l38 7q-15 -69 -34 -158t-26 -122t-15.5 -77t-10.5 -68t-2 -50q0 -11 2 -25h-30q-2 14 -2 24q0 65 21 163q-31 -86 -79 -140t-95 -54q-30 0 -47.5 25.5t-17.5 71.5zM80 106q0 -35 11.5 -57 t31.5 -22q47 0 104.5 91t88.5 219q0 1 1 4t1 5q-26 13 -54 13q-72 0 -128 -83.5t-56 -169.5z" />
<glyph horiz-adv-x="378" d="M270 96l9 -11q-24 -35 -61 -57.5t-72 -22.5q-42 0 -67 32t-25 89q0 92 55.5 172.5t128.5 80.5q32 0 52 -16.5t20 -47.5q0 -50 -50 -90.5t-134 -48.5q-17 -3 -36 -1q-4 -21 -4 -46q0 -47 18.5 -74.5t52.5 -27.5q57 0 113 69zM228 359q-44 0 -82 -51.5t-53 -119.5 q95 6 141 43t46 78q0 22 -14 36t-38 14z" />
<glyph horiz-adv-x="270" d="M237 333l-88 2l-71 -332q-20 -91 -106 -131l-7 15q66 37 84 119l70 330l-38 1l3 13l39 4v2q-1 30 7 72q7 38 34 61t65 23q32 0 49 -11l-9 -25q-22 14 -49 14q-51 0 -64 -64q-9 -44 -6 -72h93z" />
<glyph horiz-adv-x="382" d="M267 -27q0 -42 -50.5 -71.5t-119.5 -29.5q-53 0 -81 18.5t-28 51.5q0 28 18 50t38 32l6 -8q-36 -34 -36 -68q0 -27 23 -42.5t64 -15.5q52 0 94.5 21.5t42.5 53.5q0 20 -22.5 35.5t-49 23t-49 20t-22.5 29.5q0 28 56 57v1q-76 0 -76 77q0 61 42.5 116t103.5 55q76 0 131 4 q4 -5 4 -10q0 -7 -7.5 -13t-19.5 -6q-17 0 -73 16l-1 -1q39 -17 39 -72q0 -101 -115 -170q-2 -1 -9.5 -5.5t-11 -6.5t-10 -6.5t-10 -7t-7.5 -6.5t-5.5 -7.5t-1.5 -6.5q0 -11 22.5 -21t49 -17.5t49 -25.5t22.5 -44zM105 210q0 -63 48 -63q42 0 76.5 50.5t34.5 100.5 q0 28 -13 45t-38 17q-43 0 -75.5 -49t-32.5 -101z" />
<glyph horiz-adv-x="424" d="M295 12h-30q0 1 -0.5 8.5t-0.5 16.5q0 56 20.5 156t20.5 116q0 22 -12 34.5t-28 12.5q-51 0 -109 -100.5t-62 -210.5v-14q0 -4 1 -19h-30q0 1 -0.5 7.5t-0.5 17.5q0 71 28 200l40 184l11 84l38 7q-16 -76 -36.5 -172t-26.5 -124q30 74 73 118.5t87 44.5q58 0 58 -68 q0 -25 -21 -119.5t-21 -160.5q0 -3 0.5 -8.5t0.5 -10.5z" />
<glyph horiz-adv-x="230" d="M174 489q0 -16 -9 -30t-22 -14q-16 0 -16 20q0 16 9.5 29.5t22.5 13.5q15 0 15 -19zM152 379q-39 -185 -48.5 -240t-9.5 -102q0 -18 1 -25h-30q0 1 -0.5 9t-0.5 12q0 68 27 196l12 57l12 86z" />
<glyph horiz-adv-x="227" d="M182 489q0 -16 -9.5 -30t-22.5 -14q-16 0 -16 20q0 16 10 29.5t22 13.5q16 0 16 -19zM155 379q-11 -51 -31 -144.5t-34 -160.5t-15 -70q-19 -92 -107 -132l-7 15q66 36 84 119l61 282l12 84z" />
<glyph horiz-adv-x="383" d="M95 12h-30q-1 16 -1 22q0 16 0.5 29t2 27.5t2 22.5t4 26t5 26t7 34t8.5 38l39 184l11 84l38 7q-48 -225 -56 -264q27 64 65 97.5t77 33.5q26 0 41.5 -15.5t15.5 -39.5q0 -41 -42 -83.5t-99 -67.5q44 -89 100 -161l-32 -7q-59 80 -100 171q59 28 100.5 65.5t41.5 76.5 q0 18 -9.5 28.5t-26.5 10.5q-57 0 -110 -103t-53 -219q0 -16 1 -23z" />
<glyph horiz-adv-x="231" d="M181 512q-14 -67 -33.5 -158t-26 -122t-15 -76t-10.5 -68.5t-2 -50.5q0 -18 1 -25h-30q-1 12 -1 22q0 76 28 203l40 184l11 84z" />
<glyph horiz-adv-x="615" d="M95 12h-30q-1 8 -1 22q0 46 7 91.5t32 161.5l12 85l37 7q-33 -156 -33 -158q30 72 71.5 115t83.5 43q57 0 57 -67q0 -25 -11 -80q29 67 69 107t80 40q57 0 57 -67q0 -29 -20.5 -122t-20.5 -154q0 -9 0.5 -16t0.5 -8h-30q0 1 -0.5 8t-0.5 16q0 57 20.5 155t20.5 117 q0 22 -12 35t-28 13q-49 0 -107 -102t-59 -213v-4v-3q0 -17 1 -22h-30q-1 5 -1 24q0 57 20 155t20 117q0 22 -11.5 35t-27.5 13q-32 0 -71 -47t-67.5 -123.5t-28.5 -151.5q0 -15 1 -22z" />
<glyph horiz-adv-x="424" d="M95 12h-30q-1 8 -1 22q0 46 7 91.5t32 161.5l12 85l37 7q-19 -94 -34 -162q31 73 73.5 117.5t86.5 44.5q25 0 41.5 -16t16.5 -51q0 -28 -21 -121.5t-21 -159.5q0 -3 0.5 -8.5t0.5 -10.5h-30q0 1 -0.5 8.5t-0.5 16.5q0 57 20.5 154t20.5 117q0 22 -11.5 35t-28.5 13 q-52 0 -111.5 -105t-59.5 -216q0 -16 1 -23z" />
<glyph horiz-adv-x="413" d="M336 266q0 -91 -57.5 -175t-135.5 -84q-43 0 -67.5 28t-24.5 80q0 92 58.5 177t135.5 85q44 0 67.5 -30t23.5 -81zM84 120q0 -46 19 -69.5t50 -23.5q59 0 105 77.5t46 158.5q0 44 -17.5 69t-49.5 25q-59 0 -106 -78t-47 -159z" />
<glyph horiz-adv-x="425" d="M153 379q-26 -124 -43 -199q32 88 80.5 143.5t95.5 55.5q30 0 47.5 -25.5t17.5 -71.5q0 -98 -68.5 -187.5t-164.5 -89.5q-22 0 -42 6q-10 -61 -10 -107q0 -18 1 -25h-30q-1 8 -1 22q0 66 29 203l39 184l11 84zM277 357q-47 0 -105 -91.5t-89 -218.5q-1 -1 -1 -4t-1 -5 q24 -13 54 -13q72 0 128.5 83.5t56.5 169.5q0 35 -11.5 57t-31.5 22z" />
<glyph horiz-adv-x="425" d="M48 102q0 62 29.5 125.5t84.5 107.5t119 44q38 0 71 -15q-10 -46 -23 -106.5t-19 -88.5t-14 -67.5t-11.5 -57.5t-7.5 -42t-5.5 -38t-2.5 -29.5t-1 -30.5q0 -18 1 -25h-30q-1 8 -1 22q0 48 8 98t41 200q-32 -86 -79.5 -140t-94.5 -54q-30 0 -47.5 25.5t-17.5 71.5zM80 106 q0 -35 11 -57t33 -22q47 0 105 94t89 225q-26 13 -54 13q-72 0 -128 -83.5t-56 -169.5z" />
<glyph horiz-adv-x="322" d="M95 12h-30q-1 8 -1 22q0 46 7 91.5t32 161.5l12 85l37 7q-21 -102 -27 -132q22 61 54 96.5t68 35.5q28 0 50 -11l-14 -29q-19 15 -47 15q-47 0 -94.5 -104.5t-47.5 -216.5q0 -14 1 -21z" />
<glyph horiz-adv-x="336" d="M237 106q0 -42 -38 -71.5t-95 -29.5q-48 0 -87 18l11 31q35 -27 86 -27q41 0 67.5 21t26.5 52q0 17 -9.5 32.5t-20.5 25t-33 26.5q-20 16 -30.5 25.5t-20.5 27t-10 37.5q0 43 38 74t95 31q44 0 71 -12l-10 -31q-30 21 -70 21q-41 0 -68 -23t-27 -54q0 -33 53 -76 q2 -1 12 -9t13 -10.5t11.5 -10t11.5 -11.5t8.5 -11.5t8 -13.5t4.5 -14.5t2 -17.5z" />
<glyph horiz-adv-x="340" d="M252 85q-55 -80 -125 -80q-58 0 -58 61q0 15 55 272l-38 1l3 13l40 3l31 110l21 3q-3 -14 -24 -113h129l-6 -20l-127 3q-54 -256 -54 -271q0 -40 40 -40q48 0 104 69z" />
<glyph horiz-adv-x="420" d="M280 12h-30q0 2 -0.5 9.5t-0.5 16.5q0 29 18 129q-29 -72 -71.5 -117t-87.5 -45q-58 0 -58 67q0 19 43 216l11 84l38 7q-9 -45 -20 -95t-17.5 -79t-12.5 -57t-8.5 -45t-2.5 -27q0 -22 11.5 -35t29.5 -13q47 0 98.5 83t67.5 175q8 44 8 48l4 38l37 7q-39 -185 -48.5 -240 t-9.5 -102q0 -18 1 -25z" />
<glyph horiz-adv-x="356" d="M94 200q-7 109 -21 172l30 7q11 -55 20 -168q7 -112 5 -179h1q59 91 98 183.5t39 157.5q8 6 17 6q14 0 14 -16q0 -50 -48.5 -160.5t-119.5 -197.5l-29 7q0 82 -6 188z" />
<glyph horiz-adv-x="538" d="M93 194q-6 106 -20 178l30 7q10 -55 18 -171q6 -86 4 -176h1q58 89 96.5 182.5t38.5 157.5l28 7q14 -72 19 -166q6 -87 4 -181h1q58 91 96.5 183.5t37.5 157.5q8 6 18 6q14 0 14 -16q0 -50 -48 -161.5t-118 -196.5l-28 7q0 139 -12 300q-12 -63 -53 -151.5t-93 -155.5 l-30 7q0 109 -4 182z" />
<glyph horiz-adv-x="362" d="M25 18q0 25 41 81.5t87 94.5q-31 124 -64 178l28 7q29 -50 61 -170q82 80 100 164q6 6 17 6q13 0 13 -13q0 -25 -40.5 -81t-85.5 -93q31 -125 64 -180l-28 -7q-29 50 -61 172q-86 -88 -102 -166q-6 -6 -17 -6q-13 0 -13 13z" />
<glyph horiz-adv-x="359" d="M136 5q-44 -56 -95.5 -94.5t-90.5 -38.5q-31 0 -31 19q0 10 7 17q15 -5 29 -5q32 0 80.5 33.5t82.5 78.5l-16 1q0 91 -6 188q-5 89 -20 168l29 7q13 -66 20 -163q6 -83 6 -182q60 91 99 182.5t39 156.5q8 6 17 6q14 0 14 -16q0 -48 -47.5 -159t-116.5 -199z" />
<glyph horiz-adv-x="370" d="M22 5l-6 11q165 172 247 322q-27 1 -68 6.5t-52 5.5q-34 0 -48 -36l-17 4q13 61 67 61q20 0 62 -9.5t67 -10.5q6 10 10 20q18 0 18 -13q0 -28 -80 -138t-160 -186q28 -1 65.5 -4.5t52.5 -3.5q16 0 27 2.5t23.5 14t20.5 32.5l17 -4q-12 -42 -34 -58t-55 -16q-20 0 -54 7.5 t-54 7.5q-25 0 -49 -15z" />
<glyph horiz-adv-x="429" d="M125 462q0 62 29.5 125.5t84.5 107.5t119 44q38 0 71 -15l-30 -125q-30 -128 -30 -202q0 -5 0.5 -13t0.5 -12h-30q0 1 -0.5 8t-0.5 17q0 56 18 145q-32 -79 -77.5 -128t-89.5 -49q-30 0 -47.5 25.5t-17.5 71.5zM157 466q0 -35 11.5 -57t31.5 -22q44 0 99 83t88 202 q1 7 8 34q-26 13 -54 13q-72 0 -128 -83.5t-56 -169.5z" />
<glyph horiz-adv-x="425" d="M428 642q0 -63 -29.5 -126t-85.5 -107t-122 -44q-37 0 -68 11l85 403l12 86l38 7q-59 -280 -70 -329q31 87 79 141.5t95 54.5q30 0 48 -25.5t18 -71.5zM352 717q-47 0 -105.5 -94t-88.5 -225q26 -13 53 -13q48 0 92 41.5t68.5 99.5t24.5 112q0 34 -11.5 56.5t-32.5 22.5z " />
<glyph horiz-adv-x="374" d="M345 456l9 -11q-24 -36 -60.5 -58t-71.5 -22q-44 0 -68 30t-24 88q0 96 56 176t131 80q40 0 71 -27l-12 -29q-28 35 -64 35q-57 0 -103.5 -74t-46.5 -159q0 -98 69 -98q57 0 114 69z" />
<glyph horiz-adv-x="438" d="M125 462q0 62 29.5 125.5t84.5 107.5t119 44q21 0 43 -5q6 30 10 47l12 84l38 7q-15 -69 -34 -158t-26 -122t-15.5 -77t-10.5 -68t-2 -50q0 -11 2 -25h-30q-2 14 -2 24q0 65 21 163q-31 -86 -79 -140t-95 -54q-30 0 -47.5 25.5t-17.5 71.5zM157 466q0 -35 11.5 -57 t31.5 -22q47 0 104.5 91t88.5 219q1 1 1 4t1 5q-26 13 -54 13q-72 0 -128 -83.5t-56 -169.5z" />
<glyph horiz-adv-x="378" d="M346 456l9 -11q-24 -35 -61 -57.5t-72 -22.5q-42 0 -67 32t-25 89q0 92 55.5 172.5t128.5 80.5q32 0 52 -16.5t20 -47.5q0 -50 -50 -90.5t-134 -48.5q-17 -3 -36 -1q-4 -21 -4 -46q0 -47 18.5 -74.5t52.5 -27.5q57 0 113 69zM304 719q-44 0 -82 -51.5t-53 -119.5 q95 6 141 43t46 78q0 22 -14 36t-38 14z" />
<glyph horiz-adv-x="269" d="M313 693l-88 2l-71 -332q-20 -91 -106 -131l-7 15q66 37 84 119l70 330l-38 1l3 13l39 4v2q-1 30 7 72q7 38 34 61t65 23q32 0 49 -11l-9 -25q-22 14 -49 14q-51 0 -64 -64q-9 -44 -6 -72h93z" />
<glyph horiz-adv-x="383" d="M344 333q0 -42 -50.5 -71.5t-119.5 -29.5q-53 0 -81 18.5t-28 51.5q0 28 18 50t38 32l6 -8q-36 -34 -36 -68q0 -27 23 -42.5t64 -15.5q52 0 94.5 21.5t42.5 53.5q0 20 -22.5 35.5t-49 23t-49 20t-22.5 29.5q0 28 56 57v1q-76 0 -76 77q0 61 42.5 116t103.5 55q76 0 131 4 q4 -5 4 -10q0 -7 -7.5 -13t-19.5 -6q-17 0 -73 16l-1 -1q39 -17 39 -72q0 -101 -115 -170q-2 -1 -9.5 -5.5t-11 -6.5t-10 -6.5t-10 -7t-7.5 -6.5t-5.5 -7.5t-1.5 -6.5q0 -11 22.5 -21t49 -17.5t49 -25.5t22.5 -44zM182 570q0 -63 48 -63q42 0 76.5 50.5t34.5 100.5 q0 28 -13 45t-38 17q-43 0 -75.5 -49t-32.5 -101z" />
<glyph horiz-adv-x="424" d="M372 372h-30q0 1 -0.5 8.5t-0.5 16.5q0 56 20.5 156t20.5 116q0 22 -12 34.5t-28 12.5q-51 0 -109 -100.5t-62 -210.5v-14q0 -4 1 -19h-30q0 1 -0.5 7.5t-0.5 17.5q0 71 28 200l40 184l11 84l38 7q-16 -76 -36.5 -172t-26.5 -124q30 74 73 118.5t87 44.5q58 0 58 -68 q0 -25 -21 -119.5t-21 -160.5q0 -3 0.5 -8.5t0.5 -10.5z" />
<glyph horiz-adv-x="229" d="M250 849q0 -16 -9 -30t-22 -14q-16 0 -16 20q0 16 9.5 29.5t22.5 13.5q15 0 15 -19zM228 739q-39 -185 -48.5 -240t-9.5 -102q0 -18 1 -25h-30q0 1 -0.5 9t-0.5 12q0 68 27 196l12 57l12 86z" />
<glyph horiz-adv-x="227" d="M258 849q0 -16 -9.5 -30t-22.5 -14q-16 0 -16 20q0 16 10 29.5t22 13.5q16 0 16 -19zM231 739q-11 -51 -31 -144.5t-34 -160.5t-15 -70q-19 -92 -107 -132l-7 15q66 36 84 119l61 282l12 84z" />
<glyph horiz-adv-x="383" d="M172 372h-30q-1 16 -1 22q0 16 0.5 29t2 27.5t2 22.5t4 26t5 26t7 34t8.5 38l39 184l11 84l38 7q-48 -225 -56 -264q27 64 65 97.5t77 33.5q26 0 41.5 -15.5t15.5 -39.5q0 -41 -42 -83.5t-99 -67.5q44 -89 100 -161l-32 -7q-59 80 -100 171q59 28 100.5 65.5t41.5 76.5 q0 18 -9.5 28.5t-26.5 10.5q-57 0 -110 -103t-53 -219q0 -16 1 -23z" />
<glyph horiz-adv-x="231" d="M258 872q-14 -67 -33.5 -158t-26 -122t-15 -76t-10.5 -68.5t-2 -50.5q0 -18 1 -25h-30q-1 12 -1 22q0 76 28 203l40 184l11 84z" />
<glyph horiz-adv-x="614" d="M171 372h-30q-1 8 -1 22q0 46 7 91.5t32 161.5l12 85l37 7q-33 -156 -33 -158q30 72 71.5 115t83.5 43q57 0 57 -67q0 -25 -11 -80q29 67 69 107t80 40q57 0 57 -67q0 -29 -20.5 -122t-20.5 -154q0 -9 0.5 -16t0.5 -8h-30q0 1 -0.5 8t-0.5 16q0 57 20.5 155t20.5 117 q0 22 -12 35t-28 13q-49 0 -107 -102t-59 -213v-4v-3q0 -17 1 -22h-30q-1 5 -1 24q0 57 20 155t20 117q0 22 -11.5 35t-27.5 13q-32 0 -71 -47t-67.5 -123.5t-28.5 -151.5q0 -15 1 -22z" />
<glyph horiz-adv-x="414" d="M413 626q0 -91 -57.5 -175t-135.5 -84q-43 0 -67.5 28t-24.5 80q0 92 58.5 177t135.5 85q44 0 67.5 -30t23.5 -81zM161 480q0 -46 19 -69.5t50 -23.5q59 0 105 77.5t46 158.5q0 44 -17.5 69t-49.5 25q-59 0 -106 -78t-47 -159z" />
<glyph horiz-adv-x="424" d="M427 642q0 -98 -68.5 -187.5t-164.5 -89.5q-22 0 -42 6q-10 -61 -10 -107q0 -18 1 -25h-30q-1 8 -1 22q0 66 29 203l39 184l11 84l38 7q-26 -124 -43 -199q32 88 80.5 143.5t95.5 55.5q30 0 47.5 -25.5t17.5 -71.5zM353 717q-47 0 -105 -91.5t-89 -218.5q-1 -1 -1 -4 t-1 -5q24 -13 54 -13q72 0 128.5 83.5t56.5 169.5q0 35 -11.5 57t-31.5 22z" />
<glyph horiz-adv-x="425" d="M346 239h-30q-1 8 -1 22q0 48 8 98t41 200q-32 -86 -79.5 -140t-94.5 -54q-30 0 -47.5 25.5t-17.5 71.5q0 62 29.5 125.5t84.5 107.5t119 44q38 0 71 -15q-10 -46 -23 -106.5t-19 -88.5t-14 -67.5t-11.5 -57.5t-7.5 -42t-5.5 -38t-2.5 -29.5t-1 -30.5q0 -18 1 -25z M157 466q0 -35 11 -57t33 -22q47 0 105 94t89 225q-26 13 -54 13q-72 0 -128 -83.5t-56 -169.5z" />
<glyph horiz-adv-x="321" d="M171 372h-30q-1 8 -1 22q0 46 7 91.5t32 161.5l12 85l37 7q-21 -102 -27 -132q22 61 54 96.5t68 35.5q28 0 50 -11l-14 -29q-19 15 -47 15q-47 0 -94.5 -104.5t-47.5 -216.5q0 -14 1 -21z" />
<glyph horiz-adv-x="336" d="M313 466q0 -42 -38 -71.5t-95 -29.5q-48 0 -87 18l11 31q35 -27 86 -27q41 0 67.5 21t26.5 52q0 17 -9.5 32.5t-20.5 25t-33 26.5q-20 16 -30.5 25.5t-20.5 27t-10 37.5q0 43 38 74t95 31q44 0 71 -12l-10 -31q-30 21 -70 21q-41 0 -68 -23t-27 -54q0 -33 53 -76 q2 -1 12 -9t13 -10.5t11.5 -10t11.5 -11.5t8.5 -11.5t8 -13.5t4.5 -14.5t2 -17.5z" />
<glyph horiz-adv-x="340" d="M328 445q-55 -80 -125 -80q-58 0 -58 61q0 15 55 272l-38 1l3 13l40 3l31 110l21 3q-3 -14 -24 -113h129l-6 -20l-127 3q-54 -256 -54 -271q0 -40 40 -40q48 0 104 69z" />
<glyph horiz-adv-x="419" d="M356 372h-30q0 2 -0.5 9.5t-0.5 16.5q0 29 18 129q-29 -72 -71.5 -117t-87.5 -45q-58 0 -58 67q0 19 43 216l11 84l38 7q-9 -45 -20 -95t-17.5 -79t-12.5 -57t-8.5 -45t-2.5 -27q0 -22 11.5 -35t29.5 -13q47 0 98.5 83t67.5 175q8 44 8 48l4 38l37 7q-39 -185 -48.5 -240 t-9.5 -102q0 -18 1 -25z" />
<glyph horiz-adv-x="355" d="M170 560q-7 109 -21 172l30 7q11 -55 20 -168q7 -112 5 -179h1q59 91 98 183.5t39 157.5q8 6 17 6q14 0 14 -16q0 -50 -48.5 -160.5t-119.5 -197.5l-29 7q0 82 -6 188z" />
<glyph horiz-adv-x="537" d="M169 554q-6 106 -20 178l30 7q10 -55 18 -171q6 -86 4 -176h1q58 89 96.5 182.5t38.5 157.5l28 7q14 -72 19 -166q6 -87 4 -181h1q58 91 96.5 183.5t37.5 157.5q8 6 18 6q14 0 14 -16q0 -50 -48 -161.5t-118 -196.5l-28 7q0 139 -12 300q-12 -63 -53 -151.5t-93 -155.5 l-30 7q0 109 -4 182z" />
<glyph horiz-adv-x="361" d="M101 378q0 25 41 81.5t87 94.5q-31 124 -64 178l28 7q29 -50 61 -170q82 80 100 164q6 6 17 6q13 0 13 -13q0 -25 -40.5 -81t-85.5 -93q31 -125 64 -180l-28 -7q-29 50 -61 172q-86 -88 -102 -166q-6 -6 -17 -6q-13 0 -13 13z" />
<glyph horiz-adv-x="359" d="M213 365q-44 -56 -95.5 -94.5t-90.5 -38.5q-31 0 -31 19q0 10 7 17q15 -5 29 -5q32 0 80.5 33.5t82.5 78.5l-16 1q0 91 -6 188q-5 89 -20 168l29 7q13 -66 20 -163q6 -83 6 -182q60 91 99 182.5t39 156.5q8 6 17 6q14 0 14 -16q0 -48 -47.5 -159t-116.5 -199z" />
<glyph horiz-adv-x="371" d="M99 365l-6 11q165 172 247 322q-27 1 -68 6.5t-52 5.5q-34 0 -48 -36l-17 4q13 61 67 61q20 0 62 -9.5t67 -10.5q6 10 10 20q18 0 18 -13q0 -28 -80 -138t-160 -186q28 -1 65.5 -4.5t52.5 -3.5q16 0 27 2.5t23.5 14t20.5 32.5l17 -4q-12 -42 -34 -58t-55 -16 q-20 0 -54 7.5t-54 7.5q-25 0 -49 -15z" />
<glyph horiz-adv-x="216" d="M251 730q-49 -86 -113 -149l-13 6q56 70 93 146zM176 510q-6 -30 -112 -526q-25 -119 -137 -179l-8 18q46 28 74.5 66t41.5 98l85 398l17 115z" />
<glyph horiz-adv-x="887" d="M335 114l14 -8q-33 -52 -82.5 -84t-97.5 -32q-58 0 -89.5 41t-31.5 120q0 86 33.5 169t92.5 136.5t125 53.5q31 0 57 -13q-15 31 -15 61q0 60 52.5 101t142.5 41q41 0 81 -5q-16 -76 -35.5 -166.5t-32 -148.5t-20.5 -98q42 103 101 165.5t119 62.5q77 0 77 -93 q0 -35 -29 -168t-29 -228q0 -4 0.5 -12t0.5 -9h-30q0 1 -0.5 9.5t-0.5 19.5q0 81 29 224t29 165q0 32 -17 50t-40 18q-33 0 -74.5 -38.5t-78 -99t-62.5 -141.5t-29 -159v-28l1 -20h-30q0 1 -0.5 8.5t-0.5 21.5q0 95 39 278l56 262l15 99q-22 7 -55 7q-71 0 -111 -32.5 t-40 -91.5q0 -41 24 -81l-14 -32q-37 47 -86 47q-53 0 -103 -50t-80 -127.5t-30 -155.5q0 -139 97 -139q80 0 158 100z" />
<glyph horiz-adv-x="779" d="M335 114l14 -8q-34 -52 -83 -84t-100 -32q-56 0 -87 41t-31 120q0 86 33.5 169t92.5 136.5t125 53.5q36 0 65 -18q-6 22 -6 44q0 66 46.5 115t107.5 49q46 0 75 -29.5t29 -73.5q0 -29 -12 -63.5t-28 -57.5h187l-7 -25l-177 3q-77 -366 -77 -383q0 -57 55 -57 q69 0 147 100l14 -8q-77 -116 -172 -116q-74 0 -74 81q0 23 37 196q24 109 41 188l-52 1l3 16l53 4q34 64 34 116q0 40 -22 62t-61 22q-53 0 -89 -43t-36 -102q0 -34 13 -64l-14 -28q-37 47 -86 47q-53 0 -103 -50t-80 -127.5t-30 -155.5q0 -139 97 -139q80 0 158 100z" />
<glyph horiz-adv-x="847" d="M287 128q0 -58 -50.5 -98t-126.5 -40q-61 0 -115 25l13 35q47 -36 115 -36q59 0 97 30.5t38 76.5q0 34 -20.5 59.5t-64.5 60.5q-30 24 -42 34.5t-27 36.5t-15 54q0 59 50 101.5t126 42.5q29 0 64 -7q-23 34 -23 70q0 53 51.5 90t138.5 37q41 0 81 -5 q-16 -76 -35.5 -166.5t-32 -148.5t-20.5 -98q42 103 101 165.5t119 62.5q77 0 77 -93q0 -35 -29 -168t-29 -228q0 -4 0.5 -12t0.5 -9h-30q0 1 -0.5 9.5t-0.5 19.5q0 81 29 224t29 165q0 32 -17 50t-40 18q-33 0 -74.5 -38.5t-78 -99t-62.5 -141.5t-29 -159v-28l1 -20h-30 q0 1 -0.5 8.5t-0.5 21.5q0 95 39 278l56 262l15 99q-22 7 -55 7q-69 0 -107.5 -28.5t-38.5 -80.5q0 -38 25 -74l-13 -35q-35 28 -92 28q-60 0 -98 -34t-38 -79q0 -30 17.5 -53.5t54.5 -54.5q3 -3 18 -15t20.5 -17t17.5 -16.5t17 -19.5t12 -19.5t9.5 -23.5t2.5 -26z" />
<glyph horiz-adv-x="393" d="M316 247q0 -89 -50 -170.5t-127 -81.5q-44 0 -68 30t-24 86q0 55 20.5 112t63 98.5t94.5 41.5q44 0 67.5 -30t23.5 -86zM79 111q0 -97 67 -97q60 0 99.5 77t39.5 156q0 96 -68 96q-60 0 -99 -76.5t-39 -155.5z" />
<glyph horiz-adv-x="230" d="M75 0h-27l71 335l-68 -28l-2 19l100 37l3 -2z" />
<glyph horiz-adv-x="318" d="M201 0h-205l-1 16q56 45 82 67t69 63t62.5 75t19.5 64q0 26 -16.5 41t-46.5 15q-44 0 -98 -33v25q54 30 109 30q39 0 61.5 -19.5t22.5 -53.5q0 -32 -20 -67t-59.5 -72t-73 -64t-84.5 -64h70q58 0 119 8z" />
<glyph horiz-adv-x="305" d="M218 111q0 -50 -45 -83t-109 -33q-43 0 -75 13l8 21q34 -14 69 -14q50 0 85 27.5t35 65.5q0 32 -25 46.5t-61 14.5q-16 0 -34 -4l3 16q60 14 101.5 45t41.5 68q0 47 -60 47q-39 0 -87 -25l2 21q43 26 97 26q36 0 58 -16t22 -46q0 -39 -35.5 -69.5t-89.5 -47.5 q99 -3 99 -73z" />
<glyph horiz-adv-x="343" d="M178 0h-28l18 85h-157l-1 14l225 264l19 -5l-53 -248q23 1 55 5l-11 -30h-49zM219 321l-184 -214h99q25 0 39 1z" />
<glyph horiz-adv-x="317" d="M234 126q0 -54 -43 -92.5t-114 -38.5q-40 0 -73 13l8 19q37 -13 69 -13q54 0 88 33t34 77q0 33 -20.5 49t-52.5 16q-39 0 -66 -12l-5 4l38 177h94q52 0 88 5l-11 -29h-155l-31 -137q32 10 64 10q43 0 65.5 -21t22.5 -60z" />
<glyph horiz-adv-x="340" d="M269 129q0 -52 -39.5 -93t-95.5 -41q-90 0 -90 106q0 94 62.5 178t152.5 84q30 0 44 -7l-10 -21q-13 8 -40 8q-54 0 -100.5 -47.5t-67.5 -137.5q46 49 107 49q35 0 56 -21t21 -57zM76 94q0 -80 62 -80q42 0 70.5 35t28.5 78q0 29 -14.5 45.5t-41.5 16.5q-57 0 -102 -56 q-3 -24 -3 -39z" />
<glyph horiz-adv-x="307" d="M64 0h-31q23 85 88.5 180.5t131.5 153.5h-74q-59 0 -119 -7l12 31h205l3 -4l-2 -13q-69 -67 -130 -161t-84 -180z" />
<glyph horiz-adv-x="365" d="M32 64q0 35 33.5 67t80.5 47q-62 39 -62 88q0 40 38 68.5t86 28.5q36 0 59 -18.5t23 -48.5q0 -35 -30.5 -66t-76.5 -47q76 -47 76 -96q0 -38 -39 -65t-92 -27q-43 0 -69.5 19t-26.5 50zM114 271q0 -44 57 -80q39 18 64.5 45t25.5 57q0 23 -17 37t-44 14q-34 0 -60 -21.5 t-26 -51.5zM62 69q0 -25 20 -40.5t53 -15.5q38 0 66 20.5t28 50.5q0 24 -18 43.5t-53 42.5q-40 -17 -68 -44.5t-28 -56.5z" />
<glyph horiz-adv-x="341" d="M42 224q0 54 39.5 96.5t97.5 42.5q88 0 88 -106q0 -94 -62.5 -178t-152.5 -84q-30 0 -44 7l10 21q13 -8 40 -8q54 0 101 44.5t68 129.5q-46 -49 -107 -49q-35 0 -56.5 22.5t-21.5 61.5zM235 263q0 81 -61 81q-43 0 -71.5 -36.5t-28.5 -82.5q0 -67 57 -67t101 55 q3 30 3 50z" />
<glyph horiz-adv-x="542" d="M504 463q0 -74 -21 -155.5t-57.5 -153t-93.5 -118t-122 -46.5q-67 0 -103.5 50.5t-36.5 147.5q0 101 34.5 207.5t104.5 185.5t155 79q67 0 103.5 -50t36.5 -147zM102 195q0 -85 29 -133t89 -48q56 0 105 44t80 111t49 142.5t18 143.5q0 85 -29 133t-89 48q-56 0 -105 -44 t-80 -111t-49 -142.5t-18 -143.5z" />
<glyph horiz-adv-x="302" d="M109 0h-25l132 623l-117 -53l-1 25l147 65l4 -2z" />
<glyph horiz-adv-x="453" d="M327 0h-330l-2 16q176 156 237 218q171 177 171 295q0 51 -28.5 79t-79.5 28q-71 0 -166 -61l-1 30q88 55 176 55q61 0 96 -33t35 -94q0 -28 -8.5 -58t-19.5 -55.5t-36 -59.5t-42 -56.5t-53 -59.5t-55 -55.5t-63 -57.5t-60.5 -53.5t-63.5 -54.5h110q99 0 199 14z" />
<glyph horiz-adv-x="432" d="M358 205q0 -91 -73.5 -153t-180.5 -62q-64 0 -119 24l10 27q60 -26 117 -26q89 0 151.5 54.5t62.5 128.5q0 60 -42 87t-106 27q-30 0 -57 -7l5 24q104 25 176.5 84.5t72.5 132.5q0 43 -26.5 66.5t-75.5 23.5q-63 0 -148 -48l2 26q70 46 156 46q57 0 90.5 -27.5 t33.5 -80.5q0 -71 -58 -129t-147 -90q156 -8 156 -128z" />
<glyph horiz-adv-x="490" d="M282 0h-26l35 164h-264l-2 15l379 481l16 -10l-97 -459q33 2 92 10l-17 -37h-81zM384 600l-325 -414l157 1q28 0 80 2z" />
<glyph horiz-adv-x="448" d="M383 234q0 -99 -70.5 -171.5t-186.5 -72.5q-60 0 -116 24l10 24q58 -24 114 -24q95 0 156 65t61 151q0 63 -34 93t-90 30q-68 0 -111 -23l-7 8l67 312h147q78 0 142 10l-15 -33h-253l-58 -269q46 19 103 19q67 0 104 -36.5t37 -106.5z" />
<glyph horiz-adv-x="468" d="M419 235q0 -94 -63.5 -169.5t-154.5 -75.5q-136 0 -136 179q0 80 26.5 166.5t71.5 159t113 119t143 46.5q48 0 69 -14l-13 -25q-23 15 -68 15q-43 0 -85.5 -21t-82.5 -63t-74.5 -114.5t-55.5 -167.5q40 49 90.5 75t96.5 26q56 0 89.5 -36t33.5 -100zM97 162 q0 -148 110 -148q75 0 127.5 67.5t52.5 151.5q0 54 -25.5 84t-72.5 30q-46 0 -96.5 -29t-89.5 -84q-6 -38 -6 -72z" />
<glyph horiz-adv-x="433" d="M89 0h-28q41 155 153.5 335.5t219.5 291.5h-118q-98 0 -199 -14l17 37h329l4 -5l-3 -12q-115 -122 -223.5 -298t-151.5 -335z" />
<glyph horiz-adv-x="492" d="M44 113q0 67 57 126.5t135 87.5q-98 73 -98 159q0 70 61 122t136 52q55 0 90.5 -32t35.5 -85q0 -66 -53 -125.5t-129 -90.5q120 -87 120 -173q0 -67 -61.5 -115.5t-145.5 -48.5q-68 0 -108 34t-40 89zM168 491q0 -85 96 -152q70 32 118.5 85.5t48.5 113.5q0 44 -29.5 71 t-77.5 27q-62 0 -109 -42.5t-47 -102.5zM74 119q0 -47 35 -76t92 -29q68 0 118 40t50 98q0 43 -30.5 81.5t-87.5 81.5q-73 -30 -125 -83.5t-52 -112.5z" />
<glyph horiz-adv-x="471" d="M437 478q0 -80 -25.5 -165t-69.5 -157.5t-112 -119t-145 -46.5q-48 0 -69 14l13 25q23 -15 68 -15q89 0 172 86.5t123 263.5h-1q-38 -51 -89.5 -78t-98.5 -27q-55 0 -88 37t-33 104q0 98 64 179t156 81q65 0 100 -46t35 -136zM114 401q0 -56 25.5 -87t73.5 -31 q46 0 95 28t89 85q8 48 8 86q0 71 -26.5 112.5t-81.5 41.5q-77 0 -130 -74t-53 -161z" />
<glyph horiz-adv-x="393" d="M378 539q0 -89 -50 -170.5t-127 -81.5q-44 0 -68 30t-24 86q0 55 20.5 112t63 98.5t94.5 41.5q44 0 67.5 -30t23.5 -86zM141 403q0 -97 67 -97q60 0 99.5 77t39.5 156q0 96 -68 96q-60 0 -99 -76.5t-39 -155.5z" />
<glyph horiz-adv-x="230" d="M137 292h-27l71 335l-68 -28l-2 19l100 37l3 -2z" />
<glyph horiz-adv-x="318" d="M263 292h-205l-1 16q56 45 82 67t69 63t62.5 75t19.5 64q0 26 -16.5 41t-46.5 15q-44 0 -98 -33v25q54 30 109 30q39 0 61.5 -19.5t22.5 -53.5q0 -32 -20 -67t-59.5 -72t-73 -64t-84.5 -64h70q58 0 119 8z" />
<glyph horiz-adv-x="305" d="M280 403q0 -50 -45 -83t-109 -33q-42 0 -75 13l8 21q34 -14 69 -14q50 0 85 27.5t35 65.5q0 32 -25 46.5t-61 14.5q-16 0 -34 -4l3 16q60 14 101.5 45t41.5 68q0 47 -60 47q-39 0 -87 -25l2 21q43 26 97 26q36 0 58 -16t22 -46q0 -39 -35.5 -69.5t-89.5 -47.5 q99 -3 99 -73z" />
<glyph horiz-adv-x="343" d="M240 292h-28l18 85h-157l-1 14l225 264l19 -5l-53 -248q23 1 55 5l-11 -30h-49zM281 613l-184 -214h99q25 0 39 1z" />
<glyph horiz-adv-x="317" d="M296 418q0 -54 -43 -92.5t-114 -38.5q-40 0 -73 13l8 19q37 -13 69 -13q54 0 88 33t34 77q0 33 -20.5 49t-52.5 16q-39 0 -66 -12l-5 4l38 177h94q52 0 88 5l-11 -29h-155l-31 -137q32 10 64 10q43 0 65.5 -21t22.5 -60z" />
<glyph horiz-adv-x="340" d="M331 421q0 -52 -39.5 -93t-95.5 -41q-90 0 -90 106q0 94 62.5 178t152.5 84q30 0 44 -7l-10 -21q-13 8 -40 8q-54 0 -100.5 -47.5t-67.5 -137.5q46 49 107 49q35 0 56 -21t21 -57zM138 386q0 -80 62 -80q42 0 70.5 35t28.5 78q0 29 -14.5 45.5t-41.5 16.5q-57 0 -102 -56 q-3 -24 -3 -39z" />
<glyph horiz-adv-x="307" d="M126 292h-31q23 85 88.5 180.5t131.5 153.5h-74q-59 0 -119 -7l12 31h205l3 -4l-2 -13q-69 -67 -130 -161t-84 -180z" />
<glyph horiz-adv-x="365" d="M94 356q0 35 33.5 67t80.5 47q-62 39 -62 88q0 40 38 68.5t86 28.5q36 0 59 -18.5t23 -48.5q0 -35 -30.5 -66t-76.5 -47q76 -47 76 -96q0 -38 -39 -65t-92 -27q-43 0 -69.5 19t-26.5 50zM176 563q0 -44 57 -80q39 18 64.5 45t25.5 57q0 23 -17 37t-44 14q-34 0 -60 -21.5 t-26 -51.5zM124 361q0 -25 20 -40.5t53 -15.5q38 0 66 20.5t28 50.5q0 24 -18 43.5t-53 42.5q-40 -17 -68 -44.5t-28 -56.5z" />
<glyph horiz-adv-x="341" d="M104 516q0 54 39.5 96.5t97.5 42.5q88 0 88 -106q0 -94 -62.5 -178t-152.5 -84q-30 0 -44 7l10 21q13 -8 40 -8q54 0 101 44.5t68 129.5q-46 -49 -107 -49q-35 0 -56.5 22.5t-21.5 61.5zM297 555q0 81 -61 81q-43 0 -71.5 -36.5t-28.5 -82.5q0 -67 57 -67t101 55 q3 30 3 50z" />
<glyph horiz-adv-x="475" d="M417 352q0 -79 -28.5 -161t-85.5 -141.5t-127 -59.5q-57 0 -87.5 40t-30.5 119q0 80 28 162t85 140.5t127 58.5q57 0 88 -40t31 -118zM90 155q0 -65 24 -103t72 -38q58 0 105 54.5t70.5 129.5t23.5 146q0 67 -24 104.5t-72 37.5q-59 0 -106 -55.5t-70 -130t-23 -145.5z " />
<glyph horiz-adv-x="302" d="M109 0h-25l100 473l-117 -53l-1 25l148 65l3 -2z" />
<glyph horiz-adv-x="427" d="M301 0h-302l-2 16q87 68 137 109.5t103.5 94t77.5 97t24 85.5q0 40 -25.5 62t-69.5 22q-67 0 -156 -68l-1 30q84 62 167 62q53 0 85 -27t32 -76q0 -32 -13.5 -65.5t-41.5 -69t-56 -64.5t-73 -66t-75 -60t-78 -59h84q98 0 199 14z" />
<glyph horiz-adv-x="433" d="M326 50q0 -88 -74.5 -149t-180.5 -61q-61 0 -119 21l10 27q60 -23 118 -23q89 0 151.5 53.5t62.5 128.5q0 60 -42 87.5t-107 27.5q-30 0 -57 -7l5 24q119 29 184 89t65 128q0 43 -26.5 66.5t-76.5 23.5q-61 0 -147 -43l2 26q69 41 156 41q57 0 90.5 -27.5t33.5 -79.5 q0 -67 -56 -127t-149 -93q157 -8 157 -133z" />
<glyph horiz-adv-x="505" d="M258 -185h-26l39 185h-279l-2 15l397 495l16 -10l-100 -473q33 2 92 10l-16 -37h-82zM367 450l-343 -428l172 1q27 0 81 2z" />
<glyph horiz-adv-x="448" d="M351 84q0 -99 -70.5 -171.5t-186.5 -72.5q-60 0 -116 24l10 24q58 -24 114 -24q95 0 156 65t61 151q0 63 -34 93t-90 30q-68 0 -111 -23l-7 8l67 312h147q78 0 142 10l-15 -33h-253l-58 -269q46 19 103 19q67 0 104 -36.5t37 -106.5z" />
<glyph horiz-adv-x="468" d="M419 235q0 -94 -63.5 -169.5t-154.5 -75.5q-136 0 -136 179q0 80 26.5 166.5t71.5 159t113 119t143 46.5q48 0 69 -14l-13 -25q-23 15 -68 15q-43 0 -85.5 -21t-82.5 -63t-74.5 -114.5t-55.5 -167.5q40 49 90.5 75t96.5 26q56 0 89.5 -36t33.5 -100zM97 162 q0 -148 110 -148q75 0 127.5 67.5t52.5 151.5q0 54 -25.5 84t-72.5 30q-46 0 -96.5 -29t-89.5 -84q-6 -38 -6 -72z" />
<glyph horiz-adv-x="433" d="M57 -150h-28q41 155 153.5 335.5t219.5 291.5h-118q-98 0 -199 -14l17 37h329l4 -5l-3 -12q-115 -122 -223.5 -298t-151.5 -335z" />
<glyph horiz-adv-x="492" d="M44 113q0 67 57 126.5t135 87.5q-98 73 -98 159q0 70 61 122t136 52q55 0 90.5 -32t35.5 -85q0 -66 -53 -125.5t-129 -90.5q120 -87 120 -173q0 -67 -61.5 -115.5t-145.5 -48.5q-68 0 -108 34t-40 89zM168 491q0 -85 96 -152q70 32 118.5 85.5t48.5 113.5q0 44 -29.5 71 t-77.5 27q-62 0 -109 -42.5t-47 -102.5zM74 119q0 -47 35 -76t92 -29q68 0 118 40t50 98q0 43 -30.5 81.5t-87.5 81.5q-73 -30 -125 -83.5t-52 -112.5z" />
<glyph horiz-adv-x="466" d="M401 328q0 -80 -25.5 -165t-69.5 -157.5t-112 -119t-145 -46.5q-48 0 -69 14l13 25q23 -15 68 -15q89 0 172 86.5t123 263.5h-1q-38 -51 -89.5 -78t-98.5 -27q-55 0 -88 37t-33 104q0 98 64 179t156 81q65 0 100 -46t35 -136zM78 251q0 -56 25.5 -87t73.5 -31q46 0 95 28 t89 85q8 48 8 86q0 71 -26.5 112.5t-81.5 41.5q-77 0 -130 -74t-53 -161z" />
<glyph horiz-adv-x="250" d="M112 123h-20q82 387 106 527l34 10q-6 -37 -31 -157q-37 -176 -89 -380zM102 12q0 -19 -11 -37t-27 -18q-20 0 -20 25q0 20 12 37.5t27 17.5q19 0 19 -25z" />
<glyph horiz-adv-x="222" d="M156 638q0 19 11 37t27 18q20 0 20 -25q0 -20 -12 -37.5t-27 -17.5q-19 0 -19 25zM148 527h22q-92 -433 -108 -527l-34 -10q6 37 31 157q28 131 89 380z" />
<glyph horiz-adv-x="449" d="M187 123h-26q0 8 10 70q5 31 31 65.5t58.5 66t64.5 64.5t53.5 72t21.5 77q0 44 -28.5 69t-71.5 25q-38 0 -81.5 -20t-79.5 -55l-10 19q89 84 181 84q54 0 86 -30t32 -82q0 -48 -20.5 -89.5t-51.5 -73.5t-63.5 -62t-59.5 -66t-36 -73q-6 -25 -10 -61zM182 12 q0 -19 -11 -37t-27 -18q-20 0 -20 25q0 20 12 37.5t27 17.5q19 0 19 -25z" />
<glyph horiz-adv-x="449" d="M296 638q0 19 11 37t27 18q20 0 20 -25q0 -20 -12 -37.5t-27 -17.5q-19 0 -19 25zM291 527h26q0 -8 -10 -70q-5 -31 -31 -65.5t-58.5 -66t-64.5 -64.5t-53.5 -72t-21.5 -77q0 -44 28.5 -69t71.5 -25q38 0 81.5 20t79.5 55l10 -19q-89 -84 -181 -84q-54 0 -86 30t-32 82 q0 48 20.5 89.5t51.5 73.5t63.5 62t59.5 66t36 73q6 25 10 61z" />
<glyph horiz-adv-x="252" d="M116 208q-19 0 -19 23q0 16 11 30.5t25 14.5q19 0 19 -21q0 -16 -10.5 -31.5t-25.5 -15.5z" />
<glyph horiz-adv-x="365" d="M273 292q0 -46 -34 -85t-80 -39q-28 0 -44.5 16t-16.5 46q0 46 35.5 85t80.5 39q27 0 43 -16t16 -46z" />
<glyph horiz-adv-x="360" d="M199 414l35 112l-94 -66l-9 31l100 46l-80 46l22 31l65 -67l14 113h31l-35 -113l94 67l9 -31l-99 -46l79 -46l-22 -31l-65 67l-14 -113h-31z" />
<glyph horiz-adv-x="327" d="M49 -10l-21 7l-1 3l282 660l22 -7l1 -3z" />
<glyph horiz-adv-x="347" d="M352 -10l-283 660l1 3l22 7l282 -660l-1 -3z" />
<glyph horiz-adv-x="599" d="M507 193h-141l-86 -203l-19 1l-4 6l83 196h-155l-86 -203l-19 1l-3 6l83 196h-127l-4 5l6 20h136l91 215h-140l-4 5l6 20h148l86 202l18 -1l4 -6l-83 -195h155l86 202l19 -1l4 -6l-83 -195h120l4 -5l-6 -20h-128l-91 -215h132l4 -5zM196 218h155l91 215h-155z" />
<glyph horiz-adv-x="513" d="M410 144h-108l-65 -154l-19 1l-4 6l62 147h-129l-65 -154l-19 1l-4 6l62 147h-98l-4 5l5 20h108l70 165h-101l-4 5l6 20h110l64 151l18 -1l4 -6l-61 -144h130l64 151l18 -1l4 -6l-61 -144h98l4 -5l-6 -20h-106l-70 -165h99l4 -5zM158 169h129l70 165h-129z" />
<glyph horiz-adv-x="272" d="M69 216q0 139 72.5 267.5t194.5 211.5l6 -19q-113 -88 -175.5 -209.5t-62.5 -250.5q0 -144 88 -246l-14 -19q-109 103 -109 265z" />
<glyph horiz-adv-x="272" d="M234 430q0 -139 -72.5 -267.5t-194.5 -211.5l-6 19q113 88 175.5 209.5t62.5 250.5q0 144 -88 246l14 19q109 -103 109 -265z" />
<glyph horiz-adv-x="259" d="M139 241q0 57 -77 64l6 30q116 10 116 124q0 14 -3 41.5t-3 44.5q0 150 152 150l-4 -24q-62 -1 -91 -31t-29 -96q0 -15 2 -44t2 -40q0 -58 -27.5 -94t-76.5 -47q27 -8 44 -27.5t17 -45.5q0 -30 -37 -111.5t-37 -110.5q0 -54 84 -55l-6 -24q-106 0 -106 76q0 40 37 115 t37 105z" />
<glyph horiz-adv-x="258" d="M149 399q0 -57 77 -64l-6 -30q-116 -10 -116 -124q0 -14 3 -41.5t3 -44.5q0 -150 -152 -150l4 24q62 1 91 31t29 96q0 15 -2 44t-2 40q0 58 27.5 94t76.5 47q-27 8 -44 27.5t-17 45.5q0 30 37 111.5t37 110.5q0 54 -84 55l6 24q106 0 106 -76q0 -40 -37 -115t-37 -105z " />
<glyph horiz-adv-x="353" d="M23 -22l152 717h152l-5 -24h-123l-148 -693h123l-5 -24h-151z" />
<glyph horiz-adv-x="352" d="M209 -46h-152l5 24h123l148 693h-123l5 24h151l-5 -24z" />
<glyph horiz-adv-x="288" d="M51 330l2 26h224l-2 -26h-224z" />
<glyph horiz-adv-x="401" d="M49 330l3 26h339l-3 -26h-339z" />
<glyph horiz-adv-x="607" d="M48 330l5 26h546l-5 -26h-546z" />
<glyph horiz-adv-x="190" d="M67 33q0 -30 -29 -88t-73 -104l-10 9q56 68 78 140h-1q-19 3 -19 25q0 17 10.5 30t24.5 13q19 0 19 -25z" />
<glyph horiz-adv-x="317" d="M67 33q0 -30 -29 -88t-73 -104l-10 9q56 68 78 140h-1q-19 3 -19 25q0 17 10.5 30t24.5 13q19 0 19 -25zM194 33q0 -30 -29 -88t-73 -104l-10 9q56 68 78 140h-1q-19 3 -19 25q0 17 10.5 30t24.5 13q19 0 19 -25z" />
<glyph horiz-adv-x="317" d="M123 468q0 30 29 88t73 104l10 -9q-56 -68 -78 -140h1q19 -3 19 -25q0 -17 -10.5 -30t-24.5 -13q-19 0 -19 25zM250 468q0 30 29 88t73 104l10 -9q-56 -68 -78 -140h1q19 -3 19 -25q0 -17 -10.5 -30t-24.5 -13q-19 0 -19 25z" />
<glyph horiz-adv-x="317" d="M322 635q0 -30 -29 -88t-73 -104l-10 9q56 68 78 140h-1q-19 3 -19 25q0 17 10.5 30t24.5 13q19 0 19 -25zM195 635q0 -30 -29 -88t-73 -104l-10 9q56 68 78 140h-1q-19 3 -19 25q0 17 10.5 30t24.5 13q19 0 19 -25z" />
<glyph horiz-adv-x="190" d="M123 468q0 30 29 88t73 104l10 -9q-56 -68 -78 -140h1q19 -3 19 -25q0 -17 -10.5 -30t-24.5 -13q-19 0 -19 25z" />
<glyph horiz-adv-x="190" d="M195 635q0 -30 -29 -88t-73 -104l-10 9q56 68 78 140h-1q-19 3 -19 25q0 17 10.5 30t24.5 13q19 0 19 -25z" />
<glyph horiz-adv-x="440" d="M251 362l1 8q95 90 186 199l8 -7q-55 -77 -161 -196q54 -114 78 -196l-11 -7q-45 107 -101 199zM85 362l1 8q95 90 186 199l8 -7q-55 -77 -161 -196q54 -114 78 -196l-11 -7q-45 107 -101 199z" />
<glyph horiz-adv-x="439" d="M238 370l-1 -8q-95 -90 -186 -199l-8 7q55 77 161 196q-54 114 -78 196l11 7q45 -107 101 -199zM404 370l-1 -8q-95 -90 -186 -199l-8 7q55 77 161 196q-54 114 -78 196l11 7q45 -107 101 -199z" />
<glyph horiz-adv-x="274" d="M84 359l1 8q95 90 186 199l8 -7q-55 -77 -161 -196q54 -114 78 -196l-11 -7q-45 107 -101 199z" />
<glyph horiz-adv-x="274" d="M238 367l-1 -8q-95 -90 -186 -199l-8 7q55 77 161 196q-54 114 -78 196l11 7q45 -107 101 -199z" />
<glyph horiz-adv-x="310" d="M187 660l-61 -234h-17l38 234h40zM337 660l-61 -234h-17l38 234h40z" />
<glyph horiz-adv-x="180" d="M197 660l-61 -234h-17l38 234h40z" />
<glyph horiz-adv-x="420" d="M146 -122l24 112h-1q-58 0 -89.5 41t-31.5 120q0 86 33.5 169t92 136.5t123.5 53.5l24 109l26 3l-24 -114q37 -6 70 -37l-14 -32q-37 47 -86 47q-53 0 -103 -50t-80 -127.5t-30 -155.5q0 -139 97 -139q80 0 158 100l14 -8q-29 -44 -69.5 -74.5t-83.5 -38.5l-23 -112z" />
<glyph horiz-adv-x="475" d="M358 66l-52 82q-51 -46 -108 -46q-52 0 -82 35l-77 -72l-13 21l76 71q-15 29 -15 68q0 90 68 160l-50 78l23 21q41 -65 50 -78q46 36 97 36q53 0 82 -40l87 82l14 -21l-88 -82l-1 1q14 -30 14 -66q0 -82 -57 -147q20 -30 55 -80zM114 233q0 -45 23.5 -73t66.5 -28 q63 0 108 55.5t45 121.5q0 44 -23.5 73.5t-66.5 29.5q-62 0 -107.5 -56t-45.5 -123z" />
<glyph horiz-adv-x="410" d="M112 -122l24 112h-4q-63 0 -121 29l13 35q48 -40 120 -40q67 0 111 44t44 105q0 37 -18.5 68.5t-44.5 56t-52.5 49.5t-45 60t-18.5 76q0 70 47 122.5t120 62.5l23 111l26 3l-24 -112h4q60 0 102 -22l-12 -35q-12 11 -40.5 22t-60.5 11q-65 0 -110 -45.5t-45 -106.5 q0 -36 18.5 -68.5t45 -58t52.5 -51.5t44.5 -60.5t18.5 -74.5q0 -68 -47.5 -118.5t-119.5 -60.5l-24 -111z" />
<glyph horiz-adv-x="489" d="M50 250l8 22h56q6 54 23 108h-46l7 22h46q39 112 111 185t164 73q63 0 112 -26l-17 -34q-44 36 -108 36q-79 0 -139.5 -65.5t-93.5 -168.5h237l-6 -22h-237q-14 -44 -21 -108h224l-7 -22h-219q-1 -12 -1 -35q0 -96 34.5 -148t100.5 -52t124 38v-24q-53 -39 -132 -39 q-78 0 -119 56.5t-41 160.5q0 15 2 43h-62z" />
<glyph horiz-adv-x="432" d="M386 307l-163 3l-78 -260q-60 -201 -180 -201q-52 0 -90 26l19 28q9 -9 32 -19.5t47 -10.5q94 0 148 180l76 258l-78 1l6 15l78 5q5 16 24 82t26 86q53 160 175 160q49 0 83 -26l-21 -36q-27 38 -78 38q-44 0 -75.5 -32t-57.5 -107q-11 -32 -50 -165h166z" />
<glyph horiz-adv-x="445" d="M385 320l-157 3l-23 -83q-22 -81 -60 -141t-82 -89q8 -5 39 -28t48.5 -33.5t49.5 -22t62 -11.5q52 0 80 16l-17 -32q-23 -10 -66 -10q-54 0 -105 29.5t-111 80.5q-21 -9 -42 -9q-17 0 -23 5.5t-4 14.5q4 22 34 22q17 0 37 -11q35 20 73 77.5t61 140.5l23 84l-92 2l3 17 l95 5h1q17 60 28 97t28 82t33.5 71.5t38 51t48.5 35.5t59 11q36 0 70 -19l-17 -38q-28 32 -74 32q-29 0 -51.5 -13t-39.5 -37t-31.5 -59t-27.5 -77t-27 -93q-8 -29 -12 -44h158z" />
<glyph horiz-adv-x="481" d="M52 125l5 22h147l14 65h-147l5 22h137l-88 416l27 10l88 -410h1l262 410l23 -10l-266 -416h134l-5 -22h-143l-14 -65h143l-4 -22h-144l-27 -125h-27l26 125h-147z" />
<glyph horiz-adv-x="420" d="M146 -122l24 112h-1q-58 0 -89.5 41t-31.5 120q0 86 33.5 169t92 136.5t123.5 53.5l24 109l26 3l-24 -114q37 -6 70 -37l-14 -32q-37 47 -86 47q-53 0 -103 -50t-80 -127.5t-30 -155.5q0 -139 97 -139q80 0 158 100l14 -8q-29 -44 -69.5 -74.5t-83.5 -38.5l-23 -112z" />
<glyph horiz-adv-x="476" d="M353 41l-52 82q-51 -46 -108 -46q-52 0 -82 35l-77 -72l-13 21l76 71q-15 28 -15 68q0 90 68 160l-50 78l23 21q41 -65 50 -78q46 36 97 36q53 0 82 -40l87 82l14 -21l-88 -82l-1 1q14 -30 14 -66q0 -82 -57 -147q20 -30 55 -80zM109 208q0 -45 23.5 -73t66.5 -28 q63 0 108 55.5t45 121.5q0 44 -23.5 73.5t-66.5 29.5q-62 0 -107.5 -56t-45.5 -123z" />
<glyph horiz-adv-x="365" d="M80 -122l24 112q-56 1 -109 25l13 35q47 -36 115 -36q59 0 97 30.5t38 76.5q0 34 -20.5 59.5t-64.5 60.5q-30 24 -42 34.5t-27 36.5t-15 54q0 51 39.5 91t102.5 50l23 112l27 3l-24 -112h8q58 0 94 -17l-13 -35q-35 28 -92 28q-60 0 -98 -34t-38 -79q0 -30 17.5 -53.5 t54.5 -54.5q3 -3 18 -15t20.5 -17t17.5 -16.5t17 -19.5t12 -19.5t9.5 -23.5t2.5 -26q0 -54 -44.5 -93t-113.5 -44l-23 -110z" />
<glyph horiz-adv-x="461" d="M376 114l14 -8q-33 -52 -82.5 -84t-97.5 -32q-58 0 -89.5 41t-31.5 120q0 15 2 43h-53l8 23h48q7 41 17 68h-47l8 23h47q33 88 92.5 145t128.5 57q53 0 94 -39l-14 -32q-37 47 -86 47q-53 0 -103 -50t-80 -128h236l-7 -23h-237q-11 -36 -17 -68h235l-7 -23h-231 q-2 -28 -2 -41q0 -139 97 -139q80 0 158 100z" />
<glyph horiz-adv-x="439" d="M388 237l-155 3l-47 -159q-27 -89 -72 -139.5t-105 -50.5q-52 0 -90 26l19 28q10 -10 32.5 -20t47.5 -10q92 0 140 159l50 166l-96 2l6 15l96 5q2 7 24 82q53 166 179 166q50 0 82 -26l-20 -36q-27 38 -79 38q-49 0 -80.5 -34t-56.5 -110q-22 -71 -24 -80h158z" />
<glyph horiz-adv-x="446" d="M365 230l-162 3l-10 -29q-54 -153 -127 -196q5 -4 38 -27.5t49 -33t47.5 -21t60.5 -11.5q53 0 81 16l-17 -32q-23 -10 -67 -10q-53 0 -103.5 29t-109.5 80q-22 -8 -42 -8q-30 0 -30 17q0 11 10 18t25 7q17 0 37 -11q74 36 123 182l10 30l-88 2l4 17l91 5h1q13 38 21.5 61 t29 64t41.5 65t54.5 43.5t71.5 19.5q35 0 71 -19l-18 -38q-26 32 -72 32q-19 0 -36.5 -7.5t-30.5 -17t-26.5 -28t-21.5 -31.5t-19 -38.5t-15.5 -36.5t-13.5 -37.5t-11 -31.5h162z" />
<glyph horiz-adv-x="410" d="M25 114l5 22h137l14 69h-136l4 22h125l-81 273l24 10l83 -283h1l202 283l20 -10l-198 -273h125l-4 -22h-137l-15 -69h137l-5 -22h-136l-25 -114h-27l24 114h-137z" />
<glyph horiz-adv-x="600" d="M478 312h-150l-39 -182h-24l39 182h-156l5 23q72 2 156 2l39 183h24l-39 -183q58 1 152 1z" />
<glyph horiz-adv-x="531" d="M443 312h-330l5 23q114 3 332 3z" />
<glyph horiz-adv-x="600" d="M418 140l-105 166l-170 -158l-13 19l171 159l-106 168l18 16q42 -62 108 -166l171 159l12 -19l-171 -159q15 -24 106 -165l-3 -6z" />
<glyph horiz-adv-x="600" d="M380 505q0 -20 -11 -38.5t-29 -18.5q-21 0 -21 26q0 20 12.5 38t28.5 18q20 0 20 -25zM478 312h-330l5 23q114 3 332 3zM311 177q0 -19 -11.5 -37.5t-28.5 -18.5q-22 0 -22 27q0 20 12.5 37.5t29.5 17.5q20 0 20 -26z" />
<glyph horiz-adv-x="600" d="M499 413h-330l5 23q114 3 332 3zM455 211h-330l5 23q114 3 332 3z" />
<glyph horiz-adv-x="600" d="M184 116l-13 13l57 82h-102l5 23q15 1 54.5 1.5t59.5 0.5l122 177h-197l5 23q36 1 210 3l64 93l5 3l12 -13l-57 -83h98l-7 -26h-109l-122 -177q72 1 194 1l-7 -26h-204l-63 -92z" />
<glyph horiz-adv-x="600" d="M114 133l6 30l324 165l-254 160l7 30q138 -83 284 -182l-3 -16z" />
<glyph horiz-adv-x="600" d="M519 518l-6 -30l-324 -165l254 -160l-7 -30q-138 83 -284 182l3 16z" />
<glyph horiz-adv-x="600" d="M131 236l6 28l317 122l-264 123l6 28q173 -76 294 -139l-5 -24zM436 115h-330l5 23q114 3 332 3z" />
<glyph horiz-adv-x="600" d="M526 537l-6 -28l-316 -122l263 -123l-5 -28q-170 74 -295 139l5 24zM436 115h-330l5 23q114 3 332 3z" />
<glyph horiz-adv-x="600" d="M485 348h-151l-35 -162h-24l34 162h-154l5 23q72 2 155 2l34 163h25l-35 -163q59 1 153 1zM425 71h-330l5 23q114 3 332 3z" />
<glyph horiz-adv-x="600" d="M234 453q-14 0 -72 -66l-10 8q60 87 89 87q19 0 102 -30.5t104 -30.5q13 0 72 66l10 -8q-58 -87 -89 -87q-19 0 -104 30.5t-102 30.5zM186 229q-14 0 -72 -66l-10 8q60 87 89 87q19 0 102 -30.5t104 -30.5q13 0 72 66l10 -8q-58 -87 -89 -87q-19 0 -104 30.5t-102 30.5z " />
<glyph horiz-adv-x="600" d="M484 333l-42 -201h-25l36 171h-309l6 25q123 5 334 5z" />
<glyph horiz-adv-x="830" d="M710 320q0 -82 -50.5 -152t-123.5 -70q-51 0 -77.5 35t-44.5 100q-97 -135 -187 -135q-47 0 -73 32.5t-26 87.5q0 82 52 149t123 67q28 0 49.5 -11.5t35 -34t21.5 -43t17 -51.5q100 140 191 140q44 0 68.5 -30.5t24.5 -83.5zM155 223q0 -47 20.5 -73t56.5 -26 q77 0 175 135l-1 3q-21 76 -44.5 111t-67.5 35q-59 0 -99 -58t-40 -127zM608 408q-77 0 -175 -139q22 -76 45 -110.5t66 -34.5q59 0 98.5 58.5t39.5 128.5q0 47 -20 72t-54 25z" />
<glyph horiz-adv-x="887" d="M217 -10h-26l486 670h26zM378 539q0 -89 -50 -170.5t-127 -81.5q-44 0 -68 30t-24 86q0 55 20.5 112t63 98.5t94.5 41.5q44 0 67.5 -30t23.5 -86zM141 403q0 -97 67 -97q60 0 99.5 77t39.5 156q0 96 -68 96q-60 0 -99 -76.5t-39 -155.5zM810 247q0 -89 -50 -170.5 t-127 -81.5q-44 0 -68 30t-24 86q0 55 20.5 112t63 98.5t94.5 41.5q44 0 67.5 -30t23.5 -86zM573 111q0 -97 67 -97q60 0 99.5 77t39.5 156q0 96 -68 96q-60 0 -99 -76.5t-39 -155.5z" />
<glyph horiz-adv-x="1261" d="M217 -10h-26l486 670h26zM378 539q0 -89 -50 -170.5t-127 -81.5q-44 0 -68 30t-24 86q0 55 20.5 112t63 98.5t94.5 41.5q44 0 67.5 -30t23.5 -86zM141 403q0 -97 67 -97q60 0 99.5 77t39.5 156q0 96 -68 96q-60 0 -99 -76.5t-39 -155.5zM810 247q0 -89 -50 -170.5 t-127 -81.5q-44 0 -68 30t-24 86q0 55 20.5 112t63 98.5t94.5 41.5q44 0 67.5 -30t23.5 -86zM1184 247q0 -89 -50 -170.5t-127 -81.5q-44 0 -68 30t-24 86q0 55 20.5 112t63 98.5t94.5 41.5q44 0 67.5 -30t23.5 -86zM573 111q0 -97 67 -97q60 0 99.5 77t39.5 156 q0 96 -68 96q-60 0 -99 -76.5t-39 -155.5zM947 111q0 -97 67 -97q60 0 99.5 77t39.5 156q0 96 -68 96q-60 0 -99 -76.5t-39 -155.5z" />
<glyph horiz-adv-x="600" d="M462 237h-150l-39 -182h-24l39 182h-156l5 23q72 2 156 2l39 183h24l-39 -183q58 1 152 1z" />
<glyph horiz-adv-x="531" d="M427 237h-330l5 23q114 3 332 3z" />
<glyph horiz-adv-x="515" d="M359 65l-105 166l-170 -158l-13 19l171 159l-106 168l18 16q42 -62 108 -166l171 159l12 -19l-171 -159q15 -24 106 -165l-3 -6z" />
<glyph horiz-adv-x="600" d="M364 430q0 -20 -11 -38.5t-29 -18.5q-21 0 -21 26q0 20 12.5 38t28.5 18q20 0 20 -25zM462 237h-330l5 23q114 3 332 3zM295 102q0 -19 -11.5 -37.5t-28.5 -18.5q-22 0 -22 27q0 20 12.5 37.5t29.5 17.5q20 0 20 -26z" />
<glyph horiz-adv-x="600" d="M483 338h-330l5 23q114 3 332 3zM439 136h-330l5 23q114 3 332 3z" />
<glyph horiz-adv-x="600" d="M168 41l-13 13l57 82h-102l5 23q15 1 54.5 1.5t59.5 0.5l122 177h-197l5 23q36 1 210 3l64 93l5 3l12 -13l-57 -83h98l-7 -26h-109l-122 -177q72 1 194 1l-7 -26h-204l-63 -92z" />
<glyph horiz-adv-x="600" d="M97 57l6 30l324 165l-254 160l7 30q138 -83 284 -182l-3 -16z" />
<glyph horiz-adv-x="601" d="M503 442l-6 -30l-324 -165l254 -160l-7 -30q-138 83 -284 182l3 16z" />
<glyph horiz-adv-x="603" d="M125 161l6 28l317 122l-264 123l6 28q173 -76 294 -139l-5 -24zM420 40h-330l4 23q114 3 332 3z" />
<glyph horiz-adv-x="601" d="M505 462l-6 -28l-316 -122l265 -123l-6 -28l-296 138l5 24q154 66 354 139zM421 40h-330l5 23q114 3 332 3z" />
<glyph horiz-adv-x="599" d="M467 268h-150l-35 -162h-24l34 162h-155l5 23q72 2 156 2l34 163h25l-35 -163q58 1 151 1zM408 -9h-330l5 23q114 3 332 3z" />
<glyph horiz-adv-x="600" d="M218 378q-14 0 -72 -66l-10 8q60 87 89 87q19 0 102 -30.5t104 -30.5q13 0 72 66l10 -8q-58 -87 -89 -87q-19 0 -104 30.5t-102 30.5zM170 154q-14 0 -72 -66l-10 8q60 87 89 87q19 0 102 -30.5t104 -30.5q13 0 72 66l10 -8q-58 -87 -89 -87q-19 0 -104 30.5t-102 30.5z " />
<glyph horiz-adv-x="600" d="M484 332l-42 -201h-25l36 171h-309l6 25q123 5 334 5z" />
<glyph horiz-adv-x="831" d="M707 304q0 -82 -50.5 -152t-123.5 -70q-51 0 -77.5 35t-44.5 100q-97 -135 -187 -135q-47 0 -73 32.5t-26 87.5q0 82 52 149t123 67q28 0 49.5 -11.5t35 -34t21.5 -43t17 -51.5q100 140 191 140q44 0 68.5 -30.5t24.5 -83.5zM152 207q0 -47 20.5 -73t56.5 -26 q77 0 175 135l-1 3q-21 76 -44.5 111t-67.5 35q-59 0 -99 -58t-40 -127zM605 392q-77 0 -175 -139q22 -76 45 -110.5t66 -34.5q59 0 98.5 58.5t39.5 128.5q0 47 -20 72t-54 25z" />
<glyph horiz-adv-x="694" d="M310 418q0 -66 -40.5 -123t-98.5 -57q-37 0 -58 25.5t-21 69.5q0 65 41 121t99 56q37 0 57.5 -24.5t20.5 -67.5zM520 510h31l-378 -520h-30zM119 334q0 -36 15.5 -57t42.5 -21q45 0 76 54t31 108q0 35 -14.5 54.5t-41.5 19.5q-45 0 -77 -50.5t-32 -107.5zM603 170 q0 -66 -40.5 -123t-98.5 -57q-37 0 -58 25.5t-21 69.5q0 65 41 121t99 56q37 0 57.5 -24.5t20.5 -67.5zM412 86q0 -36 15.5 -57t42.5 -21q45 0 76 54t31 108q0 35 -14.5 54.5t-41.5 19.5q-45 0 -77 -50.5t-32 -107.5z" />
<glyph horiz-adv-x="954" d="M310 418q0 -66 -40.5 -123t-98.5 -57q-37 0 -58 25.5t-21 69.5q0 65 41 121t99 56q37 0 57.5 -24.5t20.5 -67.5zM520 510h31l-378 -520h-30zM119 334q0 -36 15.5 -57t42.5 -21q45 0 76 54t31 108q0 35 -14.5 54.5t-41.5 19.5q-45 0 -77 -50.5t-32 -107.5zM863 170 q0 -66 -40.5 -123t-98.5 -57q-37 0 -58 25.5t-21 69.5q0 65 41 121t99 56q37 0 57.5 -24.5t20.5 -67.5zM603 170q0 -66 -40.5 -123t-98.5 -57q-37 0 -58 25.5t-21 69.5q0 65 41 121t99 56q37 0 57.5 -24.5t20.5 -67.5zM672 86q0 -36 15.5 -57t42.5 -21q45 0 76 54t31 108 q0 35 -14.5 54.5t-41.5 19.5q-45 0 -77 -50.5t-32 -107.5zM412 86q0 -36 15.5 -57t42.5 -21q45 0 76 54t31 108q0 35 -14.5 54.5t-41.5 19.5q-45 0 -77 -50.5t-32 -107.5z" />
<glyph horiz-adv-x="615" d="M551 55q0 -52 -43 -65l-7 7q18 22 18 56q0 52 -91 115q-49 -81 -118 -129.5t-149 -48.5q-70 0 -106.5 37.5t-36.5 98.5q0 68 45 131t119 106q-34 55 -34 115q0 85 57 133.5t127 48.5q49 0 77.5 -25t28.5 -64q0 -28 -13.5 -60t-35.5 -53q144 0 236 5q0 -17 -6 -35 q-28 0 -112 4q-2 -121 -64 -238q53 -35 80.5 -67.5t27.5 -71.5zM180 486q0 -26 7 -50t15 -42.5t27 -40t31 -33.5t39.5 -32t38.5 -27.5t43.5 -28t40.5 -25.5q53 109 53 226q-16 1 -40 2t-40 2t-27 1l-5 11q43 60 43 109q0 34 -21 56t-63 22q-56 0 -99 -38.5t-43 -111.5z M50 133q0 -53 32.5 -86t90.5 -33q68 0 129.5 45t105.5 122q-11 7 -43.5 27.5t-49.5 32t-42.5 30.5t-45 38t-34.5 39q-64 -38 -103.5 -97t-39.5 -118z" />
<glyph horiz-adv-x="316" d="M310 471q0 -55 -38 -101t-90 -46q-35 0 -55 23t-20 62q0 55 37.5 100t89.5 45q35 0 55.5 -23t20.5 -60zM136 419q0 -31 15 -49.5t40 -18.5q38 0 63.5 35.5t25.5 76.5q0 29 -14.5 46.5t-39.5 17.5q-37 0 -63.5 -33t-26.5 -75z" />
<glyph horiz-adv-x="316" d="M310 321q0 -55 -38 -101t-90 -46q-35 0 -55 23t-20 62q0 55 37.5 100t89.5 45q35 0 55.5 -23t20.5 -60zM136 269q0 -31 15 -49.5t40 -18.5q38 0 63.5 35.5t25.5 76.5q0 29 -14.5 46.5t-39.5 17.5q-37 0 -63.5 -33t-26.5 -75z" />
<glyph horiz-adv-x="488" d="M313 816q-72 -57 -156 -84l-4 17q69 37 134 92zM547 816q-72 -57 -156 -84l-4 17q69 37 134 92zM87 0h-28l114 535l17 115l37 10zM181 -171q51 23 79.5 62.5t41.5 99.5l116 544l17 115l35 10l-140 -660q-32 -151 -151 -195z" />
<glyph horiz-adv-x="436" d="M240 730q-49 -86 -113 -149l-13 6q56 70 93 146zM471 730q-49 -86 -113 -149l-13 6q56 70 93 146zM173 510q-56 -265 -69 -339t-13 -142q0 -18 1 -29h-30v10q-1 9 -1 13q0 104 39 285l16 74l17 118zM396 510q-6 -30 -112 -526q-25 -119 -137 -179l-8 18q46 28 74.5 66 t41.5 98l85 398l17 115z" />
</font>
</defs>
</svg>
