<?xml version="1.0" standalone="no"?>
<!DOCTYPE svg PUBLIC "-//W3C//DTD SVG 1.1//EN" "http://www.w3.org/Graphics/SVG/1.1/DTD/svg11.dtd" >
<svg xmlns="http://www.w3.org/2000/svg" xmlns:xlink="http://www.w3.org/1999/xlink" version="1.1">
<metadata></metadata>
<defs>
<font id="indivisa_text_sansBlkIt" horiz-adv-x="620" >
<font-face units-per-em="1000" ascent="750" descent="-250" />
<missing-glyph horiz-adv-x="250" />
<glyph unicode="&#x2f;symbol&#x33;&#x2f;" horiz-adv-x="957" d="M505 638l68 -270h270l-203 -135l136 -270l-271 135l-270 -270l135 405l-270 203l338 -68zM814 87q18 0 30.5 -12.5t12.5 -31.5q0 -18 -12.5 -30.5t-30.5 -12.5t-30.5 12.5t-12.5 30.5q0 19 12.5 31.5t30.5 12.5zM854 43q0 17 -11.5 29t-28.5 12t-28.5 -12t-11.5 -29 t12 -28.5t28 -11.5t28 11.5t12 28.5zM796 68h18q8 0 11 -2q6 -3 6 -10q0 -5 -4 -9q-3 -3 -6 -3q7 -3 8 -10q2 -14 3 -16h-7q-1 2 -2 7.5t-1 6.5q0 9 -10 9h-9v-23h-7v50zM803 47h10q5 0 7 1q3 3 3 6q0 9 -10 9h-10v-16z" />
<glyph unicode="&#x2f;symbol&#x32;&#x2f;" horiz-adv-x="932" d="M494 570l52 -90l-137 -240h-103l137 240l-52 90h103zM357 570l52 -90l-138 -240h-103l138 240l-52 90h103zM752 120h-103l-137 240l51 90l137 -240h103zM683 0h-103l-137 240l51 90l138 -240h103zM100 120l51 90h275l51 -90h-274l-52 -90zM168 0l52 90h274l52 -90h-275 l-51 -90zM789 88q18 0 30.5 -13t12.5 -31t-12.5 -31t-30.5 -13t-30.5 13t-12.5 31t12.5 31t30.5 13zM829 44q0 16 -11.5 28t-28.5 12t-28.5 -12t-11.5 -28t11.5 -28t28.5 -12t28.5 12t11.5 28zM771 69h18q7 0 11 -2q5 -4 5 -11q0 -5 -3 -8q-1 -2 -6 -4q7 -1 8 -9q0 -8 3 -16 h-8q-1 2 -1.5 6.5t-0.5 6.5q-1 10 -11 10h-8v-23h-7v50zM778 47h10q5 0 7 1q3 3 3 7q0 8 -10 8h-10v-16z" />
<glyph unicode="&#x2f;symbol&#x35;&#x2f;" horiz-adv-x="705" d="M232 -6l-132 136l124 234l129 -136zM474 -6l-121 234l128 136l124 -234z" />
<glyph unicode="&#x2f;symbol&#x31;&#x2f;" horiz-adv-x="5534" d="M1865 412q-25 0 -40.5 14.5t-15.5 37.5q0 35 32.5 64t70.5 29q24 0 39 -13.5t15 -37.5q0 -36 -31 -65t-70 -29zM1284 412q-26 0 -41.5 14.5t-15.5 37.5q0 35 33 64t71 29q24 0 38.5 -13.5t14.5 -37.5q0 -36 -31 -65t-69 -29zM959 0q0 42 11 108q-16 -50 -51.5 -82.5 t-78.5 -32.5q-41 0 -63 29.5t-22 82.5q0 62 27 121t84 101t132 42q17 0 25 -1l16 73l6 102l136 7q0 -67 -46 -273t-46 -277h-130zM100 0l78 364q17 86 21 136l128 7l11 -15l-104 -492h-134zM3503 492l-57 -492h-131l20 175q5 50 33 215h-3q-31 -102 -81 -215l-76 -175h-149 l-2 175q-2 121 9 215h-2q-32 -130 -59 -215l-53 -175h-109l154 500l184 6l1 -137q2 -134 -15 -259h2q39 126 94 259l56 131l169 7zM5316 300q-37 -177 -37 -183q0 -34 36 -34q25 0 59 18l-9 -79q-52 -29 -114 -29q-105 0 -105 100q0 20 40 210l-47 1l9 44l54 14l53 95l81 6 l13 -15l-20 -86h99l6 -14l-17 -51zM336 0q0 79 41 260l6 102l137 7q0 -31 -7 -89h2q52 89 134 89q34 0 53 -19.5t19 -51.5q0 -27 -26 -147q-18 -85 -18 -151h-131q0 55 19 150q15 78 15 87q0 24 -17 24q-34 0 -64 -82.5t-32 -178.5h-131zM1170 0q0 72 27 193l14 67l6 102 l137 7q0 -46 -27 -177t-27 -192h-130zM1399 362l140 7q13 -129 -5 -289h2q76 151 91 284q22 5 50 5q32 0 48.5 -8.5t16.5 -33.5q0 -46 -51 -147.5t-116 -179.5h-149q-5 228 -27 362zM1752 0q0 69 26 193l15 67l6 102l137 7q0 -46 -27 -177t-27 -192h-130zM4716 0 q0 79 41 260l6 102l137 7q0 -12 -7 -89h2q52 89 134 89q34 0 53 -19.5t19 -51.5q0 -27 -26 -147q-19 -90 -19 -151h-130q0 55 19 150q15 78 15 87q0 24 -17 24q-35 0 -65 -82t-32 -179h-130zM2245 256q-52 30 -97 30q-18 0 -30 -7t-12 -19q0 -14 20 -26.5t44 -22t44 -33 t20 -56.5q0 -57 -53 -93t-128 -36q-78 0 -118 28l27 93q57 -38 111 -38q19 0 29.5 7.5t10.5 18.5q0 13 -20 26t-44 23t-44 33t-20 55q0 56 54.5 93t128.5 37q58 0 104 -18zM2525 369q88 0 146 -32l-29 -128q-31 -145 -31 -209h-130q0 37 12 112q-15 -52 -51 -85.5t-81 -33.5 q-41 0 -62.5 29.5t-21.5 83.5q0 62 26.5 120.5t85 100.5t136.5 42zM4653 51q-67 -58 -159 -58q-65 0 -103.5 35t-38.5 102q0 94 68.5 166.5t167.5 72.5q54 0 86.5 -23.5t32.5 -64.5q0 -57 -60 -96.5t-161 -43.5v-1q0 -64 63 -64q42 0 90 28zM3936 0q0 74 42 260l5 102l137 7 q0 -31 -7 -89h2q53 89 134 89q34 0 53 -19.5t19 -51.5q0 -27 -26 -147q-18 -85 -18 -151h-131q0 55 19 150q15 71 15 87q0 24 -17 24q-34 0 -64 -82.5t-32 -178.5h-131zM3768 369q87 0 145 -32l-28 -128q-31 -145 -31 -209h-130q0 45 12 112q-15 -52 -51 -85.5t-81 -33.5 q-41 0 -63 29.5t-22 83.5q0 46 16 91.5t46 84t79 63t108 24.5zM4490 177q47 10 73 34t26 59q0 31 -22 31q-28 0 -48.5 -38.5t-28.5 -85.5zM3677 101q23 0 47 43t38 101q1 8 4.5 24.5t4.5 19.5q-16 8 -27 8q-34 0 -62.5 -54.5t-28.5 -101.5q0 -40 24 -40zM913 101 q22 0 44.5 39.5t37.5 94.5q1 9 8 40l3 14q-14 8 -27 8q-33 0 -61.5 -54.5t-28.5 -101.5q0 -40 24 -40zM2435 101q23 0 47 43.5t37 100.5q3 14 9 44q-14 8 -27 8q-34 0 -62 -54.5t-28 -101.5q0 -40 24 -40z" />
<glyph unicode="&#x2f;symbol&#x34;&#x2f;" horiz-adv-x="2607" d="M1684 406q0 65 -11 128l126 14l15 -15v-533h-130v406zM1889 406q0 62 -10 128l126 14l14 -15v-533h-130v406zM427 101v-101h-320v362q0 80 -7 135l126 7l14 -14v-396zM925 21l7 109q62 -36 144 -36q50 0 50 36q0 20 -31.5 41.5t-69 40.5t-69 57t-31.5 88q0 69 55 108 t138 39q80 0 127 -18l-14 -111q-56 29 -111 29q-27 0 -42.5 -11t-15.5 -29q0 -20 20.5 -38t50 -34t59.5 -35t50.5 -51t20.5 -72q0 -66 -53.5 -103.5t-139.5 -37.5q-41 0 -83.5 8t-61.5 20zM795 0l-106 -7q-11 16 -21 49h-4q-34 -49 -104 -49q-43 0 -70 23t-27 66 q0 113 191 118v20q0 54 -58 54q-55 0 -108 -29l-8 97q72 26 150 26q154 0 154 -135q0 -25 -2 -69t-2 -70q0 -51 15 -94zM1626 0l-107 -7q-12 20 -21 49h-3q-34 -49 -105 -49q-43 0 -69.5 23t-26.5 66q0 113 191 118v20q0 54 -58 54q-54 0 -109 -29l-7 97q72 26 150 26 q153 0 153 -135q0 -25 -1.5 -69.5t-1.5 -69.5q0 -51 15 -94zM2405 213q0 -24 -1 -36l-11 -11h-191q14 -83 98 -83q44 0 84 21l7 -81q-46 -30 -127 -30q-90 0 -144 47.5t-54 134.5q0 85 52 139t132 54q72 0 113.5 -43t41.5 -112zM2199 207l78 4q2 14 2 26q0 59 -34 59 q-44 0 -46 -89zM654 74v88q-29 -3 -47 -18t-18 -39q0 -18 10 -29t27 -11q16 0 28 9zM1485 74v88q-29 -3 -47 -18t-18 -39q0 -18 10 -29t27 -11q16 0 28 9zM2464 85q18 0 30.5 -13t12.5 -31t-12.5 -31t-30.5 -13t-31 13t-13 31t13 31t31 13zM2504 41q0 17 -12 28.5t-28 11.5 t-28 -11.5t-12 -28.5t12 -28.5t28 -11.5t28 11.5t12 28.5zM2446 66h18q7 0 11 -3q5 -3 5 -10q0 -5 -3 -9q-3 -3 -6 -3q7 -1 8 -10q0 -7 3 -15h-8q-1 2 -1.5 6.5t-0.5 6.5q-1 9 -11 9h-8v-22h-7v50zM2453 44h10q5 0 7 1q3 3 3 7q0 8 -10 8h-10v-16z" />
<glyph unicode=" "  horiz-adv-x="250" />
<glyph unicode="&#x09;" horiz-adv-x="250" />
<glyph unicode="&#xa0;" horiz-adv-x="250" />
<glyph unicode="!" horiz-adv-x="351" d="M229 232h-109q5 36 55 458l172 10l15 -20q-47 -207 -133 -448zM238 111q0 -45 -39 -82t-87 -37q-32 0 -51.5 18.5t-19.5 46.5q0 43 39.5 79t88.5 36q32 0 50.5 -16.5t18.5 -44.5z" />
<glyph unicode="&#x22;" horiz-adv-x="427" d="M290 760l4 -30l-107 -287h-59l25 317h137zM480 760l4 -30l-107 -287h-59l25 317h137z" />
<glyph unicode="#" horiz-adv-x="716" d="M167 -10l-79 15l-7 8l52 112h-112l-6 8l29 82h131l51 110h-119l-6 8l29 82h137l63 135l78 -15l7 -8l-52 -112h135l63 135l78 -15l7 -8l-52 -112h109l6 -8l-29 -82h-127l-51 -110h120l7 -8l-30 -82h-139l-62 -135l-79 15l-7 8l52 112h-135zM271 215h135l51 110h-135z" />
<glyph unicode="$" horiz-adv-x="524" d="M145 -140l-6 8l26 122q-53 2 -103 12.5t-69 26.5l42 151q32 -24 80 -37t84 -13q39 0 58 17t19 41q0 22 -18.5 45.5t-44.5 46.5t-52 49t-44.5 63.5t-18.5 81.5q0 86 65 146t171 75l29 132l62 3l7 -8l-27 -122q94 0 144 -25l-53 -155q-56 40 -120 40q-41 0 -61.5 -18 t-20.5 -47q0 -26 18 -51t44 -47t52 -47t44 -62t18 -81q0 -88 -66 -144t-168 -69l-28 -131z" />
<glyph unicode="%" horiz-adv-x="1033" d="M507 547q0 -102 -75 -176.5t-184 -74.5q-73 0 -117.5 38.5t-44.5 112.5q0 102 77 178.5t184 76.5q74 0 117 -40.5t43 -114.5zM793 700l-425 -710h-65l424 710h66zM240 434q0 -55 30 -55q38 0 60.5 65t22.5 124q0 52 -30 52q-38 0 -60.5 -64t-22.5 -122zM977 175 q0 -102 -75 -176.5t-184 -74.5q-73 0 -117.5 38.5t-44.5 112.5q0 102 77 178.5t184 76.5q74 0 117 -40.5t43 -114.5zM710 62q0 -55 30 -55q38 0 60.5 65t22.5 124q0 52 -30 52q-38 0 -60.5 -64t-22.5 -122z" />
<glyph unicode="&#x26;" horiz-adv-x="800" d="M750 123q0 -50 -32 -85t-92 -48l-7 7q5 10 5 24q0 47 -85 98q-107 -129 -273 -129q-99 0 -165.5 46t-66.5 123q0 65 47 127.5t124 101.5q-16 42 -16 88q0 107 76 165.5t193 58.5q79 0 126 -28t47 -78q0 -34 -20 -59.5t-51 -30.5q141 0 272 6l10 -5q0 -61 -22 -131 q-89 8 -175 21q-5 -57 -19 -107q59 -36 91.5 -75t32.5 -90zM373 518q0 -30 13 -56t40.5 -49.5t52 -39t64.5 -38.5q5 25 9 75q-40 7 -100 20v39q26 37 26 69q0 51 -44 51q-26 0 -43.5 -18t-17.5 -53zM219 212q0 -50 31.5 -76t80.5 -26q72 0 127 55q-148 78 -206 145 q-33 -48 -33 -98z" />
<glyph unicode="'" horiz-adv-x="237" d="M290 760l4 -30l-107 -287h-59l25 317h137z" />
<glyph unicode="(" horiz-adv-x="461" d="M75 168q0 186 113 344.5t297 247.5l45 -90q-128 -95 -199 -228t-71 -277q0 -159 104 -273l-83 -90q-206 131 -206 366z" />
<glyph unicode=")" horiz-adv-x="461" d="M399 394q0 -186 -113 -344.5t-297 -247.5l-45 90q128 95 199 228t71 277q0 159 -104 273l83 90q206 -131 206 -366z" />
<glyph unicode="*" horiz-adv-x="504" d="M220 337l-2 24l66 149l-156 -117l-35 94l22 18l158 44l-158 56l74 94l23 -6l90 -106l1 174h108l2 -24l-69 -153l159 121l35 -94l-21 -18l-158 -45l157 -55l-74 -94l-22 6l-92 107v-175h-108z" />
<glyph unicode="+" d="M541 303h-175l-38 -178h-88l37 178h-186l18 85q51 1 187 3l36 174h90l-37 -173q69 1 177 1l6 -8z" />
<glyph unicode="," horiz-adv-x="298" d="M-50 -148q79 71 114 140q-26 5 -41.5 24t-15.5 47q0 49 41.5 89.5t91.5 40.5q36 0 58.5 -20t22.5 -58q0 -74 -73 -162.5t-157 -147.5z" />
<glyph unicode="-" horiz-adv-x="416" d="M37 251l4 50h350l-5 -50h-349z" />
<glyph unicode="." horiz-adv-x="302" d="M227 124q0 -51 -43 -92.5t-97 -41.5q-37 0 -58 20t-21 51q0 49 45 90.5t99 41.5q34 0 54.5 -19t20.5 -50z" />
<glyph unicode="/" horiz-adv-x="366" d="M436 745l6 -8l-346 -747l-79 15l-6 8l346 747z" />
<glyph unicode="0" horiz-adv-x="687" d="M664 448q0 -119 -52 -224.5t-141.5 -169.5t-192.5 -64q-99 0 -157.5 63t-58.5 185q0 118 53 224.5t143.5 172t192.5 65.5q100 0 156.5 -65.5t56.5 -186.5zM243 218q0 -118 64 -118q49 0 91.5 63t64.5 148.5t22 162.5q0 116 -63 116q-50 0 -92.5 -62.5t-64.5 -147.5 t-22 -162z" />
<glyph unicode="1" horiz-adv-x="404" d="M194 519h-3l-97 -10l-1 110l297 80l15 -20l-144 -679h-180l82 384q22 105 31 135z" />
<glyph unicode="2" horiz-adv-x="532" d="M1 0l7 125q43 24 97.5 63t113.5 90.5t98.5 110t39.5 106.5q0 34 -19.5 54.5t-55.5 20.5q-72 0 -176 -67l13 142q116 55 234 55q91 0 145 -41.5t54 -109.5q0 -55 -34.5 -116t-91 -115t-119 -99t-126.5 -79h118q86 0 162 10l-42 -150h-418z" />
<glyph unicode="3" horiz-adv-x="537" d="M126 647q45 22 108 37.5t118 15.5q81 0 130.5 -35t49.5 -92q0 -62 -52.5 -118.5t-127.5 -79.5q68 -11 105 -49t37 -96q0 -100 -99.5 -170t-243.5 -70q-92 0 -166 23l42 120q62 -23 143 -23q59 0 97.5 27.5t38.5 67.5q0 66 -126 66q-44 0 -89 -7l26 120q97 9 158.5 47 t61.5 87q0 52 -67 52q-73 0 -163 -45z" />
<glyph unicode="4" horiz-adv-x="597" d="M7 264l361 424l200 11l16 -20l-84 -397q33 2 81 8l-40 -139h-69l-32 -151h-170l32 151h-299zM156 281v-3q80 2 174 2l20 95q30 138 48 193h-3z" />
<glyph unicode="5" horiz-adv-x="581" d="M16 13l43 125q61 -23 130 -23q70 0 110.5 31t40.5 80q0 79 -104 79q-57 0 -121 -28l-22 15l85 398h259q88 0 162 10l-42 -150h-264l-27 -129q45 9 88 9q80 0 128 -40t48 -119q0 -119 -100.5 -200t-259.5 -81q-85 0 -154 23z" />
<glyph unicode="6" horiz-adv-x="607" d="M254 -10q-96 0 -153 54t-57 168q0 124 65.5 236.5t177.5 182t237 69.5q58 0 81 -10l-43 -131q-33 11 -69 11q-67 0 -132.5 -47t-97.5 -132h3q57 24 126 24q78 0 121.5 -38.5t43.5 -112.5q0 -112 -88.5 -193t-214.5 -81zM312 305q-44 0 -75 -24q-17 -80 -17 -119 q0 -62 47 -62q44 0 72.5 41t28.5 95q0 69 -56 69z" />
<glyph unicode="7" horiz-adv-x="525" d="M87 530l47 160h455l17 -20l-21 -100q-148 -124 -236.5 -263t-129.5 -307h-185q43 156 149 304t234 243l1 3h-116q-124 0 -215 -20z" />
<glyph unicode="8" horiz-adv-x="622" d="M237 -10q-103 0 -162 42.5t-59 111.5t56 128.5t140 82.5l1 3q-43 29 -67.5 60.5t-24.5 76.5q0 84 84 144.5t203 60.5q97 0 146 -41t49 -99q0 -55 -44 -106t-114 -84l-1 -3q117 -56 117 -150q0 -93 -96 -160t-228 -67zM379 600q-37 0 -63.5 -25t-26.5 -60q0 -52 68 -88 q36 25 58 58.5t22 62.5q0 24 -16 38t-42 14zM295 284q-48 -19 -77.5 -55t-29.5 -73q0 -30 21 -48t58 -18q49 0 83.5 28.5t34.5 69.5q0 58 -90 96z" />
<glyph unicode="9" horiz-adv-x="600" d="M252 258q-80 0 -126 39.5t-46 111.5q0 121 90 206t217 85q94 0 151.5 -52t57.5 -155q0 -98 -39 -190.5t-103 -161t-150.5 -110t-177.5 -41.5q-45 0 -76 8l25 128q34 -6 67 -6q87 0 143 41t90 124h-3q-49 -27 -120 -27zM362 580q-37 0 -65 -43.5t-28 -101.5q0 -68 61 -68 q32 0 67 15q15 75 15 118q0 80 -50 80z" />
<glyph unicode=":" horiz-adv-x="303" d="M295 441q0 -51 -43 -92.5t-97 -41.5q-37 0 -58 20t-21 51q0 50 45 91t99 41q34 0 54.5 -19t20.5 -50zM227 124q0 -51 -43 -92.5t-97 -41.5q-37 0 -58 20t-21 51q0 49 45 90.5t99 41.5q34 0 54.5 -19t20.5 -50z" />
<glyph unicode=";" horiz-adv-x="298" d="M291 441q0 -51 -43 -92.5t-97 -41.5q-37 0 -58 20t-21 51q0 50 45 91t99 41q34 0 54.5 -19t20.5 -50zM-50 -148q79 71 114 140q-26 5 -41.5 24t-15.5 47q0 49 41.5 89.5t91.5 40.5q36 0 58.5 -20t22.5 -58q0 -74 -73 -162.5t-157 -147.5z" />
<glyph unicode="&#x3c;" d="M563 593l-20 -95l-353 -156l286 -152l-20 -95q-67 30 -201.5 100t-203.5 110l-2 11l15 69z" />
<glyph unicode="=" d="M563 404h-450l18 85q170 5 453 5l6 -8zM520 204h-450l18 85q172 5 453 5l6 -8z" />
<glyph unicode="&#x3e;" d="M57 95l20 95l353 156l-286 152l20 95q67 -30 201.5 -100t203.5 -110l2 -11l-15 -69z" />
<glyph unicode="?" horiz-adv-x="527" d="M262 226l-102 -5q-7 21 -7 41q0 36 20.5 66t50 52t58.5 42.5t49.5 45.5t20.5 53q0 23 -17.5 37t-47.5 14q-33 0 -75 -18t-75 -49l-42 96q110 99 257 99q91 0 142 -37.5t51 -98.5q0 -48 -25.5 -89.5t-63 -69.5t-75 -50.5t-67 -42.5t-33.5 -36q-5 -19 -9 -42zM287 111 q0 -45 -39 -82t-87 -37q-32 0 -51.5 18.5t-19.5 46.5q0 43 39.5 79t88.5 36q32 0 50.5 -16.5t18.5 -44.5z" />
<glyph unicode="@" horiz-adv-x="1122" d="M800 -160q-124 -100 -304 -100q-193 0 -316 122t-123 316q0 119 50 227.5t131.5 185.5t189.5 123t221 46q188 0 307 -116t119 -288q0 -152 -90.5 -259t-217.5 -107q-66 0 -106.5 31.5t-51 72.5t-0.5 82h-5q-19 -68 -72.5 -127t-117.5 -59q-55 0 -86.5 44.5t-31.5 116.5 q0 59 23 121t65 116t110 88t149 34q104 0 197 -44l-39 -178q-6 -26 -8.5 -40t-7 -38t-5.5 -37.5t-1.5 -32.5t3.5 -29.5t9.5 -21.5t16.5 -15.5t26 -4.5q66 0 126 82t60 202q0 157 -105.5 257t-264.5 100q-95 0 -191 -39t-173 -106t-125.5 -167t-48.5 -213q0 -172 109 -283.5 t287 -111.5q81 0 143 21.5t130 60.5zM514 140q33 0 67 62.5t51 142.5l12 59q-14 6 -27 6q-52 0 -94 -75t-42 -140q0 -55 33 -55z" />
<glyph unicode="A" horiz-adv-x="690" d="M147 0h-175l289 580q32 62 50 110l226 9l25 -25l50 -674h-185l-8 130h-209zM294 305l-22 -45h140l-3 44q-8 149 -4 238h-5q-44 -108 -106 -237z" />
<glyph unicode="B" horiz-adv-x="651" d="M305 0h-278l109 511q24 109 28 179h293q93 0 144 -41t51 -110q0 -59 -37 -106.5t-101 -72.5q98 -37 98 -131q0 -101 -91.5 -165t-215.5 -64zM398 565h-70l-34 -162h70q48 0 75.5 29.5t27.5 70.5q0 62 -69 62zM349 291h-79l-35 -166h79q51 0 83 29t32 72q0 65 -80 65z" />
<glyph unicode="C" horiz-adv-x="587" d="M526 178l-11 -148q-89 -40 -195 -40q-132 0 -201 66.5t-69 196.5q0 117 52 219.5t146 165t207 62.5q49 0 96.5 -11.5t73.5 -28.5l-68 -155q-61 45 -132 45q-55 0 -97.5 -41t-62.5 -99.5t-20 -120.5q0 -149 130 -149q73 0 151 38z" />
<glyph unicode="D" horiz-adv-x="724" d="M712 427q0 -85 -29 -161t-83.5 -136t-141 -95t-192.5 -35h-238l108 511q25 115 28 179h268q280 0 280 -263zM386 560h-55l-90 -430h68q54 0 96.5 25.5t66 67.5t35.5 88.5t12 95.5q0 44 -10.5 74.5t-23.5 45.5t-34.5 23t-33.5 9t-31 1z" />
<glyph unicode="E" horiz-adv-x="581" d="M522 140l-29 -140h-465l108 511q25 115 28 179h449l16 -20l-29 -120l-269 10l-34 -161l222 5l-32 -127l-214 7l-33 -154z" />
<glyph unicode="F" horiz-adv-x="540" d="M213 0h-185l108 511q25 115 28 179h429l16 -20l-29 -120l-249 10l-38 -181l201 5l-32 -127l-193 7z" />
<glyph unicode="G" horiz-adv-x="668" d="M610 333l16 -20l-63 -283q-113 -40 -228 -40q-143 0 -215.5 65t-72.5 189q0 118 60 223t165.5 169t230.5 64q110 0 185 -40l-63 -155q-65 50 -144 50q-106 0 -172.5 -85t-66.5 -194q0 -146 140 -146q20 0 31 1q19 90 26 192z" />
<glyph unicode="H" horiz-adv-x="736" d="M213 0h-185l107 503q24 118 29 187l177 10l16 -20l-58 -273h216l20 96q24 118 29 187l177 10l16 -20l-144 -680h-185l59 277h-215z" />
<glyph unicode="I" horiz-adv-x="336" d="M213 0h-185l107 503q24 118 29 187l177 10l16 -20z" />
<glyph unicode="J" horiz-adv-x="335" d="M-37 -202l-38 62q95 106 132 280l77 363q20 96 23 178l185 19l15 -19l-115 -541q-29 -135 -87 -209t-192 -133z" />
<glyph unicode="K" horiz-adv-x="670" d="M134 503q23 113 30 187l177 10l16 -20l-63 -297h60q121 185 203 317l173 -10l6 -19l-238 -308l119 -363l-215 -5q-43 121 -76 258h-60l-54 -253h-185z" />
<glyph unicode="L" horiz-adv-x="531" d="M502 140l-29 -140h-445l107 503q24 118 29 187l177 10l16 -20l-116 -550z" />
<glyph unicode="M" horiz-adv-x="932" d="M887 700l21 -20l-79 -680h-181l28 242q5 42 45 297h-3q-41 -132 -112 -297l-105 -242h-206l-3 242q-2 176 13 297h-3q-39 -158 -81 -297l-74 -242h-150l212 690l254 8l2 -188q2 -183 -21 -358h3q55 181 130 358l77 180z" />
<glyph unicode="N" horiz-adv-x="731" d="M441 441q34 -98 53 -208h3q9 107 31 213q29 137 41 244l167 8l16 -20l-144 -678h-175q-21 55 -50 139t-41 114q-37 104 -57 196h-3q-5 -96 -28 -206l-51 -243h-175l108 511q22 103 28 179l187 7q58 -170 90 -256z" />
<glyph unicode="O" horiz-adv-x="705" d="M695 437q0 -114 -50 -215.5t-143.5 -166.5t-207.5 -65q-116 0 -180 68t-64 195q0 114 49.5 216t142 166.5t206.5 64.5q117 0 182 -68.5t65 -194.5zM240 250q0 -125 83 -125q56 0 99 52.5t63 123t20 139.5q0 125 -83 125q-56 0 -99 -52.5t-63 -123t-20 -139.5z" />
<glyph unicode="P" horiz-adv-x="617" d="M213 0h-185l108 511q25 115 28 179h262q106 0 162.5 -48.5t56.5 -138.5q0 -125 -99.5 -210.5t-240.5 -85.5h-48zM360 565h-27l-50 -233h23q71 0 109.5 41.5t38.5 105.5q0 43 -21 64.5t-73 21.5z" />
<glyph unicode="Q" horiz-adv-x="700" d="M793 -89q0 -59 -50.5 -92.5t-130.5 -33.5q-65 0 -134 20.5t-136.5 70.5t-101.5 120q-87 19 -138.5 87.5t-51.5 178.5q0 112 52 212.5t143.5 163t198.5 62.5q116 0 180.5 -74.5t64.5 -203.5q0 -160 -92.5 -279t-227.5 -146q123 -63 240 -63q91 0 166 33q18 -21 18 -56z M317 125q56 0 99 52.5t63 123t20 139.5q0 125 -83 125q-56 0 -99 -52.5t-63 -123t-20 -139.5q0 -125 83 -125z" />
<glyph unicode="R" horiz-adv-x="650" d="M212 0h-185l109 511q24 109 28 179h234q249 0 249 -176q0 -74 -42 -137t-119 -97l91 -280l-214 -11q-30 111 -47 238h-56zM362 565h-30l-46 -218h24q69 0 107.5 39t38.5 99q0 41 -21.5 60.5t-72.5 19.5z" />
<glyph unicode="S" horiz-adv-x="559" d="M508 219q0 -99 -88.5 -164t-228.5 -65q-58 0 -114.5 11t-79.5 28l42 151q31 -21 86 -35.5t95 -14.5q43 0 67.5 18t24.5 48q0 16 -6.5 30t-22 26.5t-26 19.5t-33.5 20t-30 17q-103 61 -103 159q0 101 93 166.5t236 65.5q100 0 159 -25l-53 -155q-64 40 -139 40 q-45 0 -72.5 -19t-27.5 -50q0 -14 5.5 -26t19 -23t24.5 -18.5t32.5 -19.5t33.5 -20q48 -31 77 -69t29 -96z" />
<glyph unicode="T" horiz-adv-x="575" d="M327 0h-185l117 554q-63 -2 -191 -8l40 144h545l-20 -144q-126 6 -189 8z" />
<glyph unicode="U" horiz-adv-x="711" d="M67 170q0 48 41.5 233.5t50.5 286.5l177 10l16 -20q-23 -109 -54 -252q-29 -134 -35 -165.5t-6 -48.5q0 -85 84 -85q103 0 131 127q55 257 67.5 322.5t14.5 111.5l187 8l-97 -458q-25 -119 -120.5 -184.5t-219.5 -65.5q-107 0 -172 48t-65 132z" />
<glyph unicode="V" horiz-adv-x="646" d="M168 0l-71 681l202 19l21 -332q8 -137 2 -196q30 74 67 148l189 380l146 -10l6 -19l-357 -671h-205z" />
<glyph unicode="W" horiz-adv-x="965" d="M124 0l-27 681l202 19l-4 -344q0 -36 -3.5 -101.5t-3.5 -77.5q18 46 69 167l149 346l180 10l-1 -344q0 -33 -0.5 -96.5t-0.5 -82.5q33 93 66 171l147 352l146 -10l6 -19l-313 -671h-205l-6 223q-1 39 0 112t1 105h-3q-51 -125 -95 -220l-99 -220h-205z" />
<glyph unicode="X" horiz-adv-x="610" d="M-37 0l-7 20l250 305l-109 360l202 15l64 -258h3l165 258l156 -12l7 -20l-252 -332l110 -336h-206l-61 219h-2l-159 -219h-161z" />
<glyph unicode="Y" horiz-adv-x="589" d="M195 216l-98 465l202 19l21 -202q8 -81 12 -152h3q66 121 81 151l105 203l146 -10l6 -19l-293 -455l-46 -216h-185z" />
<glyph unicode="Z" horiz-adv-x="539" d="M-13 0l-5 120l389 418l-287 -8l44 160h447l22 -120l-385 -418l291 8l-44 -160h-472z" />
<glyph unicode="[" horiz-adv-x="445" d="M53 -64h1l146 690l29 134h274l-29 -134h-104l-146 -690h103l-28 -134h-274z" />
<glyph unicode="\" horiz-adv-x="397" d="M192 -10l-28 747l10 8l85 15l28 -747l-10 -8z" />
<glyph unicode="]" horiz-adv-x="445" d="M229 -198h-274l29 134h104l146 690h-103l28 134h274l-28 -134h-1l-146 -690z" />
<glyph unicode="^" horiz-adv-x="466" d="M136 210h-95l222 340h66l78 -340h-95l-45 208z" />
<glyph unicode="_" horiz-adv-x="470" d="M-104 -240l10 50h470l-10 -50h-470z" />
<glyph unicode="`" horiz-adv-x="276" d="M268 566q-80 75 -120 170l16 30l162 8q0 -97 14 -198z" />
<glyph unicode="a" horiz-adv-x="580" d="M25 146q0 50 13.5 100.5t42 98t68 84.5t96.5 59t123 22q119 0 201 -44l-39 -178q-43 -197 -43 -288h-180q0 54 17 155q-22 -72 -71.5 -118.5t-110.5 -46.5q-57 0 -87 41t-30 115zM210 195q0 -55 33 -55q32 0 65.5 59.5t51.5 138.5q2 11 6.5 33t5.5 28q-20 11 -37 11 q-46 0 -85.5 -75t-39.5 -140z" />
<glyph unicode="b" horiz-adv-x="582" d="M138 609l8 141l189 10q0 -18 -2 -40.5t-4 -41.5t-7.5 -50.5t-8.5 -48.5t-11 -55.5t-11 -52.5t-13 -58.5t-12 -55.5q23 67 71.5 110t106.5 43q56 0 86.5 -41t30.5 -114q0 -50 -13.5 -101t-42 -98.5t-67.5 -84.5t-94.5 -59t-118.5 -22q-117 0 -196 43q-2 60 60 347z M225 156q-6 -38 -9 -56q19 -10 35 -10q46 0 85.5 75t39.5 140q0 55 -33 55q-34 0 -68 -61.5t-50 -142.5z" />
<glyph unicode="c" horiz-adv-x="487" d="M430 143l19 -73q-93 -80 -225 -80q-88 0 -140.5 48.5t-52.5 142.5q0 130 93.5 229.5t237.5 99.5q86 0 143 -33l-45 -144q-62 62 -123 62q-55 0 -88 -56t-33 -128q0 -106 89 -106q57 0 125 38z" />
<glyph unicode="d" horiz-adv-x="580" d="M487 0h-180q0 59 15 149q-22 -70 -71 -114.5t-109 -44.5q-56 0 -86.5 41t-30.5 114q0 50 13.5 101t42 98.5t67.5 84.5t94.5 59t118.5 22q12 0 34 -2l22 101l8 141l189 10q0 -93 -63.5 -378t-63.5 -382zM210 195q0 -55 33 -55q31 0 62.5 54.5t50.5 130.5q4 17 12 55l4 19 q-20 11 -37 11q-46 0 -85.5 -75t-39.5 -140z" />
<glyph unicode="e" horiz-adv-x="515" d="M427 143l19 -73q-93 -80 -220 -80q-89 0 -142 48t-53 142q0 130 94 230t231 100q75 0 120 -32.5t45 -89.5q0 -79 -83 -133t-222 -60v-1q0 -89 86 -89q57 0 125 38zM327 415q-39 0 -66.5 -52.5t-39.5 -118.5q65 15 101 47.5t36 81.5q0 42 -31 42z" />
<glyph unicode="f" horiz-adv-x="403" d="M-15 -260l-57 60q71 109 100 250l73 345l-69 5l13 60l74 20q10 60 11 67q22 102 97 157.5t187 55.5q90 0 140 -34l-63 -131q-53 35 -100 35q-65 0 -81 -69q-4 -20 -8 -46t-6 -35h123l8 -18l-20 -72l-126 4l-61 -286q-31 -148 -79 -229.5t-156 -138.5z" />
<glyph unicode="g" horiz-adv-x="533" d="M154 -260q-104 0 -166 35.5t-62 88.5q0 39 35.5 68t92.5 45l34 -31q-2 -16 -2 -24q0 -46 27.5 -74t74.5 -28q36 0 61 16t25 40q0 15 -13.5 29.5t-26 21.5t-41.5 21l-12 6q-43 21 -64.5 39.5t-21.5 44.5q0 42 48.5 68.5t94.5 26.5v3q-19 0 -30 1q-71 6 -116.5 49 t-45.5 115q0 97 79 153t183 56q112 0 156 2t87 11q16 -15 16 -38q0 -24 -14.5 -44.5t-46.5 -20.5q-15 0 -29.5 4.5t-32.5 13t-27 11.5l-1 -3q77 -41 77 -122q0 -47 -24 -84.5t-57.5 -59.5t-67.5 -38t-58 -28.5t-24 -23.5q0 -13 54 -39q77 -39 104 -68q34 -35 34 -78 q0 -72 -87 -118.5t-213 -46.5zM326 358q0 67 -35 67q-32 0 -55 -48t-23 -99q0 -74 40 -74q32 0 52.5 49t20.5 105z" />
<glyph unicode="h" horiz-adv-x="591" d="M208 0h-180q0 96 61 380l49 229l8 141l189 10q0 -102 -63 -374h3q38 62 88 93t99 31q46 0 71.5 -27.5t25.5 -77.5q0 -33 -48 -254q-13 -59 -13 -151h-180q0 83 36 257q11 54 11 68q0 35 -24 35q-31 0 -61.5 -53t-50.5 -137t-21 -170z" />
<glyph unicode="i" horiz-adv-x="301" d="M335 696q0 -50 -43.5 -91t-96.5 -41q-36 0 -57.5 20.5t-21.5 51.5q0 47 44 87.5t99 40.5q35 0 55.5 -18.5t20.5 -49.5zM208 0h-180q0 96 37 267l20 92l8 141l189 10q0 -64 -37 -245t-37 -265z" />
<glyph unicode="j" horiz-adv-x="288" d="M319 696q0 -50 -43.5 -91t-96.5 -41q-36 0 -57.5 20.5t-21.5 51.5q0 47 44 87.5t99 40.5q35 0 55.5 -18.5t20.5 -49.5zM-31 -260l-57 60q71 109 100 250l65 309l8 141l189 10q0 -24 -3.5 -57t-14 -86.5t-15 -79t-20 -99t-17.5 -80.5q-31 -148 -79 -229.5t-156 -138.5z " />
<glyph unicode="k" horiz-adv-x="586" d="M582 411q0 -54 -42 -103t-97 -79q58 -141 115 -229h-223q-42 93 -57 189q124 108 124 175q0 31 -26 31q-34 0 -72.5 -57.5t-66 -151t-29.5 -186.5h-180q0 96 61 380l49 229l8 141l189 10q0 -93 -64 -379h3q80 129 197 129q52 0 81.5 -27.5t29.5 -71.5z" />
<glyph unicode="l" horiz-adv-x="298" d="M208 0h-180q0 96 61 380l49 229l8 141l189 10q0 -93 -63.5 -378t-63.5 -382z" />
<glyph unicode="m" horiz-adv-x="881" d="M275 386q37 63 86.5 93.5t98.5 30.5q52 0 77.5 -33t20.5 -91h3q38 63 88.5 93.5t99.5 30.5q60 0 85 -43t9 -117l-42 -199q-13 -59 -13 -151h-180q0 80 42 287q15 73 -19 73q-44 0 -84.5 -92t-47.5 -215q-1 -16 -1 -53h-180q0 80 42 287q15 73 -19 73q-31 0 -61.5 -53 t-50.5 -137t-21 -170h-180q0 108 57 359l8 141l189 10q0 -32 -10 -124h3z" />
<glyph unicode="n" horiz-adv-x="591" d="M208 0h-180q0 108 57 359l8 141l189 10q0 -32 -10 -124h3q37 63 86.5 93.5t98.5 30.5q47 0 73 -27t26 -71q0 -36 -36 -204q-25 -118 -25 -208h-180q0 77 26 207q21 105 21 120q0 33 -24 33q-31 0 -61.5 -53t-50.5 -137t-21 -170z" />
<glyph unicode="o" horiz-adv-x="571" d="M543 316q0 -131 -92.5 -228.5t-225.5 -97.5q-88 0 -141 48t-53 142q0 129 93.5 229.5t226.5 100.5q90 0 141 -50.5t51 -143.5zM216 161q0 -71 37 -71q47 0 76 86t29 164q0 70 -37 70q-33 0 -58 -45.5t-36 -100.5t-11 -103z" />
<glyph unicode="p" horiz-adv-x="577" d="M213 -10q-20 0 -30 1q-33 -160 -33 -241h-180q0 84 41 284h-1l1 1q1 7 8 41t12 54l49 229l8 141l189 10q0 -53 -15 -145q24 63 71 104t102 41q56 0 87.5 -45t31.5 -122q0 -50 -13.5 -100t-41.5 -95.5t-68 -80.5t-96 -56t-122 -21zM336 360q-29 0 -59 -48.5t-50 -119.5 q-13 -54 -20 -91q20 -11 37 -11q46 0 85.5 75t39.5 140q0 55 -33 55z" />
<glyph unicode="q" horiz-adv-x="580" d="M146 -10q-56 0 -87.5 45t-31.5 122q0 50 13.5 100t41.5 95.5t68 80.5t96 56t122 21q121 0 203 -44l-92 -418q-43 -204 -43 -298h-180q0 82 61 379q-25 -60 -71 -99.5t-100 -39.5zM212 195q0 -55 33 -55q32 0 64 56t50 132l15 71q-20 11 -37 11q-46 0 -85.5 -75 t-39.5 -140z" />
<glyph unicode="r" horiz-adv-x="430" d="M208 0h-180q0 96 37 267l20 92l8 141l189 10q0 -57 -24 -181h3q32 96 71.5 138.5t78.5 42.5q22 0 42 -11t29 -26l-85 -166q-30 11 -58 11q-63 0 -93.5 -79.5t-37.5 -238.5z" />
<glyph unicode="s" horiz-adv-x="447" d="M449 485l-38 -132q-70 42 -133 42q-25 0 -41.5 -10t-16.5 -26t18 -29.5t44 -25.5t52 -27t44 -43t18 -65q0 -79 -73.5 -129t-176.5 -50q-47 0 -93 10.5t-70 28.5l37 129q36 -24 79.5 -38.5t74.5 -14.5q26 0 40.5 10t14.5 26t-18 29.5t-44 25.5t-52 28t-44 43t-18 63 q0 78 75 129t177 51q78 0 144 -25z" />
<glyph unicode="t" horiz-adv-x="400" d="M415 410l-140 4q-51 -242 -51 -253q0 -46 50 -46q36 0 82 24l-13 -108q-74 -41 -157 -41q-145 0 -145 139q0 8 0.5 15.5t1.5 15t3.5 21t4.5 25.5t7.5 36t9.5 44.5t12.5 59t15.5 72.5l-65 2l13 60l74 20l73 131l112 8l18 -21l-28 -118h137l8 -20z" />
<glyph unicode="u" horiz-adv-x="577" d="M36 150l44 209l8 141l189 10q0 -41 -8.5 -93.5t-22 -115.5t-17.5 -88q-12 -73 18 -73q31 0 59.5 56t46.5 142q11 65 15 105q3 29 3 57l190 10q-8 -77 -64 -359q-13 -62 -13 -151h-180q0 64 7 114h-3q-36 -64 -84 -94t-96 -30q-60 0 -83.5 44t-8.5 116z" />
<glyph unicode="v" horiz-adv-x="522" d="M90 0q-6 315 -37 500l194 10q18 -181 -8 -400h3q47 94 82 201.5t44 190.5q34 8 69 8q44 0 67 -11.5t23 -46.5q0 -64 -70.5 -204t-160.5 -248h-206z" />
<glyph unicode="w" horiz-adv-x="868" d="M784 510q43 0 66 -12t23 -46q0 -64 -70.5 -204t-160.5 -248h-206q19 165 26 324h-3q-66 -176 -163 -324h-206q-6 315 -37 500l194 10q18 -181 -8 -400h3q50 94 86 199t45 191h221q17 -171 -9 -390h3q47 94 82 201.5t44 190.5q34 8 70 8z" />
<glyph unicode="x" horiz-adv-x="508" d="M-23 0q7 70 57 145t133 126q-54 135 -132 229l185 10q44 -49 92 -166q48 64 48 146q33 20 79 20q35 0 60 -13t25 -43q0 -41 -46 -103.5t-124 -114.5q58 -152 107 -236h-185q-21 38 -70 168q-23 -25 -41 -74t-18 -94h-170z" />
<glyph unicode="y" horiz-adv-x="522" d="M437 510q44 0 67 -11.5t23 -45.5q0 -35 -26 -102t-68 -146t-99.5 -161.5t-117 -150t-124 -110.5t-117.5 -43q-42 0 -66.5 25.5t-24.5 70.5q0 38 19 67q34 -10 77 -10q67 0 126 27.5t87 79.5h-103q-6 315 -37 500l194 10q18 -181 -8 -400h3q47 94 82 201.5t44 190.5 q34 8 69 8z" />
<glyph unicode="z" horiz-adv-x="493" d="M47 -10l-56 85q168 161 294 288q-35 7 -66 7q-86 0 -132 -56l-47 30q32 94 76 130t106 36q72 0 161 -47q8 8 23 23.5t22 23.5q23 0 43 -13t20 -44q0 -41 -59 -103.5t-234 -208.5q12 2 24 2q21 0 46 -5.5t38 -5.5q70 0 107 68l57 -36q-29 -99 -71 -136.5t-109 -37.5 q-41 0 -92 15.5t-68 15.5q-39 0 -83 -31z" />
<glyph unicode="{" horiz-adv-x="469" d="M159 160q0 60 -83 70l24 113q127 17 127 150q0 10 -1 35t-1 36q0 58 19.5 97.5t60.5 60.5t93 29.5t127 8.5l-19 -100q-112 0 -112 -138q0 -8 0.5 -25.5t0.5 -24.5q0 -82 -45.5 -127.5t-115.5 -58.5q100 -26 100 -112q0 -38 -32 -108t-32 -101q0 -65 75 -65l-24 -100 q-123 0 -181 28t-58 95q0 47 38.5 125t38.5 112z" />
<glyph unicode="|" horiz-adv-x="286" d="M0 -260l-6 8l214 1009l78 3l6 -8l-214 -1009z" />
<glyph unicode="}" horiz-adv-x="469" d="M323 400q0 -60 83 -70l-24 -113q-127 -17 -127 -150q0 -10 1 -35t1 -36q0 -58 -19.5 -97.5t-60.5 -60.5t-93 -29.5t-127 -8.5l19 100q112 0 112 138q0 8 -0.5 25.5t-0.5 24.5q0 82 45.5 127.5t115.5 58.5q-100 26 -100 112q0 38 32 108t32 101q0 65 -75 65l24 100 q123 0 181 -28t58 -95q0 -47 -38.5 -125t-38.5 -112z" />
<glyph unicode="~" d="M432 212q-25 0 -133.5 25t-123.5 25q-10 0 -69 -57l-44 34q90 119 139 119q25 0 134.5 -25t123.5 -25q2 0 5.5 1.5t7.5 4.5t8.5 6.5t10.5 9.5t11 10.5t13 12t13 12.5l44 -34q-27 -34 -44.5 -54.5t-45.5 -42.5t-50 -22z" />
<glyph unicode="&#xa1;" horiz-adv-x="351" d="M113 389q0 45 39 82t87 37q32 0 51.5 -18.5t19.5 -46.5q0 -43 -39.5 -79t-88.5 -36q-32 0 -50.5 16.5t-18.5 44.5zM122 268h109q-5 -36 -55 -458l-172 -10l-15 20q47 207 133 448z" />
<glyph unicode="&#xa2;" horiz-adv-x="490" d="M170 -140l-6 8l26 124q-76 11 -116 61t-40 135q0 130 85 234t209 123l28 132l62 3l7 -8l-26 -124q73 -4 118 -35l-49 -155q-57 65 -114 65q-56 0 -95.5 -62.5t-39.5 -140.5q0 -110 88 -110q50 0 121 34l24 -74q-84 -69 -192 -79l-27 -128z" />
<glyph unicode="&#xa3;" horiz-adv-x="618" d="M455 570q-48 0 -79.5 -48t-50.5 -159h178l7 -18l-25 -67h-179q-40 -155 -118 -229q45 -27 77.5 -43t88.5 -31.5t114 -15.5q56 0 110 11l-53 -149q-28 -8 -74 -8t-91 13.5t-76.5 30.5t-67.5 47t-54.5 49t-46.5 50q-32 -13 -71 -13q-44 0 -66 17t-20 45t24 44.5t55 16.5 q32 0 71 -18q17 55 27 137l6 46l-116 5l19 60l108 20q21 159 99 248t214 89q114 0 172 -54l-67 -131q-64 55 -115 55z" />
<glyph unicode="&#xa4;" horiz-adv-x="555" d="M406 30l-54 73q-58 -33 -122 -33q-56 0 -95 25l-79 -65l-50 64l78 64q-13 29 -13 66q0 88 65 159l-50 67l72 60q26 -29 55 -68q54 28 113 28q61 0 100 -30l84 70l51 -64l-87 -72q9 -27 9 -59q0 -82 -56 -149q11 -14 25 -31.5t22.5 -28.5t11.5 -14l-3 -11zM303 380 q-54 0 -93.5 -40.5t-39.5 -94.5q0 -36 22 -60.5t63 -24.5q54 0 92 39.5t38 93.5q0 39 -21.5 63t-60.5 24z" />
<glyph unicode="&#xa5;" horiz-adv-x="560" d="M28 92l13 60h130l15 70h-130l13 60h130l-102 399l192 19l22 -140q10 -70 17 -163h2q34 72 83 153l89 150l136 -10l6 -19l-269 -389h130l-13 -60h-130l-15 -70h130l-13 -60h-129l-20 -92h-176l20 92h-131z" />
<glyph unicode="&#xa6;" horiz-adv-x="286" d="M207 348l-78 -3l-6 8l85 404l78 3l6 -8zM78 -257l-78 -3l-6 8l85 400l78 3l6 -8z" />
<glyph unicode="&#xa7;" horiz-adv-x="583" d="M432 560q-31 0 -51 -17.5t-20 -43.5q0 -25 23.5 -68.5t51 -86.5t51 -104t23.5 -117q0 -125 -102 -209.5t-252 -84.5q-98 0 -157 25l53 155q51 -40 105 -40q30 0 51 17t21 44q0 25 -23.5 68.5t-51.5 86.5t-51.5 104t-23.5 117q0 124 102.5 209t252.5 85q97 0 157 -25 l-53 -155q-51 40 -106 40zM264 -78q72 20 114.5 70.5t42.5 113.5q0 44 -23.5 97.5t-51.5 95t-51.5 92t-23.5 90.5q0 35 16 67t43 48l-5 11q-71 -20 -113.5 -70t-42.5 -114q0 -44 23.5 -97.5t51 -95t51 -92.5t23.5 -91q0 -35 -16 -66t-42 -48z" />
<glyph unicode="&#xa8;" horiz-adv-x="519" d="M328 696q0 -47 -39 -84.5t-88 -37.5q-33 0 -52 18t-19 47q0 45 41 82.5t90 37.5q31 0 49 -17t18 -46zM567 696q0 -47 -39 -84.5t-88 -37.5q-33 0 -52 18t-19 47q0 45 41 82.5t90 37.5q31 0 49 -17t18 -46z" />
<glyph unicode="&#xa9;" horiz-adv-x="680" d="M276 -50q-109 0 -176 65.5t-67 168.5q0 141 114 253.5t257 112.5q109 0 176 -67t67 -169q0 -91 -52.5 -175.5t-139 -136.5t-179.5 -52zM287 0q118 0 213.5 93t95.5 209q0 85 -57 141.5t-146 56.5q-119 0 -214 -94t-95 -212q0 -85 56 -139.5t147 -54.5zM489 400l-31 -98 q-34 33 -70 33q-35 0 -58 -30.5t-23 -70.5q0 -31 15 -47.5t42 -16.5q30 0 68 21l15 -58q-51 -46 -134 -46q-64 0 -99.5 33.5t-35.5 93.5q0 85 65.5 146t156.5 61q52 0 89 -21z" />
<glyph unicode="&#xaa;" horiz-adv-x="486" d="M79 415q0 67 30 128t96.5 104t155.5 43q101 0 168 -34l-31 -143q-34 -156 -34 -229h-150q0 41 12 117q-18 -51 -58 -84t-89 -33q-47 0 -73.5 35.5t-26.5 95.5zM233 445q0 -44 28 -44q27 0 54.5 46t39.5 106q7 37 10 48q-18 8 -30 8q-39 0 -70.5 -55t-31.5 -109z" />
<glyph unicode="&#xab;" horiz-adv-x="518" d="M44 269l10 48q106 74 212 183l42 -18q-43 -96 -126 -189q45 -98 46 -189l-50 -18q-63 115 -134 183zM263 269l10 48q106 74 212 183l42 -18q-43 -96 -126 -189q45 -98 46 -189l-50 -18q-63 115 -134 183z" />
<glyph unicode="&#xac;" d="M558 339l-53 -253h-90l36 171h-370l18 85q172 5 453 5z" />
<glyph unicode="&#xae;" horiz-adv-x="680" d="M274 -50q-107 0 -174 65.5t-67 168.5q0 140 114 253t259 113q108 0 174.5 -67t66.5 -169q0 -138 -113.5 -251t-259.5 -113zM285 0q121 0 216 94t95 208q0 85 -57 141.5t-146 56.5q-120 0 -214.5 -94.5t-94.5 -210.5q0 -86 55.5 -140.5t145.5 -54.5zM281 92h-98l44 210 q14 72 16 119h143q56 0 88 -25.5t32 -70.5q0 -39 -23 -71.5t-63 -48.5l44 -113l-103 -5q-10 30 -26 88h-36zM360 346h-25l-20 -96h23q32 0 49.5 15t17.5 40q0 41 -45 41z" />
<glyph unicode="&#xaf;" horiz-adv-x="410" d="M124 618l20 96h298l-20 -96h-298z" />
<glyph unicode="&#xb0;" horiz-adv-x="347" d="M177 295q-46 0 -72.5 25.5t-26.5 70.5q0 63 49 111t115 48q46 0 73 -25.5t27 -70.5q0 -63 -49.5 -111t-115.5 -48zM228 500q-37 0 -65 -29t-28 -67q0 -27 15.5 -43t41.5 -16q37 0 65 29.5t28 67.5q0 27 -15 42.5t-42 15.5z" />
<glyph unicode="&#xb1;" d="M517 323h-155l-30 -143h-88l29 143h-166l18 85q44 1 166 3l29 139h90l-29 -138q61 1 157 1l6 -8zM477 0h-450l18 85q172 5 453 5l6 -8z" />
<glyph unicode="&#xb2;" horiz-adv-x="389" d="M130 352l3 83q36 19 68.5 39.5t66 47.5t53 57t19.5 58q0 19 -11.5 30t-32.5 11q-45 0 -107 -41l8 96q76 33 153 33q62 0 98.5 -27.5t36.5 -74.5q0 -64 -65.5 -122t-157.5 -96h62q54 0 106 6l-28 -100h-272z" />
<glyph unicode="&#xb3;" horiz-adv-x="391" d="M199 734q72 32 150 32q56 0 90 -22t34 -57t-32 -67.5t-77 -45.5q42 -7 65.5 -30.5t23.5 -55.5q0 -61 -65 -102.5t-160 -41.5q-66 0 -112 14l29 80q32 -14 81 -14q37 0 62.5 14t25.5 35q0 32 -67 32q-18 0 -70 -4l17 80q59 2 97 21t38 47q0 29 -40 29q-47 0 -102 -25z" />
<glyph unicode="&#xb4;" horiz-adv-x="276" d="M370 766l4 -30q-79 -95 -192 -170l-68 10q66 119 98 198z" />
<glyph unicode="&#xb6;" horiz-adv-x="602" d="M160 -80q154 0 196 196l102 477l9 42h-70l-91 -425h-22q-103 0 -164.5 50.5t-61.5 141.5q0 120 100 204t247 84h183l-20 -97l-104 -488q-26 -124 -114 -199.5t-210 -75.5q-68 0 -131 26l28 95q68 -31 123 -31z" />
<glyph unicode="&#xb7;" horiz-adv-x="333" d="M280 301q0 -51 -43 -92.5t-97 -41.5q-37 0 -58 20t-21 51q0 50 45 91t99 41q34 0 54.5 -19t20.5 -50z" />
<glyph unicode="&#xb8;" horiz-adv-x="305" d="M183 -125q0 -63 -69.5 -99t-191.5 -36l18 60q53 3 85 19.5t32 40.5q0 30 -69 30l-13 30l62 123h93l-49 -92q102 -14 102 -76z" />
<glyph unicode="&#xb9;" horiz-adv-x="306" d="M246 646h-2l-59 -4l-2 75l206 49l12 -14l-85 -400h-134l46 215q16 72 18 79z" />
<glyph unicode="&#xba;" horiz-adv-x="459" d="M491 535q0 -102 -75 -176.5t-184 -74.5q-73 0 -117.5 38.5t-44.5 112.5q0 102 77 178.5t184 76.5q74 0 117 -40.5t43 -114.5zM224 422q0 -55 30 -55q38 0 60.5 65t22.5 124q0 52 -30 52q-38 0 -60.5 -64t-22.5 -122z" />
<glyph unicode="&#xbb;" horiz-adv-x="518" d="M492 317l-10 -48q-106 -74 -212 -183l-42 18q43 96 126 189q-45 98 -46 189l50 18q63 -115 134 -183zM273 317l-10 -48q-106 -74 -212 -183l-42 18q43 96 126 189q-45 98 -46 189l50 18q63 -115 134 -183z" />
<glyph unicode="&#xbc;" horiz-adv-x="892" d="M263 586h-2l-59 -4l-2 75l206 49l12 -14l-85 -400h-134l46 215q16 72 18 79zM799 700l-576 -710h-65l575 710h66zM492 150l204 248l149 6l12 -13l-48 -229q18 1 54 5l-27 -93h-46l-18 -84h-126l18 84h-174zM602 162v-2h11.5t28 0.5t40.5 0.5l8 40q18 78 31 119h-2z" />
<glyph unicode="&#xbd;" horiz-adv-x="919" d="M263 586h-2l-59 -4l-2 75l206 49l12 -14l-85 -400h-134l46 215q16 72 18 79zM801 700l-576 -710h-65l575 710h66zM553 -10l3 83q36 19 68.5 39.5t66 47.5t53 57t19.5 58q0 19 -11.5 30t-32.5 11q-45 0 -107 -41l8 96q76 33 153 33q62 0 98.5 -27.5t36.5 -74.5 q0 -64 -65.5 -122t-157.5 -96h62q53 0 106 6l-28 -100h-272z" />
<glyph unicode="&#xbe;" horiz-adv-x="1010" d="M216 672q72 32 150 32q56 0 90 -22t34 -57t-32 -67.5t-77 -45.5q42 -7 65.5 -30.5t23.5 -55.5q0 -61 -65 -102.5t-160 -41.5q-66 0 -112 14l29 80q32 -14 81 -14q37 0 62.5 14t25.5 35q0 32 -67 32q-18 0 -70 -4l17 80q59 2 97 21t38 47q0 29 -40 29q-47 0 -102 -25z M894 700l-576 -710h-65l575 710h66zM609 150l204 248l149 6l12 -13l-48 -229q18 1 54 5l-27 -93h-46l-18 -84h-126l18 84h-174zM719 162v-2h11.5t28 0.5t40.5 0.5l8 40q18 78 31 119h-2z" />
<glyph unicode="&#xbf;" horiz-adv-x="527" d="M240 389q0 45 39 82t87 37q32 0 51.5 -18.5t19.5 -46.5q0 -43 -39.5 -79t-88.5 -36q-32 0 -50.5 16.5t-18.5 44.5zM265 274l102 5q7 -21 7 -41q0 -36 -20.5 -66t-50 -52t-58.5 -42.5t-49.5 -45.5t-20.5 -53q0 -23 17.5 -37t47.5 -14q33 0 75 18t75 49l42 -96 q-110 -99 -257 -99q-91 0 -142 37.5t-51 98.5q0 48 25.5 89.5t63 69.5t75 50.5t67 42.5t33.5 36q5 19 9 42z" />
<glyph unicode="&#xc0;" horiz-adv-x="690" d="M590 771q-169 2 -282 63l-4 29l126 91q86 -80 181 -142zM147 0h-175l289 580q32 62 50 110l226 9l25 -25l50 -674h-185l-8 130h-209zM294 305l-22 -45h140l-3 44q-8 149 -4 238h-5q-44 -108 -106 -237z" />
<glyph unicode="&#xc1;" horiz-adv-x="690" d="M622 863l-16 -29q-141 -61 -310 -63l-3 41q135 70 241 142zM147 0h-175l289 580q32 62 50 110l226 9l25 -25l50 -674h-185l-8 130h-209zM294 305l-22 -45h140l-3 44q-8 149 -4 238h-5q-44 -108 -106 -237z" />
<glyph unicode="&#xc2;" horiz-adv-x="690" d="M314 772l-38 40q65 49 148 121l119 10q47 -75 94 -131l-56 -40q-36 13 -120 60q-105 -47 -147 -60zM147 0h-175l289 580q32 62 50 110l226 9l25 -25l50 -674h-185l-8 130h-209zM294 305l-22 -45h140l-3 44q-8 149 -4 238h-5q-44 -108 -106 -237z" />
<glyph unicode="&#xc3;" horiz-adv-x="690" d="M401 943q35 0 77.5 -28.5t66.5 -28.5q19 0 32.5 9.5t33.5 33.5l43 -7q-13 -62 -49.5 -106.5t-88.5 -44.5q-32 0 -80.5 28.5t-69.5 28.5q-31 0 -64 -43l-43 7q13 62 49 106.5t93 44.5zM147 0h-175l289 580q32 62 50 110l226 9l25 -25l50 -674h-185l-8 130h-209zM294 305 l-22 -45h140l-3 44q-8 149 -4 238h-5q-44 -108 -106 -237z" />
<glyph unicode="&#xc4;" horiz-adv-x="690" d="M671 883q0 -41 -37 -73.5t-84 -32.5q-31 0 -49 16t-18 41q0 40 38 72.5t85 32.5q29 0 47 -15.5t18 -40.5zM430 883q0 -41 -37 -73.5t-84 -32.5q-31 0 -49 16t-18 41q0 40 38 72.5t85 32.5q29 0 47 -15.5t18 -40.5zM147 0h-175l289 580q32 62 50 110l226 9l25 -25l50 -674 h-185l-8 130h-209zM294 305l-22 -45h140l-3 44q-8 149 -4 238h-5q-44 -108 -106 -237z" />
<glyph unicode="&#xc5;" horiz-adv-x="690" d="M589 898q0 -56 -51 -101t-114 -45q-45 0 -71.5 23t-26.5 58q0 54 53.5 99t117.5 45q42 0 67 -21.5t25 -57.5zM399 847q0 -17 11 -28t31 -11q28 0 51.5 23.5t23.5 52.5q0 37 -37 37q-30 0 -55 -23t-25 -51zM147 0h-175l289 580q32 62 50 110l226 9l25 -25l50 -674h-185 l-8 130h-209zM294 305l-22 -45h140l-3 44q-8 149 -4 238h-5q-44 -108 -106 -237z" />
<glyph unicode="&#xc6;" horiz-adv-x="939" d="M147 0h-175l381 580q31 46 68 110h511l15 -20l-29 -120l-264 9l-19 -160l222 5l-32 -127l-204 6l-18 -153l278 10l-30 -140h-449l20 130h-192zM342 305l-29 -45h128l7 44q10 64 42 238h-5q-46 -86 -143 -237z" />
<glyph unicode="&#xc7;" horiz-adv-x="587" d="M416 -125q0 -63 -69.5 -99t-191.5 -36l18 60q53 3 85 19.5t32 40.5q0 30 -69 30l-13 30l38 76q-196 35 -196 257q0 117 52 219.5t146 165t207 62.5q49 0 96.5 -11.5t73.5 -28.5l-68 -155q-61 45 -132 45q-55 0 -97.5 -41t-62.5 -99.5t-20 -120.5q0 -149 130 -149 q73 0 151 38l-11 -148q-83 -37 -180 -40l-21 -39q102 -14 102 -76z" />
<glyph unicode="&#xc8;" horiz-adv-x="581" d="M562 771q-169 2 -282 63l-4 29l126 91q86 -80 181 -142zM522 140l-29 -140h-465l108 511q25 115 28 179h449l16 -20l-29 -120l-269 10l-34 -161l222 5l-32 -127l-214 7l-33 -154z" />
<glyph unicode="&#xc9;" horiz-adv-x="581" d="M594 863l-16 -29q-141 -61 -310 -63l-3 41q135 70 241 142zM522 140l-29 -140h-465l108 511q25 115 28 179h449l16 -20l-29 -120l-269 10l-34 -161l222 5l-32 -127l-214 7l-33 -154z" />
<glyph unicode="&#xca;" horiz-adv-x="581" d="M286 772l-38 40q65 49 148 121l119 10q47 -75 94 -131l-56 -40q-36 13 -120 60q-105 -47 -147 -60zM522 140l-29 -140h-465l108 511q25 115 28 179h449l16 -20l-29 -120l-269 10l-34 -161l222 5l-32 -127l-214 7l-33 -154z" />
<glyph unicode="&#xcb;" horiz-adv-x="581" d="M643 883q0 -41 -37 -73.5t-84 -32.5q-31 0 -49 16t-18 41q0 40 38 72.5t85 32.5q29 0 47 -15.5t18 -40.5zM402 883q0 -41 -37 -73.5t-84 -32.5q-31 0 -49 16t-18 41q0 40 38 72.5t85 32.5q29 0 47 -15.5t18 -40.5zM522 140l-29 -140h-465l108 511q25 115 28 179h449 l16 -20l-29 -120l-269 10l-34 -161l222 5l-32 -127l-214 7l-33 -154z" />
<glyph unicode="&#xcc;" horiz-adv-x="336" d="M435 771q-169 2 -282 63l-4 29l126 91q86 -80 181 -142zM213 0h-185l107 503q24 118 29 187l177 10l16 -20z" />
<glyph unicode="&#xcd;" horiz-adv-x="336" d="M467 863l-16 -29q-141 -61 -310 -63l-3 41q135 70 241 142zM213 0h-185l107 503q24 118 29 187l177 10l16 -20z" />
<glyph unicode="&#xce;" horiz-adv-x="336" d="M159 772l-38 40q65 49 148 121l119 10q47 -75 94 -131l-56 -40q-36 13 -120 60q-105 -47 -147 -60zM213 0h-185l107 503q24 118 29 187l177 10l16 -20z" />
<glyph unicode="&#xcf;" horiz-adv-x="336" d="M516 883q0 -41 -37 -73.5t-84 -32.5q-31 0 -49 16t-18 41q0 40 38 72.5t85 32.5q29 0 47 -15.5t18 -40.5zM275 883q0 -41 -37 -73.5t-84 -32.5q-31 0 -49 16t-18 41q0 40 38 72.5t85 32.5q29 0 47 -15.5t18 -40.5zM213 0h-185l107 503q24 118 29 187l177 10l16 -20z" />
<glyph unicode="&#xd0;" horiz-adv-x="724" d="M712 427q0 -85 -29 -161t-83.5 -136t-141 -95t-192.5 -35h-238l63 300h-45l19 90h45l26 121q25 115 28 179h268q280 0 280 -263zM432 300h-156l-35 -170h68q54 0 96.5 25.5t66 67.5t35.5 88.5t12 95.5q0 44 -10.5 74.5t-23.5 45.5t-34.5 23t-33.5 9t-31 1h-55l-35 -170 h155z" />
<glyph unicode="&#xd1;" horiz-adv-x="731" d="M431 943q35 0 77.5 -28.5t66.5 -28.5q19 0 32.5 9.5t33.5 33.5l43 -7q-13 -62 -49.5 -106.5t-88.5 -44.5q-32 0 -80.5 28.5t-69.5 28.5q-31 0 -64 -43l-43 7q13 62 49 106.5t93 44.5zM441 441q34 -98 53 -208h3q9 107 31 213q29 137 41 244l167 8l16 -20l-144 -678h-175 q-21 55 -50 139t-41 114q-37 104 -57 196h-3q-5 -96 -28 -206l-51 -243h-175l108 511q22 103 28 179l187 7q58 -170 90 -256z" />
<glyph unicode="&#xd2;" horiz-adv-x="705" d="M605 771q-169 2 -282 63l-4 29l126 91q86 -80 181 -142zM695 437q0 -114 -50 -215.5t-143.5 -166.5t-207.5 -65q-116 0 -180 68t-64 195q0 114 49.5 216t142 166.5t206.5 64.5q117 0 182 -68.5t65 -194.5zM240 250q0 -125 83 -125q56 0 99 52.5t63 123t20 139.5 q0 125 -83 125q-56 0 -99 -52.5t-63 -123t-20 -139.5z" />
<glyph unicode="&#xd3;" horiz-adv-x="705" d="M637 863l-16 -29q-141 -61 -310 -63l-3 41q135 70 241 142zM695 437q0 -114 -50 -215.5t-143.5 -166.5t-207.5 -65q-116 0 -180 68t-64 195q0 114 49.5 216t142 166.5t206.5 64.5q117 0 182 -68.5t65 -194.5zM240 250q0 -125 83 -125q56 0 99 52.5t63 123t20 139.5 q0 125 -83 125q-56 0 -99 -52.5t-63 -123t-20 -139.5z" />
<glyph unicode="&#xd4;" horiz-adv-x="705" d="M329 772l-38 40q65 49 148 121l119 10q47 -75 94 -131l-56 -40q-36 13 -120 60q-105 -47 -147 -60zM695 437q0 -114 -50 -215.5t-143.5 -166.5t-207.5 -65q-116 0 -180 68t-64 195q0 114 49.5 216t142 166.5t206.5 64.5q117 0 182 -68.5t65 -194.5zM240 250 q0 -125 83 -125q56 0 99 52.5t63 123t20 139.5q0 125 -83 125q-56 0 -99 -52.5t-63 -123t-20 -139.5z" />
<glyph unicode="&#xd5;" horiz-adv-x="705" d="M416 943q35 0 77.5 -28.5t66.5 -28.5q19 0 32.5 9.5t33.5 33.5l43 -7q-13 -62 -49.5 -106.5t-88.5 -44.5q-32 0 -80.5 28.5t-69.5 28.5q-31 0 -64 -43l-43 7q13 62 49 106.5t93 44.5zM695 437q0 -114 -50 -215.5t-143.5 -166.5t-207.5 -65q-116 0 -180 68t-64 195 q0 114 49.5 216t142 166.5t206.5 64.5q117 0 182 -68.5t65 -194.5zM240 250q0 -125 83 -125q56 0 99 52.5t63 123t20 139.5q0 125 -83 125q-56 0 -99 -52.5t-63 -123t-20 -139.5z" />
<glyph unicode="&#xd6;" horiz-adv-x="705" d="M686 883q0 -41 -37 -73.5t-84 -32.5q-31 0 -49 16t-18 41q0 40 38 72.5t85 32.5q29 0 47 -15.5t18 -40.5zM445 883q0 -41 -37 -73.5t-84 -32.5q-31 0 -49 16t-18 41q0 40 38 72.5t85 32.5q29 0 47 -15.5t18 -40.5zM695 437q0 -114 -50 -215.5t-143.5 -166.5t-207.5 -65 q-116 0 -180 68t-64 195q0 114 49.5 216t142 166.5t206.5 64.5q117 0 182 -68.5t65 -194.5zM240 250q0 -125 83 -125q56 0 99 52.5t63 123t20 139.5q0 125 -83 125q-56 0 -99 -52.5t-63 -123t-20 -139.5z" />
<glyph unicode="&#xd7;" d="M434 132l-116 152l-184 -152l-50 64l185 153l-116 153l73 60q44 -52 119 -151l183 151l50 -64l-183 -151q21 -27 62.5 -80t56.5 -73l-3 -11z" />
<glyph unicode="&#xd8;" horiz-adv-x="705" d="M695 437q0 -114 -50 -215.5t-143.5 -166.5t-207.5 -65q-120 0 -183 72l-84 -77l-53 56l96 89q-20 54 -20 123q0 114 49.5 216t142 166.5t206.5 64.5q109 0 174 -60l70 65l54 -55l-79 -73q28 -59 28 -140zM422 565q-51 0 -91.5 -44t-61.5 -104.5t-27 -127.5l250 231 q-20 45 -70 45zM323 125q54 0 96.5 49.5t63 116.5t22.5 136l-258 -239q16 -63 76 -63z" />
<glyph unicode="&#xd9;" horiz-adv-x="711" d="M621 771q-169 2 -282 63l-4 29l126 91q86 -80 181 -142zM67 170q0 48 41.5 233.5t50.5 286.5l177 10l16 -20q-23 -109 -54 -252q-29 -134 -35 -165.5t-6 -48.5q0 -85 84 -85q103 0 131 127q55 257 67.5 322.5t14.5 111.5l187 8l-97 -458q-25 -119 -120.5 -184.5 t-219.5 -65.5q-107 0 -172 48t-65 132z" />
<glyph unicode="&#xda;" horiz-adv-x="711" d="M653 863l-16 -29q-141 -61 -310 -63l-3 41q135 70 241 142zM67 170q0 48 41.5 233.5t50.5 286.5l177 10l16 -20q-23 -109 -54 -252q-29 -134 -35 -165.5t-6 -48.5q0 -85 84 -85q103 0 131 127q55 257 67.5 322.5t14.5 111.5l187 8l-97 -458q-25 -119 -120.5 -184.5 t-219.5 -65.5q-107 0 -172 48t-65 132z" />
<glyph unicode="&#xdb;" horiz-adv-x="711" d="M345 772l-38 40q65 49 148 121l119 10q47 -75 94 -131l-56 -40q-36 13 -120 60q-105 -47 -147 -60zM67 170q0 48 41.5 233.5t50.5 286.5l177 10l16 -20q-23 -109 -54 -252q-29 -134 -35 -165.5t-6 -48.5q0 -85 84 -85q103 0 131 127q55 257 67.5 322.5t14.5 111.5l187 8 l-97 -458q-25 -119 -120.5 -184.5t-219.5 -65.5q-107 0 -172 48t-65 132z" />
<glyph unicode="&#xdc;" horiz-adv-x="711" d="M702 883q0 -41 -37 -73.5t-84 -32.5q-31 0 -49 16t-18 41q0 40 38 72.5t85 32.5q29 0 47 -15.5t18 -40.5zM461 883q0 -41 -37 -73.5t-84 -32.5q-31 0 -49 16t-18 41q0 40 38 72.5t85 32.5q29 0 47 -15.5t18 -40.5zM67 170q0 48 41.5 233.5t50.5 286.5l177 10l16 -20 q-23 -109 -54 -252q-29 -134 -35 -165.5t-6 -48.5q0 -85 84 -85q103 0 131 127q55 257 67.5 322.5t14.5 111.5l187 8l-97 -458q-25 -119 -120.5 -184.5t-219.5 -65.5q-107 0 -172 48t-65 132z" />
<glyph unicode="&#xdd;" horiz-adv-x="589" d="M610 863l-16 -29q-141 -61 -310 -63l-3 41q135 70 241 142zM195 216l-98 465l202 19l21 -202q8 -81 12 -152h3q66 121 81 151l105 203l146 -10l6 -19l-293 -455l-46 -216h-185z" />
<glyph unicode="&#xde;" horiz-adv-x="627" d="M212 0h-185l109 511q25 122 28 179h195l-20 -93h77q104 0 161.5 -48.5t57.5 -137.5q0 -123 -98.5 -210t-242.5 -87h-58zM347 467h-36l-47 -223h36q65 0 103 38.5t38 98.5q0 24 -7.5 41.5t-17 26t-24.5 13t-23.5 5t-21.5 0.5z" />
<glyph unicode="&#xdf;" horiz-adv-x="664" d="M-13 -250l-57 60q71 109 100 250l71 335l-69 5l13 60l74 20q29 138 111.5 209t203.5 71q93 0 143.5 -39t50.5 -104q0 -57 -39 -104t-112 -76q139 -66 139 -219q0 -99 -60 -163.5t-174 -64.5q-87 0 -119 17l24 110q32 -17 74 -17q39 0 61.5 32t22.5 81q0 104 -113 180 l12 64q124 46 124 144q0 59 -53 59q-78 0 -103 -119l-90 -423q-31 -148 -79 -229.5t-156 -138.5z" />
<glyph unicode="&#xe0;" horiz-adv-x="580" d="M405 566q-80 75 -120 170l16 30l162 8q0 -97 14 -198zM25 146q0 50 13.5 100.5t42 98t68 84.5t96.5 59t123 22q119 0 201 -44l-39 -178q-43 -197 -43 -288h-180q0 54 17 155q-22 -72 -71.5 -118.5t-110.5 -46.5q-57 0 -87 41t-30 115zM210 195q0 -55 33 -55 q32 0 65.5 59.5t51.5 138.5q2 11 6.5 33t5.5 28q-20 11 -37 11q-46 0 -85.5 -75t-39.5 -140z" />
<glyph unicode="&#xe1;" horiz-adv-x="580" d="M507 766l4 -30q-79 -95 -192 -170l-68 10q66 119 98 198zM25 146q0 50 13.5 100.5t42 98t68 84.5t96.5 59t123 22q119 0 201 -44l-39 -178q-43 -197 -43 -288h-180q0 54 17 155q-22 -72 -71.5 -118.5t-110.5 -46.5q-57 0 -87 41t-30 115zM210 195q0 -55 33 -55 q32 0 65.5 59.5t51.5 138.5q2 11 6.5 33t5.5 28q-20 11 -37 11q-46 0 -85.5 -75t-39.5 -140z" />
<glyph unicode="&#xe2;" horiz-adv-x="580" d="M253 552l-48 40q80 82 150 164l119 10q44 -110 78 -174l-66 -40q-33 24 -96 93q-88 -67 -137 -93zM25 146q0 50 13.5 100.5t42 98t68 84.5t96.5 59t123 22q119 0 201 -44l-39 -178q-43 -197 -43 -288h-180q0 54 17 155q-22 -72 -71.5 -118.5t-110.5 -46.5q-57 0 -87 41 t-30 115zM210 195q0 -55 33 -55q32 0 65.5 59.5t51.5 138.5q2 11 6.5 33t5.5 28q-20 11 -37 11q-46 0 -85.5 -75t-39.5 -140z" />
<glyph unicode="&#xe3;" horiz-adv-x="580" d="M333 762q36 0 80.5 -28.5t67.5 -28.5q18 0 31 10t30 33l48 -7q-15 -70 -52.5 -120.5t-89.5 -50.5q-32 0 -83.5 28.5t-70.5 28.5q-28 0 -59 -43l-47 7q15 71 51.5 121t93.5 50zM25 146q0 50 13.5 100.5t42 98t68 84.5t96.5 59t123 22q119 0 201 -44l-39 -178 q-43 -197 -43 -288h-180q0 54 17 155q-22 -72 -71.5 -118.5t-110.5 -46.5q-57 0 -87 41t-30 115zM210 195q0 -55 33 -55q32 0 65.5 59.5t51.5 138.5q2 11 6.5 33t5.5 28q-20 11 -37 11q-46 0 -85.5 -75t-39.5 -140z" />
<glyph unicode="&#xe4;" horiz-adv-x="580" d="M360 696q0 -47 -39 -84.5t-88 -37.5q-33 0 -52 18t-19 47q0 45 41 82.5t90 37.5q31 0 49 -17t18 -46zM599 696q0 -47 -39 -84.5t-88 -37.5q-33 0 -52 18t-19 47q0 45 41 82.5t90 37.5q31 0 49 -17t18 -46zM25 146q0 50 13.5 100.5t42 98t68 84.5t96.5 59t123 22 q119 0 201 -44l-39 -178q-43 -197 -43 -288h-180q0 54 17 155q-22 -72 -71.5 -118.5t-110.5 -46.5q-57 0 -87 41t-30 115zM210 195q0 -55 33 -55q32 0 65.5 59.5t51.5 138.5q2 11 6.5 33t5.5 28q-20 11 -37 11q-46 0 -85.5 -75t-39.5 -140z" />
<glyph unicode="&#xe5;" horiz-adv-x="580" d="M515 713q0 -56 -51 -101t-114 -45q-45 0 -71.5 23t-26.5 58q0 54 53.5 99t117.5 45q42 0 67 -21.5t25 -57.5zM325 662q0 -17 11 -28t31 -11q28 0 51.5 23.5t23.5 52.5q0 37 -37 37q-30 0 -55 -23t-25 -51zM25 146q0 50 13.5 100.5t42 98t68 84.5t96.5 59t123 22 q119 0 201 -44l-39 -178q-43 -197 -43 -288h-180q0 54 17 155q-22 -72 -71.5 -118.5t-110.5 -46.5q-57 0 -87 41t-30 115zM210 195q0 -55 33 -55q32 0 65.5 59.5t51.5 138.5q2 11 6.5 33t5.5 28q-20 11 -37 11q-46 0 -85.5 -75t-39.5 -140z" />
<glyph unicode="&#xe6;" horiz-adv-x="816" d="M27 157q0 50 13.5 100t41.5 95.5t68 80.5t96 56t122 21q84 0 161 -26q57 26 122 26q77 0 123 -36t46 -95q0 -77 -80.5 -125t-224.5 -59v-1q0 -89 86 -89q57 0 125 38l19 -73q-93 -80 -220 -80q-86 0 -138.5 45.5t-56.5 133.5q-18 -73 -70 -126t-114 -53q-56 0 -87.5 45 t-31.5 122zM626 415q-39 0 -66.5 -52.5t-39.5 -118.5q65 15 101 47.5t36 81.5q0 42 -31 42zM212 195q0 -55 33 -55q26 0 53.5 40t47.5 100q18 53 54 102q-36 28 -63 28q-46 0 -85.5 -75t-39.5 -140z" />
<glyph unicode="&#xe7;" horiz-adv-x="487" d="M349 -125q0 -63 -69.5 -99t-191.5 -36l18 60q53 3 85 19.5t32 40.5q0 30 -69 30l-13 30l37 74q-69 12 -108 59t-39 128q0 130 93.5 229.5t237.5 99.5q86 0 143 -33l-45 -144q-62 62 -123 62q-55 0 -88 -56t-33 -128q0 -106 89 -106q57 0 125 38l19 -73q-74 -64 -180 -77 l-22 -42q102 -14 102 -76z" />
<glyph unicode="&#xe8;" horiz-adv-x="515" d="M381 566q-80 75 -120 170l16 30l162 8q0 -97 14 -198zM427 143l19 -73q-93 -80 -220 -80q-89 0 -142 48t-53 142q0 130 94 230t231 100q75 0 120 -32.5t45 -89.5q0 -79 -83 -133t-222 -60v-1q0 -89 86 -89q57 0 125 38zM327 415q-39 0 -66.5 -52.5t-39.5 -118.5 q65 15 101 47.5t36 81.5q0 42 -31 42z" />
<glyph unicode="&#xe9;" horiz-adv-x="515" d="M483 766l4 -30q-79 -95 -192 -170l-68 10q66 119 98 198zM427 143l19 -73q-93 -80 -220 -80q-89 0 -142 48t-53 142q0 130 94 230t231 100q75 0 120 -32.5t45 -89.5q0 -79 -83 -133t-222 -60v-1q0 -89 86 -89q57 0 125 38zM327 415q-39 0 -66.5 -52.5t-39.5 -118.5 q65 15 101 47.5t36 81.5q0 42 -31 42z" />
<glyph unicode="&#xea;" horiz-adv-x="515" d="M229 552l-48 40q80 82 150 164l119 10q44 -110 78 -174l-66 -40q-33 24 -96 93q-88 -67 -137 -93zM427 143l19 -73q-93 -80 -220 -80q-89 0 -142 48t-53 142q0 130 94 230t231 100q75 0 120 -32.5t45 -89.5q0 -79 -83 -133t-222 -60v-1q0 -89 86 -89q57 0 125 38z M327 415q-39 0 -66.5 -52.5t-39.5 -118.5q65 15 101 47.5t36 81.5q0 42 -31 42z" />
<glyph unicode="&#xeb;" horiz-adv-x="515" d="M336 696q0 -47 -39 -84.5t-88 -37.5q-33 0 -52 18t-19 47q0 45 41 82.5t90 37.5q31 0 49 -17t18 -46zM575 696q0 -47 -39 -84.5t-88 -37.5q-33 0 -52 18t-19 47q0 45 41 82.5t90 37.5q31 0 49 -17t18 -46zM427 143l19 -73q-93 -80 -220 -80q-89 0 -142 48t-53 142 q0 130 94 230t231 100q75 0 120 -32.5t45 -89.5q0 -79 -83 -133t-222 -60v-1q0 -89 86 -89q57 0 125 38zM327 415q-39 0 -66.5 -52.5t-39.5 -118.5q65 15 101 47.5t36 81.5q0 42 -31 42z" />
<glyph unicode="&#xec;" horiz-adv-x="301" d="M251 566q-80 75 -120 170l16 30l162 8q0 -97 14 -198zM208 0h-180q0 96 37 267l20 92l8 141l189 10q0 -64 -37 -245t-37 -265z" />
<glyph unicode="&#xed;" horiz-adv-x="301" d="M353 766l4 -30q-79 -95 -192 -170l-68 10q66 119 98 198zM208 0h-180q0 96 37 267l20 92l8 141l189 10q0 -64 -37 -245t-37 -265z" />
<glyph unicode="&#xee;" horiz-adv-x="301" d="M125 561l-59 24q48 79 94 176l170 10q6 -119 17 -186l-69 -24q-31 39 -55 101q-56 -67 -98 -101zM208 0h-180q0 96 37 267l20 92l8 141l189 10q0 -64 -37 -245t-37 -265z" />
<glyph unicode="&#xef;" horiz-adv-x="301" d="M221 699q0 -47 -36.5 -85.5t-80.5 -38.5q-29 0 -46.5 18t-17.5 46q0 44 39 82.5t83 38.5q26 0 42.5 -16.5t16.5 -44.5zM414 699q0 -47 -37 -85.5t-81 -38.5q-29 0 -45 17.5t-16 45.5q0 45 37.5 83.5t81.5 38.5q27 0 43.5 -16.5t16.5 -44.5zM208 0h-180q0 96 37 267l20 92 l8 141l189 10q0 -64 -37 -245t-37 -265z" />
<glyph unicode="&#xf0;" horiz-adv-x="586" d="M229 -10q-88 0 -141.5 49.5t-53.5 141.5q0 118 81 204.5t192 86.5q50 0 81 -20q-12 65 -49 116l-96 -56l-38 67l82 47q-22 20 -46 37l65 97q56 -23 105 -61l106 61l39 -67l-88 -51q87 -104 87 -257q0 -165 -93 -280t-233 -115zM322 372q-42 0 -73.5 -58.5t-31.5 -135.5 q0 -88 47 -88q42 0 73 62t31 138q0 82 -46 82z" />
<glyph unicode="&#xf1;" horiz-adv-x="591" d="M317 762q36 0 80.5 -28.5t67.5 -28.5q18 0 31 10t30 33l48 -7q-15 -70 -52.5 -120.5t-89.5 -50.5q-32 0 -83.5 28.5t-70.5 28.5q-28 0 -59 -43l-47 7q15 71 51.5 121t93.5 50zM208 0h-180q0 108 57 359l8 141l189 10q0 -32 -10 -124h3q37 63 86.5 93.5t98.5 30.5 q47 0 73 -27t26 -71q0 -36 -36 -204q-25 -118 -25 -208h-180q0 77 26 207q21 105 21 120q0 33 -24 33q-31 0 -61.5 -53t-50.5 -137t-21 -170z" />
<glyph unicode="&#xf2;" horiz-adv-x="571" d="M386 566q-80 75 -120 170l16 30l162 8q0 -97 14 -198zM543 316q0 -131 -92.5 -228.5t-225.5 -97.5q-88 0 -141 48t-53 142q0 129 93.5 229.5t226.5 100.5q90 0 141 -50.5t51 -143.5zM216 161q0 -71 37 -71q47 0 76 86t29 164q0 70 -37 70q-33 0 -58 -45.5t-36 -100.5 t-11 -103z" />
<glyph unicode="&#xf3;" horiz-adv-x="571" d="M488 766l4 -30q-79 -95 -192 -170l-68 10q66 119 98 198zM543 316q0 -131 -92.5 -228.5t-225.5 -97.5q-88 0 -141 48t-53 142q0 129 93.5 229.5t226.5 100.5q90 0 141 -50.5t51 -143.5zM216 161q0 -71 37 -71q47 0 76 86t29 164q0 70 -37 70q-33 0 -58 -45.5t-36 -100.5 t-11 -103z" />
<glyph unicode="&#xf4;" horiz-adv-x="571" d="M234 552l-48 40q80 82 150 164l119 10q44 -110 78 -174l-66 -40q-33 24 -96 93q-88 -67 -137 -93zM543 316q0 -131 -92.5 -228.5t-225.5 -97.5q-88 0 -141 48t-53 142q0 129 93.5 229.5t226.5 100.5q90 0 141 -50.5t51 -143.5zM216 161q0 -71 37 -71q47 0 76 86t29 164 q0 70 -37 70q-33 0 -58 -45.5t-36 -100.5t-11 -103z" />
<glyph unicode="&#xf5;" horiz-adv-x="571" d="M314 762q36 0 80.5 -28.5t67.5 -28.5q18 0 31 10t30 33l48 -7q-15 -70 -52.5 -120.5t-89.5 -50.5q-32 0 -83.5 28.5t-70.5 28.5q-28 0 -59 -43l-47 7q15 71 51.5 121t93.5 50zM543 316q0 -131 -92.5 -228.5t-225.5 -97.5q-88 0 -141 48t-53 142q0 129 93.5 229.5 t226.5 100.5q90 0 141 -50.5t51 -143.5zM216 161q0 -71 37 -71q47 0 76 86t29 164q0 70 -37 70q-33 0 -58 -45.5t-36 -100.5t-11 -103z" />
<glyph unicode="&#xf6;" horiz-adv-x="571" d="M341 696q0 -47 -39 -84.5t-88 -37.5q-33 0 -52 18t-19 47q0 45 41 82.5t90 37.5q31 0 49 -17t18 -46zM580 696q0 -47 -39 -84.5t-88 -37.5q-33 0 -52 18t-19 47q0 45 41 82.5t90 37.5q31 0 49 -17t18 -46zM543 316q0 -131 -92.5 -228.5t-225.5 -97.5q-88 0 -141 48 t-53 142q0 129 93.5 229.5t226.5 100.5q90 0 141 -50.5t51 -143.5zM216 161q0 -71 37 -71q47 0 76 86t29 164q0 70 -37 70q-33 0 -58 -45.5t-36 -100.5t-11 -103z" />
<glyph unicode="&#xf7;" d="M452 558q0 -39 -32.5 -70.5t-73.5 -31.5q-27 0 -42.5 15.5t-15.5 39.5q0 38 33.5 69.5t73.5 31.5q26 0 41.5 -14.5t15.5 -39.5zM541 303h-450l18 85q172 5 453 5l6 -8zM374 186q0 -39 -33 -70.5t-74 -31.5q-27 0 -42.5 15.5t-15.5 39.5q0 37 34.5 69t74.5 32 q25 0 40.5 -14.5t15.5 -39.5z" />
<glyph unicode="&#xf8;" horiz-adv-x="571" d="M543 316q0 -131 -92.5 -228.5t-225.5 -97.5q-83 0 -134 42l-69 -61l-47 56l73 63q-17 39 -17 90q0 129 93.5 229.5t226.5 100.5q81 0 130 -41l69 60l48 -55l-73 -64q18 -39 18 -94zM321 410q-36 0 -61 -48.5t-36 -117.5l133 117q-4 49 -36 49zM253 90q35 0 60 49t37 119 l-133 -117q5 -51 36 -51z" />
<glyph unicode="&#xf9;" horiz-adv-x="577" d="M369 566q-80 75 -120 170l16 30l162 8q0 -97 14 -198zM36 150l44 209l8 141l189 10q0 -41 -8.5 -93.5t-22 -115.5t-17.5 -88q-12 -73 18 -73q31 0 59.5 56t46.5 142q11 65 15 105q3 29 3 57l190 10q-8 -77 -64 -359q-13 -62 -13 -151h-180q0 64 7 114h-3q-36 -64 -84 -94 t-96 -30q-60 0 -83.5 44t-8.5 116z" />
<glyph unicode="&#xfa;" horiz-adv-x="577" d="M471 766l4 -30q-79 -95 -192 -170l-68 10q66 119 98 198zM36 150l44 209l8 141l189 10q0 -41 -8.5 -93.5t-22 -115.5t-17.5 -88q-12 -73 18 -73q31 0 59.5 56t46.5 142q11 65 15 105q3 29 3 57l190 10q-8 -77 -64 -359q-13 -62 -13 -151h-180q0 64 7 114h-3 q-36 -64 -84 -94t-96 -30q-60 0 -83.5 44t-8.5 116z" />
<glyph unicode="&#xfb;" horiz-adv-x="577" d="M217 552l-48 40q80 82 150 164l119 10q44 -110 78 -174l-66 -40q-33 24 -96 93q-88 -67 -137 -93zM36 150l44 209l8 141l189 10q0 -41 -8.5 -93.5t-22 -115.5t-17.5 -88q-12 -73 18 -73q31 0 59.5 56t46.5 142q11 65 15 105q3 29 3 57l190 10q-8 -77 -64 -359 q-13 -62 -13 -151h-180q0 64 7 114h-3q-36 -64 -84 -94t-96 -30q-60 0 -83.5 44t-8.5 116z" />
<glyph unicode="&#xfc;" horiz-adv-x="577" d="M324 696q0 -47 -39 -84.5t-88 -37.5q-33 0 -52 18t-19 47q0 45 41 82.5t90 37.5q31 0 49 -17t18 -46zM563 696q0 -47 -39 -84.5t-88 -37.5q-33 0 -52 18t-19 47q0 45 41 82.5t90 37.5q31 0 49 -17t18 -46zM36 150l44 209l8 141l189 10q0 -41 -8.5 -93.5t-22 -115.5 t-17.5 -88q-12 -73 18 -73q31 0 59.5 56t46.5 142q11 65 15 105q3 29 3 57l190 10q-8 -77 -64 -359q-13 -62 -13 -151h-180q0 64 7 114h-3q-36 -64 -84 -94t-96 -30q-60 0 -83.5 44t-8.5 116z" />
<glyph unicode="&#xfd;" horiz-adv-x="522" d="M459 766l4 -30q-79 -95 -192 -170l-68 10q66 119 98 198zM437 510q44 0 67 -11.5t23 -45.5q0 -35 -26 -102t-68 -146t-99.5 -161.5t-117 -150t-124 -110.5t-117.5 -43q-42 0 -66.5 25.5t-24.5 70.5q0 38 19 67q34 -10 77 -10q67 0 126 27.5t87 79.5h-103q-6 315 -37 500 l194 10q18 -181 -8 -400h3q47 94 82 201.5t44 190.5q34 8 69 8z" />
<glyph unicode="&#xfe;" horiz-adv-x="574" d="M150 -240h-180q0 88 61 370l102 479l8 141l189 10q0 -43 -11 -114.5t-20 -114t-32 -147.5q27 56 71 91t94 35q56 0 87.5 -45t31.5 -122q0 -50 -13.5 -100t-41.5 -95.5t-68 -80.5t-96 -56t-122 -21q-18 0 -28 1q-32 -167 -32 -231zM333 360q-31 0 -63.5 -57.5 t-54.5 -152.5q-1 -7 -4.5 -24t-5.5 -26q22 -10 36 -10q46 0 85.5 75t39.5 140q0 55 -33 55z" />
<glyph unicode="&#xff;" horiz-adv-x="522" d="M312 696q0 -47 -39 -84.5t-88 -37.5q-33 0 -52 18t-19 47q0 45 41 82.5t90 37.5q31 0 49 -17t18 -46zM551 696q0 -47 -39 -84.5t-88 -37.5q-33 0 -52 18t-19 47q0 45 41 82.5t90 37.5q31 0 49 -17t18 -46zM437 510q44 0 67 -11.5t23 -45.5q0 -35 -26 -102t-68 -146 t-99.5 -161.5t-117 -150t-124 -110.5t-117.5 -43q-42 0 -66.5 25.5t-24.5 70.5q0 38 19 67q34 -10 77 -10q67 0 126 27.5t87 79.5h-103q-6 315 -37 500l194 10q18 -181 -8 -400h3q47 94 82 201.5t44 190.5q34 8 69 8z" />
<glyph unicode="&#x100;" horiz-adv-x="690" d="M297 809l20 96h298l-20 -96h-298zM147 0h-175l289 580q32 62 50 110l226 9l25 -25l50 -674h-185l-8 130h-209zM294 305l-22 -45h140l-3 44q-8 149 -4 238h-5q-44 -108 -106 -237z" />
<glyph unicode="&#x101;" horiz-adv-x="580" d="M221 618l20 96h298l-20 -96h-298zM25 146q0 50 13.5 100.5t42 98t68 84.5t96.5 59t123 22q119 0 201 -44l-39 -178q-43 -197 -43 -288h-180q0 54 17 155q-22 -72 -71.5 -118.5t-110.5 -46.5q-57 0 -87 41t-30 115zM210 195q0 -55 33 -55q32 0 65.5 59.5t51.5 138.5 q2 11 6.5 33t5.5 28q-20 11 -37 11q-46 0 -85.5 -75t-39.5 -140z" />
<glyph unicode="&#x102;" horiz-adv-x="690" d="M546 933l71 9q-20 -74 -73.5 -120.5t-125.5 -46.5q-64 0 -97 40.5t-23 108.5l72 10q3 -22 24.5 -35.5t53.5 -13.5t59 13.5t39 34.5zM147 0h-175l289 580q32 62 50 110l226 9l25 -25l50 -674h-185l-8 130h-209zM294 305l-22 -45h140l-3 44q-8 149 -4 238h-5 q-44 -108 -106 -237z" />
<glyph unicode="&#x103;" horiz-adv-x="580" d="M495 765l71 9q-22 -87 -78 -142t-127 -55q-64 0 -95.5 49t-18.5 130l72 10q0 -36 19.5 -57.5t51.5 -21.5q33 0 62 22t43 56zM25 146q0 50 13.5 100.5t42 98t68 84.5t96.5 59t123 22q119 0 201 -44l-39 -178q-43 -197 -43 -288h-180q0 54 17 155q-22 -72 -71.5 -118.5 t-110.5 -46.5q-57 0 -87 41t-30 115zM210 195q0 -55 33 -55q32 0 65.5 59.5t51.5 138.5q2 11 6.5 33t5.5 28q-20 11 -37 11q-46 0 -85.5 -75t-39.5 -140z" />
<glyph unicode="&#x104;" horiz-adv-x="690" d="M147 0h-175l289 580q32 62 50 110l226 9l25 -25l50 -674q-66 -28 -104 -64t-38 -69q0 -29 35 -29q26 0 57 13l12 -59q-77 -58 -157 -58q-45 0 -72.5 22.5t-27.5 60.5q0 51 48 100.5t130 82.5h-68l-8 130h-209zM294 305l-22 -45h140l-3 44q-8 149 -4 238h-5 q-44 -108 -106 -237z" />
<glyph unicode="&#x105;" horiz-adv-x="580" d="M25 146q0 50 13.5 100.5t42 98t68 84.5t96.5 59t123 22q119 0 201 -44l-39 -178q-43 -197 -43 -288q-66 -28 -104 -64t-38 -69q0 -29 35 -29q26 0 57 13l12 -59q-77 -58 -157 -58q-45 0 -72.5 22.5t-27.5 60.5q0 51 48 100.5t130 82.5h-63q0 54 17 155 q-22 -72 -71.5 -118.5t-110.5 -46.5q-57 0 -87 41t-30 115zM210 195q0 -55 33 -55q32 0 65.5 59.5t51.5 138.5q2 11 6.5 33t5.5 28q-20 11 -37 11q-46 0 -85.5 -75t-39.5 -140z" />
<glyph unicode="&#x106;" horiz-adv-x="587" d="M617 863l-16 -29q-141 -61 -310 -63l-3 41q135 70 241 142zM526 178l-11 -148q-89 -40 -195 -40q-132 0 -201 66.5t-69 196.5q0 117 52 219.5t146 165t207 62.5q49 0 96.5 -11.5t73.5 -28.5l-68 -155q-61 45 -132 45q-55 0 -97.5 -41t-62.5 -99.5t-20 -120.5 q0 -149 130 -149q73 0 151 38z" />
<glyph unicode="&#x107;" horiz-adv-x="487" d="M489 766l4 -30q-79 -95 -192 -170l-68 10q66 119 98 198zM430 143l19 -73q-93 -80 -225 -80q-88 0 -140.5 48.5t-52.5 142.5q0 130 93.5 229.5t237.5 99.5q86 0 143 -33l-45 -144q-62 62 -123 62q-55 0 -88 -56t-33 -128q0 -106 89 -106q57 0 125 38z" />
<glyph unicode="&#x108;" horiz-adv-x="587" d="M309 772l-38 40q65 49 148 121l119 10q47 -75 94 -131l-56 -40q-36 13 -120 60q-105 -47 -147 -60zM526 178l-11 -148q-89 -40 -195 -40q-132 0 -201 66.5t-69 196.5q0 117 52 219.5t146 165t207 62.5q49 0 96.5 -11.5t73.5 -28.5l-68 -155q-61 45 -132 45 q-55 0 -97.5 -41t-62.5 -99.5t-20 -120.5q0 -149 130 -149q73 0 151 38z" />
<glyph unicode="&#x109;" horiz-adv-x="487" d="M235 552l-48 40q80 82 150 164l119 10q44 -110 78 -174l-66 -40q-33 24 -96 93q-88 -67 -137 -93zM430 143l19 -73q-93 -80 -225 -80q-88 0 -140.5 48.5t-52.5 142.5q0 130 93.5 229.5t237.5 99.5q86 0 143 -33l-45 -144q-62 62 -123 62q-55 0 -88 -56t-33 -128 q0 -106 89 -106q57 0 125 38z" />
<glyph unicode="&#x10a;" horiz-adv-x="587" d="M558 887q0 -47 -41.5 -84t-94.5 -37q-35 0 -56.5 18.5t-21.5 47.5q0 44 43.5 80.5t96.5 36.5q33 0 53.5 -17t20.5 -45zM526 178l-11 -148q-89 -40 -195 -40q-132 0 -201 66.5t-69 196.5q0 117 52 219.5t146 165t207 62.5q49 0 96.5 -11.5t73.5 -28.5l-68 -155 q-61 45 -132 45q-55 0 -97.5 -41t-62.5 -99.5t-20 -120.5q0 -149 130 -149q73 0 151 38z" />
<glyph unicode="&#x10b;" horiz-adv-x="487" d="M471 696q0 -50 -43.5 -91t-96.5 -41q-36 0 -57.5 20.5t-21.5 51.5q0 47 44 87.5t99 40.5q35 0 55.5 -18.5t20.5 -49.5zM430 143l19 -73q-93 -80 -225 -80q-88 0 -140.5 48.5t-52.5 142.5q0 130 93.5 229.5t237.5 99.5q86 0 143 -33l-45 -144q-62 62 -123 62 q-55 0 -88 -56t-33 -128q0 -106 89 -106q57 0 125 38z" />
<glyph unicode="&#x10c;" horiz-adv-x="587" d="M595 947l38 -40q-65 -49 -148 -121l-119 -10q-47 75 -94 131l56 40q36 -13 120 -60q105 47 147 60zM526 178l-11 -148q-89 -40 -195 -40q-132 0 -201 66.5t-69 196.5q0 117 52 219.5t146 165t207 62.5q49 0 96.5 -11.5t73.5 -28.5l-68 -155q-61 45 -132 45 q-55 0 -97.5 -41t-62.5 -99.5t-20 -120.5q0 -149 130 -149q73 0 151 38z" />
<glyph unicode="&#x10d;" horiz-adv-x="487" d="M510 784l48 -40q-80 -82 -150 -164l-119 -10q-44 110 -78 174l66 40q33 -24 96 -93q88 67 137 93zM430 143l19 -73q-93 -80 -225 -80q-88 0 -140.5 48.5t-52.5 142.5q0 130 93.5 229.5t237.5 99.5q86 0 143 -33l-45 -144q-62 62 -123 62q-55 0 -88 -56t-33 -128 q0 -106 89 -106q57 0 125 38z" />
<glyph unicode="&#x10e;" horiz-adv-x="724" d="M640 947l38 -40q-65 -49 -148 -121l-119 -10q-47 75 -94 131l56 40q36 -13 120 -60q105 47 147 60zM712 427q0 -85 -29 -161t-83.5 -136t-141 -95t-192.5 -35h-238l108 511q25 115 28 179h268q280 0 280 -263zM386 560h-55l-90 -430h68q54 0 96.5 25.5t66 67.5t35.5 88.5 t12 95.5q0 44 -10.5 74.5t-23.5 45.5t-34.5 23t-33.5 9t-31 1z" />
<glyph unicode="&#x10f;" horiz-adv-x="580" d="M861 771l4 -30q-66 -103 -165 -210h-59q48 133 83 240h137zM487 0h-180q0 59 15 149q-22 -70 -71 -114.5t-109 -44.5q-56 0 -86.5 41t-30.5 114q0 50 13.5 101t42 98.5t67.5 84.5t94.5 59t118.5 22q12 0 34 -2l22 101l8 141l189 10q0 -93 -63.5 -378t-63.5 -382zM210 195 q0 -55 33 -55q31 0 62.5 54.5t50.5 130.5q4 17 12 55l4 19q-20 11 -37 11q-46 0 -85.5 -75t-39.5 -140z" />
<glyph unicode="&#x110;" horiz-adv-x="724" d="M712 427q0 -85 -29 -161t-83.5 -136t-141 -95t-192.5 -35h-238l63 300h-45l19 90h45l26 121q25 115 28 179h268q280 0 280 -263zM432 300h-156l-35 -170h68q54 0 96.5 25.5t66 67.5t35.5 88.5t12 95.5q0 44 -10.5 74.5t-23.5 45.5t-34.5 23t-33.5 9t-31 1h-55l-35 -170 h155z" />
<glyph unicode="&#x111;" horiz-adv-x="580" d="M487 0h-180q0 59 15 149q-22 -70 -71 -114.5t-109 -44.5q-56 0 -86.5 41t-30.5 114q0 50 13.5 101t42 98.5t67.5 84.5t94.5 59t118.5 22q12 0 34 -2l14 62h-121l19 90h113l5 90l189 10q0 -41 -8 -100h87l-19 -90h-84q-11 -60 -40.5 -190.5t-46 -224t-16.5 -155.5z M210 195q0 -55 33 -55q31 0 62.5 54.5t50.5 130.5q4 17 12 55l4 19q-20 11 -37 11q-46 0 -85.5 -75t-39.5 -140z" />
<glyph unicode="&#x112;" horiz-adv-x="581" d="M269 809l20 96h298l-20 -96h-298zM522 140l-29 -140h-465l108 511q25 115 28 179h449l16 -20l-29 -120l-269 10l-34 -161l222 5l-32 -127l-214 7l-33 -154z" />
<glyph unicode="&#x113;" horiz-adv-x="515" d="M197 618l20 96h298l-20 -96h-298zM427 143l19 -73q-93 -80 -220 -80q-89 0 -142 48t-53 142q0 130 94 230t231 100q75 0 120 -32.5t45 -89.5q0 -79 -83 -133t-222 -60v-1q0 -89 86 -89q57 0 125 38zM327 415q-39 0 -66.5 -52.5t-39.5 -118.5q65 15 101 47.5t36 81.5 q0 42 -31 42z" />
<glyph unicode="&#x114;" horiz-adv-x="581" d="M518 933l71 9q-20 -74 -73.5 -120.5t-125.5 -46.5q-64 0 -97 40.5t-23 108.5l72 10q3 -22 24.5 -35.5t53.5 -13.5t59 13.5t39 34.5zM522 140l-29 -140h-465l108 511q25 115 28 179h449l16 -20l-29 -120l-269 10l-34 -161l222 5l-32 -127l-214 7l-33 -154z" />
<glyph unicode="&#x115;" horiz-adv-x="515" d="M471 765l71 9q-22 -87 -78 -142t-127 -55q-64 0 -95.5 49t-18.5 130l72 10q0 -36 19.5 -57.5t51.5 -21.5q33 0 62 22t43 56zM427 143l19 -73q-93 -80 -220 -80q-89 0 -142 48t-53 142q0 130 94 230t231 100q75 0 120 -32.5t45 -89.5q0 -79 -83 -133t-222 -60v-1 q0 -89 86 -89q57 0 125 38zM327 415q-39 0 -66.5 -52.5t-39.5 -118.5q65 15 101 47.5t36 81.5q0 42 -31 42z" />
<glyph unicode="&#x116;" horiz-adv-x="581" d="M535 887q0 -47 -41.5 -84t-94.5 -37q-35 0 -56.5 18.5t-21.5 47.5q0 44 43.5 80.5t96.5 36.5q33 0 53.5 -17t20.5 -45zM522 140l-29 -140h-465l108 511q25 115 28 179h449l16 -20l-29 -120l-269 10l-34 -161l222 5l-32 -127l-214 7l-33 -154z" />
<glyph unicode="&#x117;" horiz-adv-x="515" d="M465 696q0 -50 -43.5 -91t-96.5 -41q-36 0 -57.5 20.5t-21.5 51.5q0 47 44 87.5t99 40.5q35 0 55.5 -18.5t20.5 -49.5zM427 143l19 -73q-93 -80 -220 -80q-89 0 -142 48t-53 142q0 130 94 230t231 100q75 0 120 -32.5t45 -89.5q0 -79 -83 -133t-222 -60v-1q0 -89 86 -89 q57 0 125 38zM327 415q-39 0 -66.5 -52.5t-39.5 -118.5q65 15 101 47.5t36 81.5q0 42 -31 42z" />
<glyph unicode="&#x118;" horiz-adv-x="581" d="M493 0q-66 -28 -104 -64t-38 -69q0 -29 35 -29q26 0 57 13l12 -59q-77 -58 -157 -58q-45 0 -72.5 22.5t-27.5 60.5q0 51 48 100.5t130 82.5h-348l108 511q25 115 28 179h449l16 -20l-29 -120l-269 10l-34 -161l222 5l-32 -127l-214 7l-33 -154l282 10z" />
<glyph unicode="&#x119;" horiz-adv-x="515" d="M427 143l19 -73l-15 -12q-81 -66 -119 -109.5t-38 -78.5q0 -32 35 -32q26 0 57 13l12 -59q-77 -58 -157 -58q-45 0 -72.5 23t-27.5 64q0 84 136 170q-10 -1 -31 -1q-89 0 -142 48t-53 142q0 130 94 230t231 100q75 0 120 -32.5t45 -89.5q0 -79 -83 -133t-222 -60v-1 q0 -89 86 -89q57 0 125 38zM327 415q-39 0 -66.5 -52.5t-39.5 -118.5q65 15 101 47.5t36 81.5q0 42 -31 42z" />
<glyph unicode="&#x11a;" horiz-adv-x="581" d="M572 947l38 -40q-65 -49 -148 -121l-119 -10q-47 75 -94 131l56 40q36 -13 120 -60q105 47 147 60zM522 140l-29 -140h-465l108 511q25 115 28 179h449l16 -20l-29 -120l-269 10l-34 -161l222 5l-32 -127l-214 7l-33 -154z" />
<glyph unicode="&#x11b;" horiz-adv-x="515" d="M504 784l48 -40q-80 -82 -150 -164l-119 -10q-44 110 -78 174l66 40q33 -24 96 -93q88 67 137 93zM427 143l19 -73q-93 -80 -220 -80q-89 0 -142 48t-53 142q0 130 94 230t231 100q75 0 120 -32.5t45 -89.5q0 -79 -83 -133t-222 -60v-1q0 -89 86 -89q57 0 125 38z M327 415q-39 0 -66.5 -52.5t-39.5 -118.5q65 15 101 47.5t36 81.5q0 42 -31 42z" />
<glyph unicode="&#x11c;" horiz-adv-x="668" d="M349 772l-38 40q65 49 148 121l119 10q47 -75 94 -131l-56 -40q-36 13 -120 60q-105 -47 -147 -60zM610 333l16 -20l-63 -283q-113 -40 -228 -40q-143 0 -215.5 65t-72.5 189q0 118 60 223t165.5 169t230.5 64q110 0 185 -40l-63 -155q-65 50 -144 50q-106 0 -172.5 -85 t-66.5 -194q0 -146 140 -146q20 0 31 1q19 90 26 192z" />
<glyph unicode="&#x11d;" horiz-adv-x="533" d="M225 552l-48 40q80 82 150 164l119 10q44 -110 78 -174l-66 -40q-33 24 -96 93q-88 -67 -137 -93zM154 -260q-104 0 -166 35.5t-62 88.5q0 39 35.5 68t92.5 45l34 -31q-2 -16 -2 -24q0 -46 27.5 -74t74.5 -28q36 0 61 16t25 40q0 15 -13.5 29.5t-26 21.5t-41.5 21l-12 6 q-43 21 -64.5 39.5t-21.5 44.5q0 42 48.5 68.5t94.5 26.5v3q-19 0 -30 1q-71 6 -116.5 49t-45.5 115q0 97 79 153t183 56q112 0 156 2t87 11q16 -15 16 -38q0 -24 -14.5 -44.5t-46.5 -20.5q-15 0 -29.5 4.5t-32.5 13t-27 11.5l-1 -3q77 -41 77 -122q0 -47 -24 -84.5 t-57.5 -59.5t-67.5 -38t-58 -28.5t-24 -23.5q0 -13 54 -39q77 -39 104 -68q34 -35 34 -78q0 -72 -87 -118.5t-213 -46.5zM326 358q0 67 -35 67q-32 0 -55 -48t-23 -99q0 -74 40 -74q32 0 52.5 49t20.5 105z" />
<glyph unicode="&#x11e;" horiz-adv-x="668" d="M581 933l71 9q-20 -74 -73.5 -120.5t-125.5 -46.5q-64 0 -97 40.5t-23 108.5l72 10q3 -22 24.5 -35.5t53.5 -13.5t59 13.5t39 34.5zM610 333l16 -20l-63 -283q-113 -40 -228 -40q-143 0 -215.5 65t-72.5 189q0 118 60 223t165.5 169t230.5 64q110 0 185 -40l-63 -155 q-65 50 -144 50q-106 0 -172.5 -85t-66.5 -194q0 -146 140 -146q20 0 31 1q19 90 26 192z" />
<glyph unicode="&#x11f;" horiz-adv-x="533" d="M467 765l71 9q-22 -87 -78 -142t-127 -55q-64 0 -95.5 49t-18.5 130l72 10q0 -36 19.5 -57.5t51.5 -21.5q33 0 62 22t43 56zM154 -260q-104 0 -166 35.5t-62 88.5q0 39 35.5 68t92.5 45l34 -31q-2 -16 -2 -24q0 -46 27.5 -74t74.5 -28q36 0 61 16t25 40q0 15 -13.5 29.5 t-26 21.5t-41.5 21l-12 6q-43 21 -64.5 39.5t-21.5 44.5q0 42 48.5 68.5t94.5 26.5v3q-19 0 -30 1q-71 6 -116.5 49t-45.5 115q0 97 79 153t183 56q112 0 156 2t87 11q16 -15 16 -38q0 -24 -14.5 -44.5t-46.5 -20.5q-15 0 -29.5 4.5t-32.5 13t-27 11.5l-1 -3q77 -41 77 -122 q0 -47 -24 -84.5t-57.5 -59.5t-67.5 -38t-58 -28.5t-24 -23.5q0 -13 54 -39q77 -39 104 -68q34 -35 34 -78q0 -72 -87 -118.5t-213 -46.5zM326 358q0 67 -35 67q-32 0 -55 -48t-23 -99q0 -74 40 -74q32 0 52.5 49t20.5 105z" />
<glyph unicode="&#x120;" horiz-adv-x="668" d="M598 887q0 -47 -41.5 -84t-94.5 -37q-35 0 -56.5 18.5t-21.5 47.5q0 44 43.5 80.5t96.5 36.5q33 0 53.5 -17t20.5 -45zM610 333l16 -20l-63 -283q-113 -40 -228 -40q-143 0 -215.5 65t-72.5 189q0 118 60 223t165.5 169t230.5 64q110 0 185 -40l-63 -155q-65 50 -144 50 q-106 0 -172.5 -85t-66.5 -194q0 -146 140 -146q20 0 31 1q19 90 26 192z" />
<glyph unicode="&#x121;" horiz-adv-x="533" d="M461 696q0 -50 -43.5 -91t-96.5 -41q-36 0 -57.5 20.5t-21.5 51.5q0 47 44 87.5t99 40.5q35 0 55.5 -18.5t20.5 -49.5zM154 -260q-104 0 -166 35.5t-62 88.5q0 39 35.5 68t92.5 45l34 -31q-2 -16 -2 -24q0 -46 27.5 -74t74.5 -28q36 0 61 16t25 40q0 15 -13.5 29.5 t-26 21.5t-41.5 21l-12 6q-43 21 -64.5 39.5t-21.5 44.5q0 42 48.5 68.5t94.5 26.5v3q-19 0 -30 1q-71 6 -116.5 49t-45.5 115q0 97 79 153t183 56q112 0 156 2t87 11q16 -15 16 -38q0 -24 -14.5 -44.5t-46.5 -20.5q-15 0 -29.5 4.5t-32.5 13t-27 11.5l-1 -3q77 -41 77 -122 q0 -47 -24 -84.5t-57.5 -59.5t-67.5 -38t-58 -28.5t-24 -23.5q0 -13 54 -39q77 -39 104 -68q34 -35 34 -78q0 -72 -87 -118.5t-213 -46.5zM326 358q0 67 -35 67q-32 0 -55 -48t-23 -99q0 -74 40 -74q32 0 52.5 49t20.5 105z" />
<glyph unicode="&#x122;" horiz-adv-x="668" d="M610 333l16 -20l-63 -283q-113 -40 -228 -40q-143 0 -215.5 65t-72.5 189q0 118 60 223t165.5 169t230.5 64q110 0 185 -40l-63 -155q-65 50 -144 50q-106 0 -172.5 -85t-66.5 -194q0 -146 140 -146q20 0 31 1q19 90 26 192zM191 -325q55 48 81 95q-25 5 -38 26t-7 50 q7 35 38.5 61t69.5 26q35 0 54.5 -24.5t10.5 -70.5q-21 -100 -167 -208z" />
<glyph unicode="&#x123;" horiz-adv-x="533" d="M524 829q-55 -48 -81 -95q25 -5 38 -26t7 -50q-7 -35 -38.5 -61t-69.5 -26q-35 0 -54.5 24.5t-10.5 70.5q21 100 167 208zM154 -260q-104 0 -166 35.5t-62 88.5q0 39 35.5 68t92.5 45l34 -31q-2 -16 -2 -24q0 -46 27.5 -74t74.5 -28q36 0 61 16t25 40q0 15 -13.5 29.5 t-26 21.5t-41.5 21l-12 6q-43 21 -64.5 39.5t-21.5 44.5q0 42 48.5 68.5t94.5 26.5v3q-19 0 -30 1q-71 6 -116.5 49t-45.5 115q0 97 79 153t183 56q112 0 156 2t87 11q16 -15 16 -38q0 -24 -14.5 -44.5t-46.5 -20.5q-15 0 -29.5 4.5t-32.5 13t-27 11.5l-1 -3q77 -41 77 -122 q0 -47 -24 -84.5t-57.5 -59.5t-67.5 -38t-58 -28.5t-24 -23.5q0 -13 54 -39q77 -39 104 -68q34 -35 34 -78q0 -72 -87 -118.5t-213 -46.5zM326 358q0 67 -35 67q-32 0 -55 -48t-23 -99q0 -74 40 -74q32 0 52.5 49t20.5 105z" />
<glyph unicode="&#x124;" horiz-adv-x="736" d="M342 772l-38 40q65 49 148 121l119 10q47 -75 94 -131l-56 -40q-36 13 -120 60q-105 -47 -147 -60zM213 0h-185l107 503q24 118 29 187l177 10l16 -20l-58 -273h216l20 96q24 118 29 187l177 10l16 -20l-144 -680h-185l59 277h-215z" />
<glyph unicode="&#x125;" horiz-adv-x="591" d="M115 817l-38 40q65 49 148 121l119 10q47 -75 94 -131l-56 -40q-36 13 -120 60q-105 -47 -147 -60zM208 0h-180q0 96 61 380l49 229l8 141l189 10q0 -102 -63 -374h3q38 62 88 93t99 31q46 0 71.5 -27.5t25.5 -77.5q0 -33 -48 -254q-13 -59 -13 -151h-180q0 83 36 257 q11 54 11 68q0 35 -24 35q-31 0 -61.5 -53t-50.5 -137t-21 -170z" />
<glyph unicode="&#x126;" horiz-adv-x="736" d="M213 0h-185l104 490h-65l19 90h64q12 82 14 110l177 10l16 -20l-21 -100h214q12 82 14 110l177 10l16 -20l-21 -100h70l-19 -90h-70l-104 -490h-185l59 277h-215zM299 407h216l17 83h-215z" />
<glyph unicode="&#x127;" horiz-adv-x="591" d="M208 0h-180q0 96 61 380l39 182h-55l19 90h48l6 98l189 10q0 -50 -9 -108h152l-19 -90h-148q-11 -56 -39 -176h3q38 62 88 93t99 31q46 0 71.5 -27.5t25.5 -77.5q0 -33 -48 -254q-13 -59 -13 -151h-180q0 83 36 257q11 54 11 68q0 35 -24 35q-31 0 -61.5 -53t-50.5 -137 t-21 -170z" />
<glyph unicode="&#x128;" horiz-adv-x="336" d="M246 943q35 0 77.5 -28.5t66.5 -28.5q19 0 32.5 9.5t33.5 33.5l43 -7q-13 -62 -49.5 -106.5t-88.5 -44.5q-32 0 -80.5 28.5t-69.5 28.5q-31 0 -64 -43l-43 7q13 62 49 106.5t93 44.5zM213 0h-185l107 503q24 118 29 187l177 10l16 -20z" />
<glyph unicode="&#x129;" horiz-adv-x="301" d="M184 763q28 0 65 -28.5t52 -28.5q27 0 51 43l43 -7q-15 -70 -47 -120.5t-79 -50.5q-27 0 -68 28.5t-49 28.5q-27 0 -51 -43l-43 7q15 70 47.5 120.5t78.5 50.5zM208 0h-180q0 96 37 267l20 92l8 141l189 10q0 -64 -37 -245t-37 -265z" />
<glyph unicode="&#x12a;" horiz-adv-x="336" d="M142 809l20 96h298l-20 -96h-298zM213 0h-185l107 503q24 118 29 187l177 10l16 -20z" />
<glyph unicode="&#x12b;" horiz-adv-x="301" d="M80 618l18 96h268l-18 -96h-268zM208 0h-180q0 96 37 267l20 92l8 141l189 10q0 -64 -37 -245t-37 -265z" />
<glyph unicode="&#x12c;" horiz-adv-x="336" d="M391 933l71 9q-20 -74 -73.5 -120.5t-125.5 -46.5q-64 0 -97 40.5t-23 108.5l72 10q3 -22 24.5 -35.5t53.5 -13.5t59 13.5t39 34.5zM213 0h-185l107 503q24 118 29 187l177 10l16 -20z" />
<glyph unicode="&#x12d;" horiz-adv-x="301" d="M299 753l71 9q-21 -86 -72.5 -141.5t-114.5 -55.5q-56 0 -83 49t-13 130l72 10q-4 -37 10 -58t43 -21t53.5 22.5t33.5 55.5zM208 0h-180q0 96 37 267l20 92l8 141l189 10q0 -64 -37 -245t-37 -265z" />
<glyph unicode="&#x12e;" horiz-adv-x="336" d="M213 0q-49 -27 -78.5 -63.5t-29.5 -67.5t35 -31q26 0 57 13l12 -59q-77 -58 -157 -58q-45 0 -72.5 23t-27.5 63q0 49 41 98t109 82h-74l107 503q24 118 29 187l177 10l16 -20z" />
<glyph unicode="&#x12f;" horiz-adv-x="301" d="M335 696q0 -50 -43.5 -91t-96.5 -41q-36 0 -57.5 20.5t-21.5 51.5q0 47 44 87.5t99 40.5q35 0 55.5 -18.5t20.5 -49.5zM208 0q-44 -34 -69.5 -70t-25.5 -63q0 -29 35 -29q26 0 57 13l12 -59q-77 -58 -157 -58q-45 0 -72.5 22.5t-27.5 60.5q0 47 39 95.5t105 87.5h-76 q0 96 37 267l20 92l8 141l189 10q0 -64 -37 -245t-37 -265z" />
<glyph unicode="&#x130;" horiz-adv-x="336" d="M408 887q0 -47 -41.5 -84t-94.5 -37q-35 0 -56.5 18.5t-21.5 47.5q0 44 43.5 80.5t96.5 36.5q33 0 53.5 -17t20.5 -45zM213 0h-185l107 503q24 118 29 187l177 10l16 -20z" />
<glyph unicode="&#x131;" horiz-adv-x="301" d="M208 0h-180q0 96 37 267l20 92l8 141l189 10q0 -64 -37 -245t-37 -265z" />
<glyph unicode="&#x132;" horiz-adv-x="671" d="M213 0h-185l107 503q24 118 29 187l177 10l16 -20zM299 -202l-38 62q95 106 132 280l77 363q20 96 23 178l185 19l15 -19l-115 -541q-29 -135 -87 -209t-192 -133z" />
<glyph unicode="&#x133;" horiz-adv-x="589" d="M335 696q0 -50 -43.5 -91t-96.5 -41q-36 0 -57.5 20.5t-21.5 51.5q0 47 44 87.5t99 40.5q35 0 55.5 -18.5t20.5 -49.5zM620 696q0 -50 -43.5 -91t-96.5 -41q-36 0 -57.5 20.5t-21.5 51.5q0 47 44 87.5t99 40.5q35 0 55.5 -18.5t20.5 -49.5zM208 0h-180q0 96 37 267l20 92 l8 141l189 10q0 -64 -37 -245t-37 -265zM270 -260l-57 60q71 109 100 250l65 309l8 141l189 10q0 -24 -3.5 -57t-14 -86.5t-15 -79t-20 -99t-17.5 -80.5q-31 -148 -79 -229.5t-156 -138.5z" />
<glyph unicode="&#x134;" horiz-adv-x="335" d="M153 762l-38 40q65 49 148 121l119 10q47 -75 94 -131l-56 -40q-36 13 -120 60q-105 -47 -147 -60zM-37 -202l-38 62q95 106 132 280l77 363q20 96 23 178l185 19l15 -19l-115 -541q-29 -135 -87 -209t-192 -133z" />
<glyph unicode="&#x135;" horiz-adv-x="288" d="M109 561l-59 24q48 79 94 176l170 10q6 -119 17 -186l-69 -24q-31 39 -55 101q-56 -67 -98 -101zM-31 -260l-57 60q71 109 100 250l65 309l8 141l189 10q0 -24 -3.5 -57t-14 -86.5t-15 -79t-20 -99t-17.5 -80.5q-31 -148 -79 -229.5t-156 -138.5z" />
<glyph unicode="&#x136;" horiz-adv-x="670" d="M134 503q23 113 30 187l177 10l16 -20l-63 -297h60q121 185 203 317l173 -10l6 -19l-238 -308l119 -363l-215 -5q-43 121 -76 258h-60l-54 -253h-185zM151 -325q55 48 81 95q-25 5 -38 26t-7 50q7 35 38.5 61t69.5 26q35 0 54.5 -24.5t10.5 -70.5q-21 -100 -167 -208z " />
<glyph unicode="&#x137;" horiz-adv-x="586" d="M582 411q0 -54 -42 -103t-97 -79q58 -141 115 -229h-223q-42 93 -57 189q124 108 124 175q0 31 -26 31q-34 0 -72.5 -57.5t-66 -151t-29.5 -186.5h-180q0 96 61 380l49 229l8 141l189 10q0 -93 -64 -379h3q80 129 197 129q52 0 81.5 -27.5t29.5 -71.5zM111 -325 q55 48 81 95q-25 5 -38 26t-7 50q7 35 38.5 61t69.5 26q35 0 54.5 -24.5t10.5 -70.5q-21 -100 -167 -208z" />
<glyph unicode="&#x138;" horiz-adv-x="586" d="M335 0q-53 95 -78 194q-49 -86 -49 -194h-180q0 96 37 267l20 92l8 141l189 10q0 -64 -41 -263h4q59 132 122 197.5t134 65.5q40 0 77 -10.5t54 -24.5l-105 -168q-45 22 -87 22q-24 0 -48 -10q81 -191 166 -319h-223z" />
<glyph unicode="&#x139;" horiz-adv-x="531" d="M559 863l-16 -29q-141 -61 -310 -63l-3 41q135 70 241 142zM502 140l-29 -140h-445l107 503q24 118 29 187l177 10l16 -20l-116 -550z" />
<glyph unicode="&#x13a;" horiz-adv-x="298" d="M445 911l-16 -29q-141 -61 -310 -63l-3 41q135 70 241 142zM208 0h-180q0 96 61 380l49 229l8 141l189 10q0 -93 -63.5 -378t-63.5 -382z" />
<glyph unicode="&#x13b;" horiz-adv-x="531" d="M502 140l-29 -140h-445l107 503q24 118 29 187l177 10l16 -20l-116 -550zM84 -325q55 48 81 95q-25 5 -38 26t-7 50q7 35 38.5 61t69.5 26q35 0 54.5 -24.5t10.5 -70.5q-21 -100 -167 -208z" />
<glyph unicode="&#x13c;" horiz-adv-x="298" d="M208 0h-180q0 96 61 380l49 229l8 141l189 10q0 -93 -63.5 -378t-63.5 -382zM-24 -325q55 48 81 95q-25 5 -38 26t-7 50q7 35 38.5 61t69.5 26q35 0 54.5 -24.5t10.5 -70.5q-21 -100 -167 -208z" />
<glyph unicode="&#x13d;" horiz-adv-x="531" d="M638 786l4 -30q-66 -103 -165 -210h-59q48 133 83 240h137zM502 140l-29 -140h-445l107 503q24 118 29 187l177 10l16 -20l-116 -550z" />
<glyph unicode="&#x13e;" horiz-adv-x="298" d="M598 786l4 -30q-66 -103 -165 -210h-59q48 133 83 240h137zM208 0h-180q0 96 61 380l49 229l8 141l189 10q0 -93 -63.5 -378t-63.5 -382z" />
<glyph unicode="&#x13f;" horiz-adv-x="600" d="M502 140l-29 -140h-445l107 503q24 118 29 187l177 10l16 -20l-116 -550zM589 411q0 -51 -43 -92.5t-97 -41.5q-37 0 -58 20t-21 51q0 50 45 91t99 41q34 0 54.5 -19t20.5 -50z" />
<glyph unicode="&#x140;" horiz-adv-x="520" d="M208 0h-180q0 96 61 380l49 229l8 141l189 10q0 -93 -63.5 -378t-63.5 -382zM503 355q0 -51 -43 -92.5t-97 -41.5q-37 0 -58 20t-21 51q0 50 45 91t99 41q34 0 54.5 -19t20.5 -50z" />
<glyph unicode="&#x141;" horiz-adv-x="531" d="M502 140l-29 -140h-445l53 247l-90 -44l-24 74l134 66l34 160q24 118 29 187l177 10l16 -20l-50 -234l106 52l25 -74l-151 -75l-46 -219z" />
<glyph unicode="&#x142;" horiz-adv-x="298" d="M208 0h-180q0 89 50 328l-101 -50l-24 74l145 72l40 185l8 141l189 10q0 -75 -32 -235l96 48l25 -74l-142 -70q-3 -13 -11.5 -52t-12 -54.5t-11 -50.5t-11 -52.5t-9 -47.5t-8 -49t-6 -43t-4.5 -43.5t-1 -36.5z" />
<glyph unicode="&#x143;" horiz-adv-x="731" d="M652 863l-16 -29q-141 -61 -310 -63l-3 41q135 70 241 142zM441 441q34 -98 53 -208h3q9 107 31 213q29 137 41 244l167 8l16 -20l-144 -678h-175q-21 55 -50 139t-41 114q-37 104 -57 196h-3q-5 -96 -28 -206l-51 -243h-175l108 511q22 103 28 179l187 7 q58 -170 90 -256z" />
<glyph unicode="&#x144;" horiz-adv-x="591" d="M491 766l4 -30q-79 -95 -192 -170l-68 10q66 119 98 198zM208 0h-180q0 108 57 359l8 141l189 10q0 -32 -10 -124h3q37 63 86.5 93.5t98.5 30.5q47 0 73 -27t26 -71q0 -36 -36 -204q-25 -118 -25 -208h-180q0 77 26 207q21 105 21 120q0 33 -24 33q-31 0 -61.5 -53 t-50.5 -137t-21 -170z" />
<glyph unicode="&#x145;" horiz-adv-x="731" d="M441 441q34 -98 53 -208h3q9 107 31 213q29 137 41 244l167 8l16 -20l-144 -678h-175q-21 55 -50 139t-41 114q-37 104 -57 196h-3q-5 -96 -28 -206l-51 -243h-175l108 511q22 103 28 179l187 7q58 -170 90 -256zM167 -325q55 48 81 95q-25 5 -38 26t-7 50q7 35 38.5 61 t69.5 26q35 0 54.5 -24.5t10.5 -70.5q-21 -100 -167 -208z" />
<glyph unicode="&#x146;" horiz-adv-x="591" d="M208 0h-180q0 108 57 359l8 141l189 10q0 -32 -10 -124h3q37 63 86.5 93.5t98.5 30.5q47 0 73 -27t26 -71q0 -36 -36 -204q-25 -118 -25 -208h-180q0 77 26 207q21 105 21 120q0 33 -24 33q-31 0 -61.5 -53t-50.5 -137t-21 -170zM114 -325q55 48 81 95q-25 5 -38 26 t-7 50q7 35 38.5 61t69.5 26q35 0 54.5 -24.5t10.5 -70.5q-21 -100 -167 -208z" />
<glyph unicode="&#x147;" horiz-adv-x="731" d="M630 947l38 -40q-65 -49 -148 -121l-119 -10q-47 75 -94 131l56 40q36 -13 120 -60q105 47 147 60zM441 441q34 -98 53 -208h3q9 107 31 213q29 137 41 244l167 8l16 -20l-144 -678h-175q-21 55 -50 139t-41 114q-37 104 -57 196h-3q-5 -96 -28 -206l-51 -243h-175 l108 511q22 103 28 179l187 7q58 -170 90 -256z" />
<glyph unicode="&#x148;" horiz-adv-x="591" d="M512 784l48 -40q-80 -82 -150 -164l-119 -10q-44 110 -78 174l66 40q33 -24 96 -93q88 67 137 93zM208 0h-180q0 108 57 359l8 141l189 10q0 -32 -10 -124h3q37 63 86.5 93.5t98.5 30.5q47 0 73 -27t26 -71q0 -36 -36 -204q-25 -118 -25 -208h-180q0 77 26 207 q21 105 21 120q0 33 -24 33q-31 0 -61.5 -53t-50.5 -137t-21 -170z" />
<glyph unicode="&#x149;" horiz-adv-x="801" d="M71 419q79 71 114 140q-26 5 -41.5 24t-15.5 47q0 49 41.5 89.5t91.5 40.5q36 0 58.5 -20t22.5 -58q0 -74 -73 -162.5t-157 -147.5zM418 0h-180q0 108 57 359l8 141l189 10q0 -32 -10 -124h3q37 63 86.5 93.5t98.5 30.5q47 0 73 -27t26 -71q0 -36 -36 -204 q-25 -118 -25 -208h-180q0 77 26 207q21 105 21 120q0 33 -24 33q-31 0 -61.5 -53t-50.5 -137t-21 -170z" />
<glyph unicode="&#x14a;" horiz-adv-x="730" d="M358 -202l-38 62q43 44 66.5 78.5t37.5 81.5q-17 46 -44 123.5t-39 109.5q-37 98 -57 182h-3q-5 -91 -27 -192l-52 -243h-175l109 511q21 103 28 179l186 7q51 -148 90 -256q35 -96 54 -195h3q10 105 30 201q28 131 42 243l166 8l16 -20l-114 -538q-30 -135 -87.5 -209 t-191.5 -133z" />
<glyph unicode="&#x14b;" horiz-adv-x="586" d="M208 0h-180q0 108 57 359l8 141l189 10q0 -32 -10 -124h3q37 63 86.5 93.5t98.5 30.5q60 0 84.5 -43t8.5 -117l-42 -199q-37 -182 -85 -263t-156 -138l-57 60q71 109 100 250l31 149q3 13 8.5 41t7.5 37q15 73 -19 73q-31 0 -61.5 -53t-50.5 -137t-21 -170z" />
<glyph unicode="&#x14c;" horiz-adv-x="705" d="M312 809l20 96h298l-20 -96h-298zM695 437q0 -114 -50 -215.5t-143.5 -166.5t-207.5 -65q-116 0 -180 68t-64 195q0 114 49.5 216t142 166.5t206.5 64.5q117 0 182 -68.5t65 -194.5zM240 250q0 -125 83 -125q56 0 99 52.5t63 123t20 139.5q0 125 -83 125q-56 0 -99 -52.5 t-63 -123t-20 -139.5z" />
<glyph unicode="&#x14d;" horiz-adv-x="571" d="M202 618l20 96h298l-20 -96h-298zM543 316q0 -131 -92.5 -228.5t-225.5 -97.5q-88 0 -141 48t-53 142q0 129 93.5 229.5t226.5 100.5q90 0 141 -50.5t51 -143.5zM216 161q0 -71 37 -71q47 0 76 86t29 164q0 70 -37 70q-33 0 -58 -45.5t-36 -100.5t-11 -103z" />
<glyph unicode="&#x14e;" horiz-adv-x="705" d="M561 933l71 9q-20 -74 -73.5 -120.5t-125.5 -46.5q-64 0 -97 40.5t-23 108.5l72 10q3 -22 24.5 -35.5t53.5 -13.5t59 13.5t39 34.5zM695 437q0 -114 -50 -215.5t-143.5 -166.5t-207.5 -65q-116 0 -180 68t-64 195q0 114 49.5 216t142 166.5t206.5 64.5q117 0 182 -68.5 t65 -194.5zM240 250q0 -125 83 -125q56 0 99 52.5t63 123t20 139.5q0 125 -83 125q-56 0 -99 -52.5t-63 -123t-20 -139.5z" />
<glyph unicode="&#x14f;" horiz-adv-x="571" d="M476 765l71 9q-22 -87 -78 -142t-127 -55q-64 0 -95.5 49t-18.5 130l72 10q0 -36 19.5 -57.5t51.5 -21.5q33 0 62 22t43 56zM543 316q0 -131 -92.5 -228.5t-225.5 -97.5q-88 0 -141 48t-53 142q0 129 93.5 229.5t226.5 100.5q90 0 141 -50.5t51 -143.5zM216 161 q0 -71 37 -71q47 0 76 86t29 164q0 70 -37 70q-33 0 -58 -45.5t-36 -100.5t-11 -103z" />
<glyph unicode="&#x150;" horiz-adv-x="705" d="M479 866l-16 -29q-114 -64 -253 -66l-3 41q125 76 209 142zM739 866l-16 -29q-114 -64 -253 -66l-3 41q125 76 209 142zM695 437q0 -114 -50 -215.5t-143.5 -166.5t-207.5 -65q-116 0 -180 68t-64 195q0 114 49.5 216t142 166.5t206.5 64.5q117 0 182 -68.5t65 -194.5z M240 250q0 -125 83 -125q56 0 99 52.5t63 123t20 139.5q0 125 -83 125q-56 0 -99 -52.5t-63 -123t-20 -139.5z" />
<glyph unicode="&#x151;" horiz-adv-x="571" d="M402 766l4 -30q-71 -98 -160 -170l-68 10q66 119 98 198zM595 766l4 -30q-71 -98 -160 -170l-68 10q66 119 98 198zM543 316q0 -131 -92.5 -228.5t-225.5 -97.5q-88 0 -141 48t-53 142q0 129 93.5 229.5t226.5 100.5q90 0 141 -50.5t51 -143.5zM216 161q0 -71 37 -71 q47 0 76 86t29 164q0 70 -37 70q-33 0 -58 -45.5t-36 -100.5t-11 -103z" />
<glyph unicode="&#x152;" horiz-adv-x="971" d="M688 453q0 -27 -3 -54l224 5l-32 -127l-217 7q-30 -87 -85 -152l338 8l-30 -140h-516q-39 -10 -83 -10q-110 0 -173.5 64t-63.5 179q0 124 55.5 232t149 171.5t201.5 63.5q45 0 79 -10h472l16 -20l-30 -120l-318 8q16 -45 16 -105zM240 248q0 -123 83 -123 q69 0 122.5 99.5t53.5 227.5q0 113 -81 113q-70 0 -124 -96t-54 -221z" />
<glyph unicode="&#x153;" horiz-adv-x="827" d="M737 143l19 -73q-93 -80 -220 -80q-92 0 -145 51q-75 -51 -166 -51q-88 0 -141 48t-53 142q0 129 93.5 229.5t226.5 100.5q89 0 139 -54q78 54 172 54q77 0 123 -36t46 -95q0 -77 -80.5 -125t-224.5 -59v-1q0 -89 86 -89q57 0 125 38zM637 415q-39 0 -66.5 -52.5 t-39.5 -118.5q65 15 101 47.5t36 81.5q0 42 -31 42zM216 161q0 -71 37 -71q47 0 76 86t29 164q0 70 -37 70q-33 0 -58 -45.5t-36 -100.5t-11 -103z" />
<glyph unicode="&#x154;" horiz-adv-x="650" d="M618 863l-16 -29q-141 -61 -310 -63l-3 41q135 70 241 142zM212 0h-185l109 511q24 109 28 179h234q249 0 249 -176q0 -74 -42 -137t-119 -97l91 -280l-214 -11q-30 111 -47 238h-56zM362 565h-30l-46 -218h24q69 0 107.5 39t38.5 99q0 41 -21.5 60.5t-72.5 19.5z" />
<glyph unicode="&#x155;" horiz-adv-x="430" d="M433 766l4 -30q-79 -95 -192 -170l-68 10q66 119 98 198zM208 0h-180q0 96 37 267l20 92l8 141l189 10q0 -57 -24 -181h3q32 96 71.5 138.5t78.5 42.5q22 0 42 -11t29 -26l-85 -166q-30 11 -58 11q-63 0 -93.5 -79.5t-37.5 -238.5z" />
<glyph unicode="&#x156;" horiz-adv-x="650" d="M212 0h-185l109 511q24 109 28 179h234q249 0 249 -176q0 -74 -42 -137t-119 -97l91 -280l-214 -11q-30 111 -47 238h-56zM362 565h-30l-46 -218h24q69 0 107.5 39t38.5 99q0 41 -21.5 60.5t-72.5 19.5zM120 -325q55 48 81 95q-25 5 -38 26t-7 50q7 35 38.5 61t69.5 26 q35 0 54.5 -24.5t10.5 -70.5q-21 -100 -167 -208z" />
<glyph unicode="&#x157;" horiz-adv-x="430" d="M208 0h-180q0 96 37 267l20 92l8 141l189 10q0 -57 -24 -181h3q32 96 71.5 138.5t78.5 42.5q22 0 42 -11t29 -26l-85 -166q-30 11 -58 11q-63 0 -93.5 -79.5t-37.5 -238.5zM-32 -325q55 48 81 95q-25 5 -38 26t-7 50q7 35 38.5 61t69.5 26q35 0 54.5 -24.5t10.5 -70.5 q-21 -100 -167 -208z" />
<glyph unicode="&#x158;" horiz-adv-x="650" d="M596 947l38 -40q-65 -49 -148 -121l-119 -10q-47 75 -94 131l56 40q36 -13 120 -60q105 47 147 60zM212 0h-185l109 511q24 109 28 179h234q249 0 249 -176q0 -74 -42 -137t-119 -97l91 -280l-214 -11q-30 111 -47 238h-56zM362 565h-30l-46 -218h24q69 0 107.5 39 t38.5 99q0 41 -21.5 60.5t-72.5 19.5z" />
<glyph unicode="&#x159;" horiz-adv-x="430" d="M454 784l48 -40q-80 -82 -150 -164l-119 -10q-44 110 -78 174l66 40q33 -24 96 -93q88 67 137 93zM208 0h-180q0 96 37 267l20 92l8 141l189 10q0 -57 -24 -181h3q32 96 71.5 138.5t78.5 42.5q22 0 42 -11t29 -26l-85 -166q-30 11 -58 11q-63 0 -93.5 -79.5t-37.5 -238.5 z" />
<glyph unicode="&#x15a;" horiz-adv-x="559" d="M573 863l-16 -29q-141 -61 -310 -63l-3 41q135 70 241 142zM508 219q0 -99 -88.5 -164t-228.5 -65q-58 0 -114.5 11t-79.5 28l42 151q31 -21 86 -35.5t95 -14.5q43 0 67.5 18t24.5 48q0 16 -6.5 30t-22 26.5t-26 19.5t-33.5 20t-30 17q-103 61 -103 159q0 101 93 166.5 t236 65.5q100 0 159 -25l-53 -155q-64 40 -139 40q-45 0 -72.5 -19t-27.5 -50q0 -14 5.5 -26t19 -23t24.5 -18.5t32.5 -19.5t33.5 -20q48 -31 77 -69t29 -96z" />
<glyph unicode="&#x15b;" horiz-adv-x="447" d="M429 766l4 -30q-79 -95 -192 -170l-68 10q66 119 98 198zM449 485l-38 -132q-70 42 -133 42q-25 0 -41.5 -10t-16.5 -26t18 -29.5t44 -25.5t52 -27t44 -43t18 -65q0 -79 -73.5 -129t-176.5 -50q-47 0 -93 10.5t-70 28.5l37 129q36 -24 79.5 -38.5t74.5 -14.5 q26 0 40.5 10t14.5 26t-18 29.5t-44 25.5t-52 28t-44 43t-18 63q0 78 75 129t177 51q78 0 144 -25z" />
<glyph unicode="&#x15c;" horiz-adv-x="559" d="M265 772l-38 40q65 49 148 121l119 10q47 -75 94 -131l-56 -40q-36 13 -120 60q-105 -47 -147 -60zM508 219q0 -99 -88.5 -164t-228.5 -65q-58 0 -114.5 11t-79.5 28l42 151q31 -21 86 -35.5t95 -14.5q43 0 67.5 18t24.5 48q0 16 -6.5 30t-22 26.5t-26 19.5t-33.5 20 t-30 17q-103 61 -103 159q0 101 93 166.5t236 65.5q100 0 159 -25l-53 -155q-64 40 -139 40q-45 0 -72.5 -19t-27.5 -50q0 -14 5.5 -26t19 -23t24.5 -18.5t32.5 -19.5t33.5 -20q48 -31 77 -69t29 -96z" />
<glyph unicode="&#x15d;" horiz-adv-x="447" d="M175 552l-48 40q80 82 150 164l119 10q44 -110 78 -174l-66 -40q-33 24 -96 93q-88 -67 -137 -93zM449 485l-38 -132q-70 42 -133 42q-25 0 -41.5 -10t-16.5 -26t18 -29.5t44 -25.5t52 -27t44 -43t18 -65q0 -79 -73.5 -129t-176.5 -50q-47 0 -93 10.5t-70 28.5l37 129 q36 -24 79.5 -38.5t74.5 -14.5q26 0 40.5 10t14.5 26t-18 29.5t-44 25.5t-52 28t-44 43t-18 63q0 78 75 129t177 51q78 0 144 -25z" />
<glyph unicode="&#x15e;" horiz-adv-x="559" d="M334 -125q0 -63 -69.5 -99t-191.5 -36l18 60q53 3 85 19.5t32 40.5q0 30 -69 30l-13 30l36 71q-52 2 -98.5 12.5t-66.5 25.5l42 151q31 -21 86 -35.5t95 -14.5q43 0 67.5 18t24.5 48q0 16 -6.5 30t-22 26.5t-26 19.5t-33.5 20t-30 17q-103 61 -103 159q0 101 93 166.5 t236 65.5q100 0 159 -25l-53 -155q-64 40 -139 40q-45 0 -72.5 -19t-27.5 -50q0 -14 5.5 -26t19 -23t24.5 -18.5t32.5 -19.5t33.5 -20q48 -31 77 -69t29 -96q0 -87 -69 -149t-184 -76l-23 -43q102 -14 102 -76z" />
<glyph unicode="&#x15f;" horiz-adv-x="447" d="M275 -125q0 -63 -69.5 -99t-191.5 -36l18 60q53 3 85 19.5t32 40.5q0 30 -69 30l-13 30l36 72q-83 9 -120 37l37 129q36 -24 79.5 -38.5t74.5 -14.5q26 0 40.5 10t14.5 26t-18 29.5t-44 25.5t-52 28t-44 43t-18 63q0 78 75 129t177 51q78 0 144 -25l-38 -132 q-70 42 -133 42q-25 0 -41.5 -10t-16.5 -26t18 -29.5t44 -25.5t52 -27t44 -43t18 -65q0 -69 -57 -116.5t-144 -59.5l-22 -42q102 -14 102 -76z" />
<glyph unicode="&#x160;" horiz-adv-x="559" d="M551 947l38 -40q-65 -49 -148 -121l-119 -10q-47 75 -94 131l56 40q36 -13 120 -60q105 47 147 60zM508 219q0 -99 -88.5 -164t-228.5 -65q-58 0 -114.5 11t-79.5 28l42 151q31 -21 86 -35.5t95 -14.5q43 0 67.5 18t24.5 48q0 16 -6.5 30t-22 26.5t-26 19.5t-33.5 20 t-30 17q-103 61 -103 159q0 101 93 166.5t236 65.5q100 0 159 -25l-53 -155q-64 40 -139 40q-45 0 -72.5 -19t-27.5 -50q0 -14 5.5 -26t19 -23t24.5 -18.5t32.5 -19.5t33.5 -20q48 -31 77 -69t29 -96z" />
<glyph unicode="&#x161;" horiz-adv-x="447" d="M450 784l48 -40q-80 -82 -150 -164l-119 -10q-44 110 -78 174l66 40q33 -24 96 -93q88 67 137 93zM449 485l-38 -132q-70 42 -133 42q-25 0 -41.5 -10t-16.5 -26t18 -29.5t44 -25.5t52 -27t44 -43t18 -65q0 -79 -73.5 -129t-176.5 -50q-47 0 -93 10.5t-70 28.5l37 129 q36 -24 79.5 -38.5t74.5 -14.5q26 0 40.5 10t14.5 26t-18 29.5t-44 25.5t-52 28t-44 43t-18 63q0 78 75 129t177 51q78 0 144 -25z" />
<glyph unicode="&#x162;" horiz-adv-x="575" d="M327 0h-61l-26 -49q102 -14 102 -76q0 -63 -69.5 -99t-191.5 -36l18 60q53 3 85 19.5t32 40.5q0 30 -69 30l-13 30l40 80h-32l117 554q-63 -2 -191 -8l40 144h545l-20 -144q-126 6 -189 8z" />
<glyph unicode="&#x163;" horiz-adv-x="400" d="M282 -125q0 -63 -69.5 -99t-191.5 -36l18 60q53 3 85 19.5t32 40.5q0 30 -69 30l-13 30l41 82q-74 29 -74 127q0 8 0.5 15.5t1.5 15t3.5 21t4.5 25.5t7.5 36t9.5 44.5t12.5 59t15.5 72.5l-65 2l13 60l74 20l73 131l112 8l18 -21l-28 -118h137l8 -20l-23 -70l-140 4 q-51 -242 -51 -253q0 -46 50 -46q36 0 82 24l-13 -108q-68 -37 -142 -41l-21 -39q102 -14 102 -76z" />
<glyph unicode="&#x164;" horiz-adv-x="575" d="M559 947l38 -40q-65 -49 -148 -121l-119 -10q-47 75 -94 131l56 40q36 -13 120 -60q105 47 147 60zM327 0h-185l117 554q-63 -2 -191 -8l40 144h545l-20 -144q-126 6 -189 8z" />
<glyph unicode="&#x165;" horiz-adv-x="400" d="M565 786l4 -30q-66 -103 -165 -210h-59q48 133 83 240h137zM415 410l-140 4q-51 -242 -51 -253q0 -46 50 -46q36 0 82 24l-13 -108q-74 -41 -157 -41q-145 0 -145 139q0 8 0.5 15.5t1.5 15t3.5 21t4.5 25.5t7.5 36t9.5 44.5t12.5 59t15.5 72.5l-65 2l13 60l74 20l73 131 l112 8l18 -21l-28 -118h137l8 -20z" />
<glyph unicode="&#x166;" horiz-adv-x="575" d="M327 0h-185l63 300h-100l19 90h101l34 164q-63 -2 -191 -8l40 144h545l-20 -144q-126 6 -189 8l-34 -164h100l-19 -90h-101z" />
<glyph unicode="&#x167;" horiz-adv-x="400" d="M381 248h-141q-16 -73 -16 -87q0 -46 50 -46q36 0 82 24l-13 -108q-74 -41 -157 -41q-145 0 -145 139q0 29 19 119h-65l19 90h65q2 11 8 37.5t9 42.5l-65 2l13 60l74 20l73 131l112 8l18 -21l-28 -118h137l8 -20l-23 -70l-140 4q-13 -62 -16 -76h141z" />
<glyph unicode="&#x168;" horiz-adv-x="711" d="M432 943q35 0 77.5 -28.5t66.5 -28.5q19 0 32.5 9.5t33.5 33.5l43 -7q-13 -62 -49.5 -106.5t-88.5 -44.5q-32 0 -80.5 28.5t-69.5 28.5q-31 0 -64 -43l-43 7q13 62 49 106.5t93 44.5zM67 170q0 48 41.5 233.5t50.5 286.5l177 10l16 -20q-23 -109 -54 -252 q-29 -134 -35 -165.5t-6 -48.5q0 -85 84 -85q103 0 131 127q55 257 67.5 322.5t14.5 111.5l187 8l-97 -458q-25 -119 -120.5 -184.5t-219.5 -65.5q-107 0 -172 48t-65 132z" />
<glyph unicode="&#x169;" horiz-adv-x="577" d="M297 762q36 0 80.5 -28.5t67.5 -28.5q18 0 31 10t30 33l48 -7q-15 -70 -52.5 -120.5t-89.5 -50.5q-32 0 -83.5 28.5t-70.5 28.5q-28 0 -59 -43l-47 7q15 71 51.5 121t93.5 50zM36 150l44 209l8 141l189 10q0 -41 -8.5 -93.5t-22 -115.5t-17.5 -88q-12 -73 18 -73 q31 0 59.5 56t46.5 142q11 65 15 105q3 29 3 57l190 10q-8 -77 -64 -359q-13 -62 -13 -151h-180q0 64 7 114h-3q-36 -64 -84 -94t-96 -30q-60 0 -83.5 44t-8.5 116z" />
<glyph unicode="&#x16a;" horiz-adv-x="711" d="M328 809l20 96h298l-20 -96h-298zM67 170q0 48 41.5 233.5t50.5 286.5l177 10l16 -20q-23 -109 -54 -252q-29 -134 -35 -165.5t-6 -48.5q0 -85 84 -85q103 0 131 127q55 257 67.5 322.5t14.5 111.5l187 8l-97 -458q-25 -119 -120.5 -184.5t-219.5 -65.5q-107 0 -172 48 t-65 132z" />
<glyph unicode="&#x16b;" horiz-adv-x="577" d="M185 618l20 96h298l-20 -96h-298zM36 150l44 209l8 141l189 10q0 -41 -8.5 -93.5t-22 -115.5t-17.5 -88q-12 -73 18 -73q31 0 59.5 56t46.5 142q11 65 15 105q3 29 3 57l190 10q-8 -77 -64 -359q-13 -62 -13 -151h-180q0 64 7 114h-3q-36 -64 -84 -94t-96 -30 q-60 0 -83.5 44t-8.5 116z" />
<glyph unicode="&#x16c;" horiz-adv-x="711" d="M577 933l71 9q-20 -74 -73.5 -120.5t-125.5 -46.5q-64 0 -97 40.5t-23 108.5l72 10q3 -22 24.5 -35.5t53.5 -13.5t59 13.5t39 34.5zM67 170q0 48 41.5 233.5t50.5 286.5l177 10l16 -20q-23 -109 -54 -252q-29 -134 -35 -165.5t-6 -48.5q0 -85 84 -85q103 0 131 127 q55 257 67.5 322.5t14.5 111.5l187 8l-97 -458q-25 -119 -120.5 -184.5t-219.5 -65.5q-107 0 -172 48t-65 132z" />
<glyph unicode="&#x16d;" horiz-adv-x="577" d="M459 765l71 9q-22 -87 -78 -142t-127 -55q-64 0 -95.5 49t-18.5 130l72 10q0 -36 19.5 -57.5t51.5 -21.5q33 0 62 22t43 56zM36 150l44 209l8 141l189 10q0 -41 -8.5 -93.5t-22 -115.5t-17.5 -88q-12 -73 18 -73q31 0 59.5 56t46.5 142q11 65 15 105q3 29 3 57l190 10 q-8 -77 -64 -359q-13 -62 -13 -151h-180q0 64 7 114h-3q-36 -64 -84 -94t-96 -30q-60 0 -83.5 44t-8.5 116z" />
<glyph unicode="&#x16e;" horiz-adv-x="711" d="M620 898q0 -56 -51 -101t-114 -45q-45 0 -71.5 23t-26.5 58q0 54 53.5 99t117.5 45q42 0 67 -21.5t25 -57.5zM430 847q0 -17 11 -28t31 -11q28 0 51.5 23.5t23.5 52.5q0 37 -37 37q-30 0 -55 -23t-25 -51zM67 170q0 48 41.5 233.5t50.5 286.5l177 10l16 -20 q-23 -109 -54 -252q-29 -134 -35 -165.5t-6 -48.5q0 -85 84 -85q103 0 131 127q55 257 67.5 322.5t14.5 111.5l187 8l-97 -458q-25 -119 -120.5 -184.5t-219.5 -65.5q-107 0 -172 48t-65 132z" />
<glyph unicode="&#x16f;" horiz-adv-x="577" d="M479 713q0 -56 -51 -101t-114 -45q-45 0 -71.5 23t-26.5 58q0 54 53.5 99t117.5 45q42 0 67 -21.5t25 -57.5zM289 662q0 -17 11 -28t31 -11q28 0 51.5 23.5t23.5 52.5q0 37 -37 37q-30 0 -55 -23t-25 -51zM36 150l44 209l8 141l189 10q0 -41 -8.5 -93.5t-22 -115.5 t-17.5 -88q-12 -73 18 -73q31 0 59.5 56t46.5 142q11 65 15 105q3 29 3 57l190 10q-8 -77 -64 -359q-13 -62 -13 -151h-180q0 64 7 114h-3q-36 -64 -84 -94t-96 -30q-60 0 -83.5 44t-8.5 116z" />
<glyph unicode="&#x170;" horiz-adv-x="711" d="M495 866l-16 -29q-114 -64 -253 -66l-3 41q125 76 209 142zM755 866l-16 -29q-114 -64 -253 -66l-3 41q125 76 209 142zM67 170q0 48 41.5 233.5t50.5 286.5l177 10l16 -20q-23 -109 -54 -252q-29 -134 -35 -165.5t-6 -48.5q0 -85 84 -85q103 0 131 127 q55 257 67.5 322.5t14.5 111.5l187 8l-97 -458q-25 -119 -120.5 -184.5t-219.5 -65.5q-107 0 -172 48t-65 132z" />
<glyph unicode="&#x171;" horiz-adv-x="577" d="M385 766l4 -30q-71 -98 -160 -170l-68 10q66 119 98 198zM578 766l4 -30q-71 -98 -160 -170l-68 10q66 119 98 198zM36 150l44 209l8 141l189 10q0 -41 -8.5 -93.5t-22 -115.5t-17.5 -88q-12 -73 18 -73q31 0 59.5 56t46.5 142q11 65 15 105q3 29 3 57l190 10 q-8 -77 -64 -359q-13 -62 -13 -151h-180q0 64 7 114h-3q-36 -64 -84 -94t-96 -30q-60 0 -83.5 44t-8.5 116z" />
<glyph unicode="&#x172;" horiz-adv-x="711" d="M67 170q0 48 41.5 233.5t50.5 286.5l177 10l16 -20q-23 -109 -54 -252q-29 -134 -35 -165.5t-6 -48.5q0 -85 84 -85q103 0 131 127q55 257 67.5 322.5t14.5 111.5l187 8l-97 -458q-29 -136 -150 -203q-154 -98 -154 -170q0 -29 35 -29q26 0 57 13l12 -59 q-77 -58 -157 -58q-45 0 -72.5 22.5t-27.5 60.5q0 89 138 174q-7 -1 -21 -1q-107 0 -172 48t-65 132z" />
<glyph unicode="&#x173;" horiz-adv-x="577" d="M36 150l44 209l8 141l189 10q0 -41 -8.5 -93.5t-22 -115.5t-17.5 -88q-12 -73 18 -73q31 0 59.5 56t46.5 142q11 65 15 105q3 29 3 57l190 10q-8 -77 -64 -359q-13 -62 -13 -151q-66 -28 -104 -64t-38 -69q0 -29 35 -29q26 0 57 13l12 -59q-77 -58 -157 -58 q-45 0 -72.5 22.5t-27.5 60.5q0 51 48 100.5t130 82.5h-63q0 64 7 114h-3q-36 -64 -84 -94t-96 -30q-60 0 -83.5 44t-8.5 116z" />
<glyph unicode="&#x174;" horiz-adv-x="965" d="M468 772l-38 40q65 49 148 121l119 10q47 -75 94 -131l-56 -40q-36 13 -120 60q-105 -47 -147 -60zM124 0l-27 681l202 19l-4 -344q0 -36 -3.5 -101.5t-3.5 -77.5q18 46 69 167l149 346l180 10l-1 -344q0 -33 -0.5 -96.5t-0.5 -82.5q33 93 66 171l147 352l146 -10l6 -19 l-313 -671h-205l-6 223q-1 39 0 112t1 105h-3q-51 -125 -95 -220l-99 -220h-205z" />
<glyph unicode="&#x175;" horiz-adv-x="868" d="M377 552l-48 40q80 82 150 164l119 10q44 -110 78 -174l-66 -40q-33 24 -96 93q-88 -67 -137 -93zM784 510q43 0 66 -12t23 -46q0 -64 -70.5 -204t-160.5 -248h-206q19 165 26 324h-3q-66 -176 -163 -324h-206q-6 315 -37 500l194 10q18 -181 -8 -400h3q50 94 86 199 t45 191h221q17 -171 -9 -390h3q47 94 82 201.5t44 190.5q34 8 70 8z" />
<glyph unicode="&#x176;" horiz-adv-x="589" d="M302 772l-38 40q65 49 148 121l119 10q47 -75 94 -131l-56 -40q-36 13 -120 60q-105 -47 -147 -60zM195 216l-98 465l202 19l21 -202q8 -81 12 -152h3q66 121 81 151l105 203l146 -10l6 -19l-293 -455l-46 -216h-185z" />
<glyph unicode="&#x177;" horiz-adv-x="522" d="M205 552l-48 40q80 82 150 164l119 10q44 -110 78 -174l-66 -40q-33 24 -96 93q-88 -67 -137 -93zM437 510q44 0 67 -11.5t23 -45.5q0 -35 -26 -102t-68 -146t-99.5 -161.5t-117 -150t-124 -110.5t-117.5 -43q-42 0 -66.5 25.5t-24.5 70.5q0 38 19 67q34 -10 77 -10 q67 0 126 27.5t87 79.5h-103q-6 315 -37 500l194 10q18 -181 -8 -400h3q47 94 82 201.5t44 190.5q34 8 69 8z" />
<glyph unicode="&#x178;" horiz-adv-x="589" d="M659 883q0 -41 -37 -73.5t-84 -32.5q-31 0 -49 16t-18 41q0 40 38 72.5t85 32.5q29 0 47 -15.5t18 -40.5zM418 883q0 -41 -37 -73.5t-84 -32.5q-31 0 -49 16t-18 41q0 40 38 72.5t85 32.5q29 0 47 -15.5t18 -40.5zM195 216l-98 465l202 19l21 -202q8 -81 12 -152h3 q66 121 81 151l105 203l146 -10l6 -19l-293 -455l-46 -216h-185z" />
<glyph unicode="&#x179;" horiz-adv-x="539" d="M563 863l-16 -29q-141 -61 -310 -63l-3 41q135 70 241 142zM-13 0l-5 120l389 418l-287 -8l44 160h447l22 -120l-385 -418l291 8l-44 -160h-472z" />
<glyph unicode="&#x17a;" horiz-adv-x="493" d="M451 766l4 -30q-79 -95 -192 -170l-68 10q66 119 98 198zM47 -10l-56 85q168 161 294 288q-35 7 -66 7q-86 0 -132 -56l-47 30q32 94 76 130t106 36q72 0 161 -47q8 8 23 23.5t22 23.5q23 0 43 -13t20 -44q0 -41 -59 -103.5t-234 -208.5q12 2 24 2q21 0 46 -5.5t38 -5.5 q70 0 107 68l57 -36q-29 -99 -71 -136.5t-109 -37.5q-41 0 -92 15.5t-68 15.5q-39 0 -83 -31z" />
<glyph unicode="&#x17b;" horiz-adv-x="539" d="M504 887q0 -47 -41.5 -84t-94.5 -37q-35 0 -56.5 18.5t-21.5 47.5q0 44 43.5 80.5t96.5 36.5q33 0 53.5 -17t20.5 -45zM-13 0l-5 120l389 418l-287 -8l44 160h447l22 -120l-385 -418l291 8l-44 -160h-472z" />
<glyph unicode="&#x17c;" horiz-adv-x="493" d="M433 696q0 -50 -43.5 -91t-96.5 -41q-36 0 -57.5 20.5t-21.5 51.5q0 47 44 87.5t99 40.5q35 0 55.5 -18.5t20.5 -49.5zM47 -10l-56 85q168 161 294 288q-35 7 -66 7q-86 0 -132 -56l-47 30q32 94 76 130t106 36q72 0 161 -47q8 8 23 23.5t22 23.5q23 0 43 -13t20 -44 q0 -41 -59 -103.5t-234 -208.5q12 2 24 2q21 0 46 -5.5t38 -5.5q70 0 107 68l57 -36q-29 -99 -71 -136.5t-109 -37.5q-41 0 -92 15.5t-68 15.5q-39 0 -83 -31z" />
<glyph unicode="&#x17d;" horiz-adv-x="539" d="M541 947l38 -40q-65 -49 -148 -121l-119 -10q-47 75 -94 131l56 40q36 -13 120 -60q105 47 147 60zM-13 0l-5 120l389 418l-287 -8l44 160h447l22 -120l-385 -418l291 8l-44 -160h-472z" />
<glyph unicode="&#x17e;" horiz-adv-x="493" d="M472 784l48 -40q-80 -82 -150 -164l-119 -10q-44 110 -78 174l66 40q33 -24 96 -93q88 67 137 93zM47 -10l-56 85q168 161 294 288q-35 7 -66 7q-86 0 -132 -56l-47 30q32 94 76 130t106 36q72 0 161 -47q8 8 23 23.5t22 23.5q23 0 43 -13t20 -44q0 -41 -59 -103.5 t-234 -208.5q12 2 24 2q21 0 46 -5.5t38 -5.5q70 0 107 68l57 -36q-29 -99 -71 -136.5t-109 -37.5q-41 0 -92 15.5t-68 15.5q-39 0 -83 -31z" />
<glyph unicode="&#x18f;" horiz-adv-x="687" d="M75 384l32 25h367q-13 155 -162 155q-85 0 -175 -45l26 135q28 16 94 31t133 15q136 0 210 -71.5t74 -205.5q0 -179 -119.5 -306t-292.5 -127q-106 0 -164.5 54.5t-58.5 164.5q0 25 3.5 51t8.5 47t10 36.5t9 28.5zM222 227q0 -111 81 -111q65 0 110 56.5t58 144.5 l-239 -18q-10 -34 -10 -72z" />
<glyph unicode="&#x192;" horiz-adv-x="595" d="M175 293l-115 5l23 60l111 20h4l11 42q74 280 317 280q95 0 142 -34l-80 -136q-47 40 -90 40q-19 0 -36 -10.5t-27 -23.5t-20 -37.5t-14.5 -38.5t-11.5 -40l-12 -42h168l4 -18l-30 -67h-165l-69 -247q-8 -29 -13.5 -45.5t-20 -52.5t-29 -59.5t-40 -54.5t-54.5 -49.5 t-70 -31.5t-88 -13q-51 0 -105 16l47 137q49 -23 81 -23q72 0 100 108l83 315h-1z" />
<glyph unicode="&#x19d;" horiz-adv-x="730" d="M-37 -202l-38 62q94 105 132 280l78 371q23 114 28 179l187 7q58 -170 90 -257q35 -94 54 -194h3q10 108 30 202q31 148 41 242l167 8l16 -20l-144 -678h-175q-21 54 -50 137.5t-41 114.5q-38 101 -57 183h-3q-6 -91 -27 -192l-22 -103q-30 -135 -85.5 -209t-183.5 -133z " />
<glyph unicode="&#x1cd;" horiz-adv-x="690" d="M600 947l38 -40q-65 -49 -148 -121l-119 -10q-47 75 -94 131l56 40q36 -13 120 -60q105 47 147 60zM147 0h-175l289 580q32 62 50 110l226 9l25 -25l50 -674h-185l-8 130h-209zM294 305l-22 -45h140l-3 44q-8 149 -4 238h-5q-44 -108 -106 -237z" />
<glyph unicode="&#x1ce;" horiz-adv-x="580" d="M528 784l48 -40q-80 -82 -150 -164l-119 -10q-44 110 -78 174l66 40q33 -24 96 -93q88 67 137 93zM25 146q0 50 13.5 100.5t42 98t68 84.5t96.5 59t123 22q119 0 201 -44l-39 -178q-43 -197 -43 -288h-180q0 54 17 155q-22 -72 -71.5 -118.5t-110.5 -46.5q-57 0 -87 41 t-30 115zM210 195q0 -55 33 -55q32 0 65.5 59.5t51.5 138.5q2 11 6.5 33t5.5 28q-20 11 -37 11q-46 0 -85.5 -75t-39.5 -140z" />
<glyph unicode="&#x1cf;" horiz-adv-x="336" d="M445 947l38 -40q-65 -49 -148 -121l-119 -10q-47 75 -94 131l56 40q36 -13 120 -60q105 47 147 60zM213 0h-185l107 503q24 118 29 187l177 10l16 -20z" />
<glyph unicode="&#x1d0;" horiz-adv-x="301" d="M320 776l59 -24q-48 -79 -94 -176l-170 -10q-6 119 -17 186l69 24q31 -39 55 -101q56 67 98 101zM208 0h-180q0 96 37 267l20 92l8 141l189 10q0 -64 -37 -245t-37 -265z" />
<glyph unicode="&#x1d1;" horiz-adv-x="705" d="M615 947l38 -40q-65 -49 -148 -121l-119 -10q-47 75 -94 131l56 40q36 -13 120 -60q105 47 147 60zM695 437q0 -114 -50 -215.5t-143.5 -166.5t-207.5 -65q-116 0 -180 68t-64 195q0 114 49.5 216t142 166.5t206.5 64.5q117 0 182 -68.5t65 -194.5zM240 250 q0 -125 83 -125q56 0 99 52.5t63 123t20 139.5q0 125 -83 125q-56 0 -99 -52.5t-63 -123t-20 -139.5z" />
<glyph unicode="&#x1d2;" horiz-adv-x="571" d="M509 784l48 -40q-80 -82 -150 -164l-119 -10q-44 110 -78 174l66 40q33 -24 96 -93q88 67 137 93zM543 316q0 -131 -92.5 -228.5t-225.5 -97.5q-88 0 -141 48t-53 142q0 129 93.5 229.5t226.5 100.5q90 0 141 -50.5t51 -143.5zM216 161q0 -71 37 -71q47 0 76 86t29 164 q0 70 -37 70q-33 0 -58 -45.5t-36 -100.5t-11 -103z" />
<glyph unicode="&#x1d3;" horiz-adv-x="711" d="M631 947l38 -40q-65 -49 -148 -121l-119 -10q-47 75 -94 131l56 40q36 -13 120 -60q105 47 147 60zM67 170q0 48 41.5 233.5t50.5 286.5l177 10l16 -20q-23 -109 -54 -252q-29 -134 -35 -165.5t-6 -48.5q0 -85 84 -85q103 0 131 127q55 257 67.5 322.5t14.5 111.5l187 8 l-97 -458q-25 -119 -120.5 -184.5t-219.5 -65.5q-107 0 -172 48t-65 132z" />
<glyph unicode="&#x1d4;" horiz-adv-x="577" d="M492 784l48 -40q-80 -82 -150 -164l-119 -10q-44 110 -78 174l66 40q33 -24 96 -93q88 67 137 93zM36 150l44 209l8 141l189 10q0 -41 -8.5 -93.5t-22 -115.5t-17.5 -88q-12 -73 18 -73q31 0 59.5 56t46.5 142q11 65 15 105q3 29 3 57l190 10q-8 -77 -64 -359 q-13 -62 -13 -151h-180q0 64 7 114h-3q-36 -64 -84 -94t-96 -30q-60 0 -83.5 44t-8.5 116z" />
<glyph unicode="&#x1d5;" horiz-adv-x="711" d="M379 1048l20 96h298l-20 -96h-298zM702 883q0 -41 -37 -73.5t-84 -32.5q-31 0 -49 16t-18 41q0 40 38 72.5t85 32.5q29 0 47 -15.5t18 -40.5zM461 883q0 -41 -37 -73.5t-84 -32.5q-31 0 -49 16t-18 41q0 40 38 72.5t85 32.5q29 0 47 -15.5t18 -40.5zM67 170 q0 48 41.5 233.5t50.5 286.5l177 10l16 -20q-23 -109 -54 -252q-29 -134 -35 -165.5t-6 -48.5q0 -85 84 -85q103 0 131 127q55 257 67.5 322.5t14.5 111.5l187 8l-97 -458q-25 -119 -120.5 -184.5t-219.5 -65.5q-107 0 -172 48t-65 132z" />
<glyph unicode="&#x1d6;" horiz-adv-x="577" d="M240 877l20 96h298l-20 -96h-298zM324 696q0 -47 -39 -84.5t-88 -37.5q-33 0 -52 18t-19 47q0 45 41 82.5t90 37.5q31 0 49 -17t18 -46zM563 696q0 -47 -39 -84.5t-88 -37.5q-33 0 -52 18t-19 47q0 45 41 82.5t90 37.5q31 0 49 -17t18 -46zM36 150l44 209l8 141l189 10 q0 -41 -8.5 -93.5t-22 -115.5t-17.5 -88q-12 -73 18 -73q31 0 59.5 56t46.5 142q11 65 15 105q3 29 3 57l190 10q-8 -77 -64 -359q-13 -62 -13 -151h-180q0 64 7 114h-3q-36 -64 -84 -94t-96 -30q-60 0 -83.5 44t-8.5 116z" />
<glyph unicode="&#x1d7;" horiz-adv-x="711" d="M704 1102l-16 -29q-141 -61 -310 -63l-3 41q135 70 241 142zM702 883q0 -41 -37 -73.5t-84 -32.5q-31 0 -49 16t-18 41q0 40 38 72.5t85 32.5q29 0 47 -15.5t18 -40.5zM461 883q0 -41 -37 -73.5t-84 -32.5q-31 0 -49 16t-18 41q0 40 38 72.5t85 32.5q29 0 47 -15.5 t18 -40.5zM67 170q0 48 41.5 233.5t50.5 286.5l177 10l16 -20q-23 -109 -54 -252q-29 -134 -35 -165.5t-6 -48.5q0 -85 84 -85q103 0 131 127q55 257 67.5 322.5t14.5 111.5l187 8l-97 -458q-25 -119 -120.5 -184.5t-219.5 -65.5q-107 0 -172 48t-65 132z" />
<glyph unicode="&#x1d8;" horiz-adv-x="577" d="M526 1025l4 -30q-79 -95 -192 -170l-68 10q66 119 98 198zM324 696q0 -47 -39 -84.5t-88 -37.5q-33 0 -52 18t-19 47q0 45 41 82.5t90 37.5q31 0 49 -17t18 -46zM563 696q0 -47 -39 -84.5t-88 -37.5q-33 0 -52 18t-19 47q0 45 41 82.5t90 37.5q31 0 49 -17t18 -46z M36 150l44 209l8 141l189 10q0 -41 -8.5 -93.5t-22 -115.5t-17.5 -88q-12 -73 18 -73q31 0 59.5 56t46.5 142q11 65 15 105q3 29 3 57l190 10q-8 -77 -64 -359q-13 -62 -13 -151h-180q0 64 7 114h-3q-36 -64 -84 -94t-96 -30q-60 0 -83.5 44t-8.5 116z" />
<glyph unicode="&#x1d9;" horiz-adv-x="711" d="M688 1223l48 -40q-80 -82 -150 -164l-119 -10q-44 110 -78 174l66 40q33 -24 96 -93q88 67 137 93zM702 883q0 -41 -37 -73.5t-84 -32.5q-31 0 -49 16t-18 41q0 40 38 72.5t85 32.5q29 0 47 -15.5t18 -40.5zM461 883q0 -41 -37 -73.5t-84 -32.5q-31 0 -49 16t-18 41 q0 40 38 72.5t85 32.5q29 0 47 -15.5t18 -40.5zM67 170q0 48 41.5 233.5t50.5 286.5l177 10l16 -20q-23 -109 -54 -252q-29 -134 -35 -165.5t-6 -48.5q0 -85 84 -85q103 0 131 127q55 257 67.5 322.5t14.5 111.5l187 8l-97 -458q-25 -119 -120.5 -184.5t-219.5 -65.5 q-107 0 -172 48t-65 132z" />
<glyph unicode="&#x1da;" horiz-adv-x="577" d="M547 1043l48 -40q-80 -82 -150 -164l-119 -10q-44 110 -78 174l66 40q33 -24 96 -93q88 67 137 93zM324 696q0 -47 -39 -84.5t-88 -37.5q-33 0 -52 18t-19 47q0 45 41 82.5t90 37.5q31 0 49 -17t18 -46zM563 696q0 -47 -39 -84.5t-88 -37.5q-33 0 -52 18t-19 47 q0 45 41 82.5t90 37.5q31 0 49 -17t18 -46zM36 150l44 209l8 141l189 10q0 -41 -8.5 -93.5t-22 -115.5t-17.5 -88q-12 -73 18 -73q31 0 59.5 56t46.5 142q11 65 15 105q3 29 3 57l190 10q-8 -77 -64 -359q-13 -62 -13 -151h-180q0 64 7 114h-3q-36 -64 -84 -94t-96 -30 q-60 0 -83.5 44t-8.5 116z" />
<glyph unicode="&#x1db;" horiz-adv-x="711" d="M672 1010q-169 2 -282 63l-4 29l126 91q86 -80 181 -142zM702 883q0 -41 -37 -73.5t-84 -32.5q-31 0 -49 16t-18 41q0 40 38 72.5t85 32.5q29 0 47 -15.5t18 -40.5zM461 883q0 -41 -37 -73.5t-84 -32.5q-31 0 -49 16t-18 41q0 40 38 72.5t85 32.5q29 0 47 -15.5t18 -40.5 zM67 170q0 48 41.5 233.5t50.5 286.5l177 10l16 -20q-23 -109 -54 -252q-29 -134 -35 -165.5t-6 -48.5q0 -85 84 -85q103 0 131 127q55 257 67.5 322.5t14.5 111.5l187 8l-97 -458q-25 -119 -120.5 -184.5t-219.5 -65.5q-107 0 -172 48t-65 132z" />
<glyph unicode="&#x1dc;" horiz-adv-x="577" d="M424 825q-80 75 -120 170l16 30l162 8q0 -97 14 -198zM324 696q0 -47 -39 -84.5t-88 -37.5q-33 0 -52 18t-19 47q0 45 41 82.5t90 37.5q31 0 49 -17t18 -46zM563 696q0 -47 -39 -84.5t-88 -37.5q-33 0 -52 18t-19 47q0 45 41 82.5t90 37.5q31 0 49 -17t18 -46zM36 150 l44 209l8 141l189 10q0 -41 -8.5 -93.5t-22 -115.5t-17.5 -88q-12 -73 18 -73q31 0 59.5 56t46.5 142q11 65 15 105q3 29 3 57l190 10q-8 -77 -64 -359q-13 -62 -13 -151h-180q0 64 7 114h-3q-36 -64 -84 -94t-96 -30q-60 0 -83.5 44t-8.5 116z" />
<glyph unicode="&#x1e6;" horiz-adv-x="668" d="M635 947l38 -40q-65 -49 -148 -121l-119 -10q-47 75 -94 131l56 40q36 -13 120 -60q105 47 147 60zM610 333l16 -20l-63 -283q-113 -40 -228 -40q-143 0 -215.5 65t-72.5 189q0 118 60 223t165.5 169t230.5 64q110 0 185 -40l-63 -155q-65 50 -144 50q-106 0 -172.5 -85 t-66.5 -194q0 -146 140 -146q20 0 31 1q19 90 26 192z" />
<glyph unicode="&#x1e7;" horiz-adv-x="533" d="M500 784l48 -40q-80 -82 -150 -164l-119 -10q-44 110 -78 174l66 40q33 -24 96 -93q88 67 137 93zM154 -260q-104 0 -166 35.5t-62 88.5q0 39 35.5 68t92.5 45l34 -31q-2 -16 -2 -24q0 -46 27.5 -74t74.5 -28q36 0 61 16t25 40q0 15 -13.5 29.5t-26 21.5t-41.5 21l-12 6 q-43 21 -64.5 39.5t-21.5 44.5q0 42 48.5 68.5t94.5 26.5v3q-19 0 -30 1q-71 6 -116.5 49t-45.5 115q0 97 79 153t183 56q112 0 156 2t87 11q16 -15 16 -38q0 -24 -14.5 -44.5t-46.5 -20.5q-15 0 -29.5 4.5t-32.5 13t-27 11.5l-1 -3q77 -41 77 -122q0 -47 -24 -84.5 t-57.5 -59.5t-67.5 -38t-58 -28.5t-24 -23.5q0 -13 54 -39q77 -39 104 -68q34 -35 34 -78q0 -72 -87 -118.5t-213 -46.5zM326 358q0 67 -35 67q-32 0 -55 -48t-23 -99q0 -74 40 -74q32 0 52.5 49t20.5 105z" />
<glyph unicode="&#x1ea;" horiz-adv-x="705" d="M695 437q0 -125 -61.5 -236t-165.5 -167q-63 -37 -101.5 -81.5t-38.5 -82.5q0 -32 35 -32q26 0 57 13l12 -59q-77 -58 -157 -58q-45 0 -72.5 23t-27.5 63q0 44 33.5 88.5t92.5 81.5h-7q-116 0 -180 68t-64 195q0 114 49.5 216t142 166.5t206.5 64.5q117 0 182 -68.5 t65 -194.5zM240 250q0 -125 83 -125q56 0 99 52.5t63 123t20 139.5q0 125 -83 125q-56 0 -99 -52.5t-63 -123t-20 -139.5z" />
<glyph unicode="&#x1eb;" horiz-adv-x="571" d="M543 316q0 -85 -42 -159.5t-112 -119.5q-147 -109 -147 -170q0 -29 35 -29q26 0 57 13l12 -59q-77 -58 -157 -58q-45 0 -72.5 22.5t-27.5 62.5q0 86 136 171q-88 0 -141 48t-53 142q0 129 93.5 229.5t226.5 100.5q90 0 141 -50.5t51 -143.5zM216 161q0 -71 37 -71 q47 0 76 86t29 164q0 70 -37 70q-33 0 -58 -45.5t-36 -100.5t-11 -103z" />
<glyph unicode="&#x1f4;" horiz-adv-x="668" d="M657 863l-16 -29q-141 -61 -310 -63l-3 41q135 70 241 142zM610 333l16 -20l-63 -283q-113 -40 -228 -40q-143 0 -215.5 65t-72.5 189q0 118 60 223t165.5 169t230.5 64q110 0 185 -40l-63 -155q-65 50 -144 50q-106 0 -172.5 -85t-66.5 -194q0 -146 140 -146q20 0 31 1 q19 90 26 192z" />
<glyph unicode="&#x1f5;" horiz-adv-x="533" d="M479 766l4 -30q-79 -95 -192 -170l-68 10q66 119 98 198zM154 -260q-104 0 -166 35.5t-62 88.5q0 39 35.5 68t92.5 45l34 -31q-2 -16 -2 -24q0 -46 27.5 -74t74.5 -28q36 0 61 16t25 40q0 15 -13.5 29.5t-26 21.5t-41.5 21l-12 6q-43 21 -64.5 39.5t-21.5 44.5 q0 42 48.5 68.5t94.5 26.5v3q-19 0 -30 1q-71 6 -116.5 49t-45.5 115q0 97 79 153t183 56q112 0 156 2t87 11q16 -15 16 -38q0 -24 -14.5 -44.5t-46.5 -20.5q-15 0 -29.5 4.5t-32.5 13t-27 11.5l-1 -3q77 -41 77 -122q0 -47 -24 -84.5t-57.5 -59.5t-67.5 -38t-58 -28.5 t-24 -23.5q0 -13 54 -39q77 -39 104 -68q34 -35 34 -78q0 -72 -87 -118.5t-213 -46.5zM326 358q0 67 -35 67q-32 0 -55 -48t-23 -99q0 -74 40 -74q32 0 52.5 49t20.5 105z" />
<glyph unicode="&#x1fa;" horiz-adv-x="690" d="M680 1140l-16 -29q-141 -61 -310 -63l-3 41q135 70 241 142zM589 898q0 -56 -51 -101t-114 -45q-45 0 -71.5 23t-26.5 58q0 54 53.5 99t117.5 45q42 0 67 -21.5t25 -57.5zM399 847q0 -17 11 -28t31 -11q28 0 51.5 23.5t23.5 52.5q0 37 -37 37q-30 0 -55 -23t-25 -51z M147 0h-175l289 580q32 62 50 110l226 9l25 -25l50 -674h-185l-8 130h-209zM294 305l-22 -45h140l-3 44q-8 149 -4 238h-5q-44 -108 -106 -237z" />
<glyph unicode="&#x1fb;" horiz-adv-x="580" d="M569 1058l4 -30q-79 -95 -192 -170l-68 10q66 119 98 198zM515 713q0 -56 -51 -101t-114 -45q-45 0 -71.5 23t-26.5 58q0 54 53.5 99t117.5 45q42 0 67 -21.5t25 -57.5zM325 662q0 -17 11 -28t31 -11q28 0 51.5 23.5t23.5 52.5q0 37 -37 37q-30 0 -55 -23t-25 -51z M25 146q0 50 13.5 100.5t42 98t68 84.5t96.5 59t123 22q119 0 201 -44l-39 -178q-43 -197 -43 -288h-180q0 54 17 155q-22 -72 -71.5 -118.5t-110.5 -46.5q-57 0 -87 41t-30 115zM210 195q0 -55 33 -55q32 0 65.5 59.5t51.5 138.5q2 11 6.5 33t5.5 28q-20 11 -37 11 q-46 0 -85.5 -75t-39.5 -140z" />
<glyph unicode="&#x1fc;" horiz-adv-x="939" d="M808 863l-16 -29q-141 -61 -310 -63l-3 41q135 70 241 142zM147 0h-175l381 580q31 46 68 110h511l15 -20l-29 -120l-264 9l-19 -160l222 5l-32 -127l-204 6l-18 -153l278 10l-30 -140h-449l20 130h-192zM342 305l-29 -45h128l7 44q10 64 42 238h-5q-46 -86 -143 -237z " />
<glyph unicode="&#x1fd;" horiz-adv-x="816" d="M626 766l4 -30q-79 -95 -192 -170l-68 10q66 119 98 198zM27 157q0 50 13.5 100t41.5 95.5t68 80.5t96 56t122 21q84 0 161 -26q57 26 122 26q77 0 123 -36t46 -95q0 -77 -80.5 -125t-224.5 -59v-1q0 -89 86 -89q57 0 125 38l19 -73q-93 -80 -220 -80q-86 0 -138.5 45.5 t-56.5 133.5q-18 -73 -70 -126t-114 -53q-56 0 -87.5 45t-31.5 122zM626 415q-39 0 -66.5 -52.5t-39.5 -118.5q65 15 101 47.5t36 81.5q0 42 -31 42zM212 195q0 -55 33 -55q26 0 53.5 40t47.5 100q18 53 54 102q-36 28 -63 28q-46 0 -85.5 -75t-39.5 -140z" />
<glyph unicode="&#x1fe;" horiz-adv-x="705" d="M637 863l-16 -29q-141 -61 -310 -63l-3 41q135 70 241 142zM695 437q0 -114 -50 -215.5t-143.5 -166.5t-207.5 -65q-120 0 -183 72l-84 -77l-53 56l96 89q-20 54 -20 123q0 114 49.5 216t142 166.5t206.5 64.5q109 0 174 -60l70 65l54 -55l-79 -73q28 -59 28 -140z M422 565q-51 0 -91.5 -44t-61.5 -104.5t-27 -127.5l250 231q-20 45 -70 45zM323 125q54 0 96.5 49.5t63 116.5t22.5 136l-258 -239q16 -63 76 -63z" />
<glyph unicode="&#x1ff;" horiz-adv-x="571" d="M488 766l4 -30q-79 -95 -192 -170l-68 10q66 119 98 198zM543 316q0 -131 -92.5 -228.5t-225.5 -97.5q-83 0 -134 42l-69 -61l-47 56l73 63q-17 39 -17 90q0 129 93.5 229.5t226.5 100.5q81 0 130 -41l69 60l48 -55l-73 -64q18 -39 18 -94zM321 410q-36 0 -61 -48.5 t-36 -117.5l133 117q-4 49 -36 49zM253 90q35 0 60 49t37 119l-133 -117q5 -51 36 -51z" />
<glyph unicode="&#x218;" horiz-adv-x="559" d="M508 219q0 -99 -88.5 -164t-228.5 -65q-58 0 -114.5 11t-79.5 28l42 151q31 -21 86 -35.5t95 -14.5q43 0 67.5 18t24.5 48q0 16 -6.5 30t-22 26.5t-26 19.5t-33.5 20t-30 17q-103 61 -103 159q0 101 93 166.5t236 65.5q100 0 159 -25l-53 -155q-64 40 -139 40 q-45 0 -72.5 -19t-27.5 -50q0 -14 5.5 -26t19 -23t24.5 -18.5t32.5 -19.5t33.5 -20q48 -31 77 -69t29 -96zM75 -325q55 48 81 95q-25 5 -38 26t-7 50q7 35 38.5 61t69.5 26q35 0 54.5 -24.5t10.5 -70.5q-21 -100 -167 -208z" />
<glyph unicode="&#x219;" horiz-adv-x="447" d="M449 485l-38 -132q-70 42 -133 42q-25 0 -41.5 -10t-16.5 -26t18 -29.5t44 -25.5t52 -27t44 -43t18 -65q0 -79 -73.5 -129t-176.5 -50q-47 0 -93 10.5t-70 28.5l37 129q36 -24 79.5 -38.5t74.5 -14.5q26 0 40.5 10t14.5 26t-18 29.5t-44 25.5t-52 28t-44 43t-18 63 q0 78 75 129t177 51q78 0 144 -25zM16 -325q55 48 81 95q-25 5 -38 26t-7 50q7 35 38.5 61t69.5 26q35 0 54.5 -24.5t10.5 -70.5q-21 -100 -167 -208z" />
<glyph unicode="&#x21a;" horiz-adv-x="575" d="M327 0h-185l117 554q-63 -2 -191 -8l40 144h545l-20 -144q-126 6 -189 8zM83 -325q55 48 81 95q-25 5 -38 26t-7 50q7 35 38.5 61t69.5 26q35 0 54.5 -24.5t10.5 -70.5q-21 -100 -167 -208z" />
<glyph unicode="&#x21b;" horiz-adv-x="400" d="M415 410l-140 4q-51 -242 -51 -253q0 -46 50 -46q36 0 82 24l-13 -108q-74 -41 -157 -41q-145 0 -145 139q0 8 0.5 15.5t1.5 15t3.5 21t4.5 25.5t7.5 36t9.5 44.5t12.5 59t15.5 72.5l-65 2l13 60l74 20l73 131l112 8l18 -21l-28 -118h137l8 -20zM23 -325q55 48 81 95 q-25 5 -38 26t-7 50q7 35 38.5 61t69.5 26q35 0 54.5 -24.5t10.5 -70.5q-21 -100 -167 -208z" />
<glyph unicode="&#x232;" horiz-adv-x="589" d="M285 809l20 96h298l-20 -96h-298zM195 216l-98 465l202 19l21 -202q8 -81 12 -152h3q66 121 81 151l105 203l146 -10l6 -19l-293 -455l-46 -216h-185z" />
<glyph unicode="&#x233;" horiz-adv-x="522" d="M173 618l20 96h298l-20 -96h-298zM437 510q44 0 67 -11.5t23 -45.5q0 -35 -26 -102t-68 -146t-99.5 -161.5t-117 -150t-124 -110.5t-117.5 -43q-42 0 -66.5 25.5t-24.5 70.5q0 38 19 67q34 -10 77 -10q67 0 126 27.5t87 79.5h-103q-6 315 -37 500l194 10q18 -181 -8 -400 h3q47 94 82 201.5t44 190.5q34 8 69 8z" />
<glyph unicode="&#x237;" horiz-adv-x="288" d="M-31 -260l-57 60q71 109 100 250l65 309l8 141l189 10q0 -24 -3.5 -57t-14 -86.5t-15 -79t-20 -99t-17.5 -80.5q-31 -148 -79 -229.5t-156 -138.5z" />
<glyph unicode="&#x259;" horiz-adv-x="513" d="M83 357l10 116q83 37 179 37q97 0 154.5 -48t57.5 -138q0 -128 -105 -231t-232 -103q-67 0 -110 32t-43 89q0 77 79 133.5t226 61.5q0 89 -86 89q-59 0 -130 -38zM157 127q0 -42 31 -42q39 0 66.5 52.5t39.5 118.5q-65 -15 -101 -47.5t-36 -81.5z" />
<glyph unicode="&#x272;" horiz-adv-x="629" d="M3 -250l-57 60q71 110 100 250l63 299l8 141l189 10q0 -32 -10 -124h3q37 63 86.5 93.5t98.5 30.5q59 0 84 -43t9 -117l-42 -199q-13 -59 -13 -151h-180q0 80 42 287q15 73 -19 73t-67.5 -64.5t-51.5 -159.5q-3 -16 -3 -18q-24 -143 -76 -226t-164 -142z" />
<glyph unicode="&#x2c6;" horiz-adv-x="437" d="M166 553l-48 40q80 82 150 164l119 10q44 -110 78 -174l-66 -40q-33 24 -96 93q-88 -67 -137 -93z" />
<glyph unicode="&#x2c7;" horiz-adv-x="437" d="M448 779l48 -40q-80 -82 -150 -164l-119 -10q-44 110 -78 174l66 40q33 -24 96 -93q88 67 137 93z" />
<glyph unicode="&#x2d8;" horiz-adv-x="406" d="M401 765l71 9q-22 -87 -78 -142t-127 -55q-64 0 -95.5 49t-18.5 130l72 10q0 -36 19.5 -57.5t51.5 -21.5q33 0 62 22t43 56z" />
<glyph unicode="&#x2d9;" horiz-adv-x="300" d="M348 698q0 -50 -43.5 -91t-96.5 -41q-36 0 -57.5 20.5t-21.5 51.5q0 47 44 87.5t99 40.5q35 0 55.5 -18.5t20.5 -49.5z" />
<glyph unicode="&#x2da;" horiz-adv-x="344" d="M392 700q0 -56 -51 -101t-114 -45q-45 0 -71.5 23t-26.5 58q0 54 53.5 99t117.5 45q42 0 67 -21.5t25 -57.5zM202 649q0 -17 11 -28t31 -11q28 0 51.5 23.5t23.5 52.5q0 37 -37 37q-30 0 -55 -23t-25 -51z" />
<glyph unicode="&#x2db;" horiz-adv-x="364" d="M255 0q-66 -28 -104 -64t-38 -69q0 -29 35 -29q26 0 57 13l12 -59q-77 -58 -157 -58q-45 0 -72.5 22.5t-27.5 60.5q0 58 60 112t159 86z" />
<glyph unicode="&#x2dc;" horiz-adv-x="427" d="M260 762q36 0 80.5 -28.5t67.5 -28.5q18 0 31 10t30 33l48 -7q-15 -70 -52.5 -120.5t-89.5 -50.5q-32 0 -83.5 28.5t-70.5 28.5q-28 0 -59 -43l-47 7q15 71 51.5 121t93.5 50z" />
<glyph unicode="&#x2dd;" horiz-adv-x="443" d="M337 766l4 -30q-71 -98 -160 -170l-68 10q66 119 98 198zM530 766l4 -30q-71 -98 -160 -170l-68 10q66 119 98 198z" />
<glyph unicode="&#x394;" horiz-adv-x="690" d="M336 690h210l70 -670l-6 -20h-636l2 20zM199 134h207l-25 364z" />
<glyph unicode="&#x3a9;" horiz-adv-x="825" d="M298 0h-292l2 125l24 20l202 -58q-56 34 -87.5 98.5t-31.5 142.5q0 155 115.5 263.5t276.5 108.5q125 0 192 -67.5t67 -172.5q0 -111 -70 -214.5t-170 -156.5l221 56l16 -20l-52 -125h-292l-4 77q68 72 112.5 175t44.5 190q0 123 -95 123q-80 0 -130.5 -82t-50.5 -214 q0 -93 38 -192z" />
<glyph unicode="&#x3bc;" horiz-adv-x="577" d="M304 0q0 64 7 114h-3q-66 -116 -167 -123q11 -31 12.5 -70t-2 -85.5t-2.5 -66.5l-179 -9q0 88 61 370l49 229l8 141l189 10q0 -41 -8.5 -93.5t-22 -115.5t-17.5 -88q-12 -73 18 -73q31 0 59.5 56t46.5 142q11 65 15 105q3 29 3 57l190 10q-11 -103 -64 -359 q-13 -62 -13 -151h-180z" />
<glyph unicode="&#x3c0;" horiz-adv-x="636" d="M21 370l51 130l599 10l6 -20l-57 -110l-53 -1q-40 -165 -40 -212q0 -27 23 -27q17 0 39 10l-42 -150q-42 -10 -91 -10q-120 0 -120 111q0 12 1 25t4 31.5t5.5 32.5t8 40t9 42t11 50.5t11.5 53.5l-98 -2q-62 -278 -62 -374h-180q0 97 59 371z" />
<glyph unicode="&#x1e0c;" horiz-adv-x="724" d="M712 427q0 -85 -29 -161t-83.5 -136t-141 -95t-192.5 -35h-238l108 511q25 115 28 179h268q280 0 280 -263zM386 560h-55l-90 -430h68q54 0 96.5 25.5t66 67.5t35.5 88.5t12 95.5q0 44 -10.5 74.5t-23.5 45.5t-34.5 23t-33.5 9t-31 1zM380 -131q0 -50 -43.5 -91 t-96.5 -41q-36 0 -57.5 20.5t-21.5 51.5q0 47 44 87.5t99 40.5q35 0 55.5 -18.5t20.5 -49.5z" />
<glyph unicode="&#x1e0d;" horiz-adv-x="580" d="M487 0h-180q0 59 15 149q-22 -70 -71 -114.5t-109 -44.5q-56 0 -86.5 41t-30.5 114q0 50 13.5 101t42 98.5t67.5 84.5t94.5 59t118.5 22q12 0 34 -2l22 101l8 141l189 10q0 -93 -63.5 -378t-63.5 -382zM210 195q0 -55 33 -55q31 0 62.5 54.5t50.5 130.5q4 17 12 55l4 19 q-20 11 -37 11q-46 0 -85.5 -75t-39.5 -140zM338 -131q0 -50 -43.5 -91t-96.5 -41q-36 0 -57.5 20.5t-21.5 51.5q0 47 44 87.5t99 40.5q35 0 55.5 -18.5t20.5 -49.5z" />
<glyph unicode="&#x1e24;" horiz-adv-x="736" d="M213 0h-185l107 503q24 118 29 187l177 10l16 -20l-58 -273h216l20 96q24 118 29 187l177 10l16 -20l-144 -680h-185l59 277h-215zM390 -131q0 -50 -43.5 -91t-96.5 -41q-36 0 -57.5 20.5t-21.5 51.5q0 47 44 87.5t99 40.5q35 0 55.5 -18.5t20.5 -49.5z" />
<glyph unicode="&#x1e25;" horiz-adv-x="591" d="M208 0h-180q0 96 61 380l49 229l8 141l189 10q0 -102 -63 -374h3q38 62 88 93t99 31q46 0 71.5 -27.5t25.5 -77.5q0 -33 -48 -254q-13 -59 -13 -151h-180q0 83 36 257q11 54 11 68q0 35 -24 35q-31 0 -61.5 -53t-50.5 -137t-21 -170zM318 -131q0 -50 -43.5 -91t-96.5 -41 q-36 0 -57.5 20.5t-21.5 51.5q0 47 44 87.5t99 40.5q35 0 55.5 -18.5t20.5 -49.5z" />
<glyph unicode="&#x1e44;" horiz-adv-x="731" d="M593 887q0 -47 -41.5 -84t-94.5 -37q-35 0 -56.5 18.5t-21.5 47.5q0 44 43.5 80.5t96.5 36.5q33 0 53.5 -17t20.5 -45zM441 441q34 -98 53 -208h3q9 107 31 213q29 137 41 244l167 8l16 -20l-144 -678h-175q-21 55 -50 139t-41 114q-37 104 -57 196h-3q-5 -96 -28 -206 l-51 -243h-175l108 511q22 103 28 179l187 7q58 -170 90 -256z" />
<glyph unicode="&#x1e45;" horiz-adv-x="591" d="M473 696q0 -50 -43.5 -91t-96.5 -41q-36 0 -57.5 20.5t-21.5 51.5q0 47 44 87.5t99 40.5q35 0 55.5 -18.5t20.5 -49.5zM208 0h-180q0 108 57 359l8 141l189 10q0 -32 -10 -124h3q37 63 86.5 93.5t98.5 30.5q47 0 73 -27t26 -71q0 -36 -36 -204q-25 -118 -25 -208h-180 q0 77 26 207q21 105 21 120q0 33 -24 33q-31 0 -61.5 -53t-50.5 -137t-21 -170z" />
<glyph unicode="&#x1e5a;" horiz-adv-x="650" d="M212 0h-185l109 511q24 109 28 179h234q249 0 249 -176q0 -74 -42 -137t-119 -97l91 -280l-214 -11q-30 111 -47 238h-56zM362 565h-30l-46 -218h24q69 0 107.5 39t38.5 99q0 41 -21.5 60.5t-72.5 19.5zM347 -131q0 -50 -43.5 -91t-96.5 -41q-36 0 -57.5 20.5t-21.5 51.5 q0 47 44 87.5t99 40.5q35 0 55.5 -18.5t20.5 -49.5z" />
<glyph unicode="&#x1e5b;" horiz-adv-x="430" d="M208 0h-180q0 96 37 267l20 92l8 141l189 10q0 -57 -24 -181h3q32 96 71.5 138.5t78.5 42.5q22 0 42 -11t29 -26l-85 -166q-30 11 -58 11q-63 0 -93.5 -79.5t-37.5 -238.5zM195 -131q0 -50 -43.5 -91t-96.5 -41q-36 0 -57.5 20.5t-21.5 51.5q0 47 44 87.5t99 40.5 q35 0 55.5 -18.5t20.5 -49.5z" />
<glyph unicode="&#x1e62;" horiz-adv-x="559" d="M508 219q0 -99 -88.5 -164t-228.5 -65q-58 0 -114.5 11t-79.5 28l42 151q31 -21 86 -35.5t95 -14.5q43 0 67.5 18t24.5 48q0 16 -6.5 30t-22 26.5t-26 19.5t-33.5 20t-30 17q-103 61 -103 159q0 101 93 166.5t236 65.5q100 0 159 -25l-53 -155q-64 40 -139 40 q-45 0 -72.5 -19t-27.5 -50q0 -14 5.5 -26t19 -23t24.5 -18.5t32.5 -19.5t33.5 -20q48 -31 77 -69t29 -96zM302 -131q0 -50 -43.5 -91t-96.5 -41q-36 0 -57.5 20.5t-21.5 51.5q0 47 44 87.5t99 40.5q35 0 55.5 -18.5t20.5 -49.5z" />
<glyph unicode="&#x1e63;" horiz-adv-x="447" d="M449 485l-38 -132q-70 42 -133 42q-25 0 -41.5 -10t-16.5 -26t18 -29.5t44 -25.5t52 -27t44 -43t18 -65q0 -79 -73.5 -129t-176.5 -50q-47 0 -93 10.5t-70 28.5l37 129q36 -24 79.5 -38.5t74.5 -14.5q26 0 40.5 10t14.5 26t-18 29.5t-44 25.5t-52 28t-44 43t-18 63 q0 78 75 129t177 51q78 0 144 -25zM243 -131q0 -50 -43.5 -91t-96.5 -41q-36 0 -57.5 20.5t-21.5 51.5q0 47 44 87.5t99 40.5q35 0 55.5 -18.5t20.5 -49.5z" />
<glyph unicode="&#x1e6c;" horiz-adv-x="575" d="M327 0h-185l117 554q-63 -2 -191 -8l40 144h545l-20 -144q-126 6 -189 8zM310 -131q0 -50 -43.5 -91t-96.5 -41q-36 0 -57.5 20.5t-21.5 51.5q0 47 44 87.5t99 40.5q35 0 55.5 -18.5t20.5 -49.5z" />
<glyph unicode="&#x1e6d;" horiz-adv-x="400" d="M415 410l-140 4q-51 -242 -51 -253q0 -46 50 -46q36 0 82 24l-13 -108q-74 -41 -157 -41q-145 0 -145 139q0 8 0.5 15.5t1.5 15t3.5 21t4.5 25.5t7.5 36t9.5 44.5t12.5 59t15.5 72.5l-65 2l13 60l74 20l73 131l112 8l18 -21l-28 -118h137l8 -20zM250 -131 q0 -50 -43.5 -91t-96.5 -41q-36 0 -57.5 20.5t-21.5 51.5q0 47 44 87.5t99 40.5q35 0 55.5 -18.5t20.5 -49.5z" />
<glyph unicode="&#x1e80;" horiz-adv-x="965" d="M744 771q-169 2 -282 63l-4 29l126 91q86 -80 181 -142zM124 0l-27 681l202 19l-4 -344q0 -36 -3.5 -101.5t-3.5 -77.5q18 46 69 167l149 346l180 10l-1 -344q0 -33 -0.5 -96.5t-0.5 -82.5q33 93 66 171l147 352l146 -10l6 -19l-313 -671h-205l-6 223q-1 39 0 112t1 105 h-3q-51 -125 -95 -220l-99 -220h-205z" />
<glyph unicode="&#x1e81;" horiz-adv-x="868" d="M529 566q-80 75 -120 170l16 30l162 8q0 -97 14 -198zM784 510q43 0 66 -12t23 -46q0 -64 -70.5 -204t-160.5 -248h-206q19 165 26 324h-3q-66 -176 -163 -324h-206q-6 315 -37 500l194 10q18 -181 -8 -400h3q50 94 86 199t45 191h221q17 -171 -9 -390h3q47 94 82 201.5 t44 190.5q34 8 70 8z" />
<glyph unicode="&#x1e82;" horiz-adv-x="965" d="M776 863l-16 -29q-141 -61 -310 -63l-3 41q135 70 241 142zM124 0l-27 681l202 19l-4 -344q0 -36 -3.5 -101.5t-3.5 -77.5q18 46 69 167l149 346l180 10l-1 -344q0 -33 -0.5 -96.5t-0.5 -82.5q33 93 66 171l147 352l146 -10l6 -19l-313 -671h-205l-6 223q-1 39 0 112 t1 105h-3q-51 -125 -95 -220l-99 -220h-205z" />
<glyph unicode="&#x1e83;" horiz-adv-x="868" d="M631 766l4 -30q-79 -95 -192 -170l-68 10q66 119 98 198zM784 510q43 0 66 -12t23 -46q0 -64 -70.5 -204t-160.5 -248h-206q19 165 26 324h-3q-66 -176 -163 -324h-206q-6 315 -37 500l194 10q18 -181 -8 -400h3q50 94 86 199t45 191h221q17 -171 -9 -390h3 q47 94 82 201.5t44 190.5q34 8 70 8z" />
<glyph unicode="&#x1e84;" horiz-adv-x="965" d="M825 883q0 -41 -37 -73.5t-84 -32.5q-31 0 -49 16t-18 41q0 40 38 72.5t85 32.5q29 0 47 -15.5t18 -40.5zM584 883q0 -41 -37 -73.5t-84 -32.5q-31 0 -49 16t-18 41q0 40 38 72.5t85 32.5q29 0 47 -15.5t18 -40.5zM124 0l-27 681l202 19l-4 -344q0 -36 -3.5 -101.5 t-3.5 -77.5q18 46 69 167l149 346l180 10l-1 -344q0 -33 -0.5 -96.5t-0.5 -82.5q33 93 66 171l147 352l146 -10l6 -19l-313 -671h-205l-6 223q-1 39 0 112t1 105h-3q-51 -125 -95 -220l-99 -220h-205z" />
<glyph unicode="&#x1e85;" horiz-adv-x="868" d="M484 696q0 -47 -39 -84.5t-88 -37.5q-33 0 -52 18t-19 47q0 45 41 82.5t90 37.5q31 0 49 -17t18 -46zM723 696q0 -47 -39 -84.5t-88 -37.5q-33 0 -52 18t-19 47q0 45 41 82.5t90 37.5q31 0 49 -17t18 -46zM784 510q43 0 66 -12t23 -46q0 -64 -70.5 -204t-160.5 -248h-206 q19 165 26 324h-3q-66 -176 -163 -324h-206q-6 315 -37 500l194 10q18 -181 -8 -400h3q50 94 86 199t45 191h221q17 -171 -9 -390h3q47 94 82 201.5t44 190.5q34 8 70 8z" />
<glyph unicode="&#x1e92;" horiz-adv-x="539" d="M-13 0l-5 120l389 418l-287 -8l44 160h447l22 -120l-385 -418l291 8l-44 -160h-472zM292 -131q0 -50 -43.5 -91t-96.5 -41q-36 0 -57.5 20.5t-21.5 51.5q0 47 44 87.5t99 40.5q35 0 55.5 -18.5t20.5 -49.5z" />
<glyph unicode="&#x1e93;" horiz-adv-x="493" d="M47 -10l-56 85q168 161 294 288q-35 7 -66 7q-86 0 -132 -56l-47 30q32 94 76 130t106 36q72 0 161 -47q8 8 23 23.5t22 23.5q23 0 43 -13t20 -44q0 -41 -59 -103.5t-234 -208.5q12 2 24 2q21 0 46 -5.5t38 -5.5q70 0 107 68l57 -36q-29 -99 -71 -136.5t-109 -37.5 q-41 0 -92 15.5t-68 15.5q-39 0 -83 -31zM258 -131q0 -50 -43.5 -91t-96.5 -41q-36 0 -57.5 20.5t-21.5 51.5q0 47 44 87.5t99 40.5q35 0 55.5 -18.5t20.5 -49.5z" />
<glyph unicode="&#x1e9e;" horiz-adv-x="735" d="M74 187l56 263q25 117 115 183.5t218 66.5q107 0 170 -47t61 -135l-154 -139q66 -33 102 -77.5t36 -111.5q0 -84 -69.5 -142t-174.5 -58q-98 0 -154 29l32 151q50 -40 105 -40q32 0 50.5 16t18.5 41q0 27 -29 53.5t-114 75.5l8 39l150 153q-4 25 -23.5 39t-49.5 14 q-42 0 -73 -32.5t-44 -94.5l-67 -316q-21 -98 -65 -128l-167 10q39 74 62 187z" />
<glyph unicode="&#x1ea0;" horiz-adv-x="690" d="M147 0h-175l289 580q32 62 50 110l226 9l25 -25l50 -674h-185l-8 130h-209zM294 305l-22 -45h140l-3 44q-8 149 -4 238h-5q-44 -108 -106 -237zM365 -131q0 -50 -43.5 -91t-96.5 -41q-36 0 -57.5 20.5t-21.5 51.5q0 47 44 87.5t99 40.5q35 0 55.5 -18.5t20.5 -49.5z" />
<glyph unicode="&#x1ea1;" horiz-adv-x="580" d="M25 146q0 50 13.5 100.5t42 98t68 84.5t96.5 59t123 22q119 0 201 -44l-39 -178q-43 -197 -43 -288h-180q0 54 17 155q-22 -72 -71.5 -118.5t-110.5 -46.5q-57 0 -87 41t-30 115zM210 195q0 -55 33 -55q32 0 65.5 59.5t51.5 138.5q2 11 6.5 33t5.5 28q-20 11 -37 11 q-46 0 -85.5 -75t-39.5 -140zM348 -131q0 -50 -43.5 -91t-96.5 -41q-36 0 -57.5 20.5t-21.5 51.5q0 47 44 87.5t99 40.5q35 0 55.5 -18.5t20.5 -49.5z" />
<glyph unicode="&#x1eb8;" horiz-adv-x="581" d="M522 140l-29 -140h-465l108 511q25 115 28 179h449l16 -20l-29 -120l-269 10l-34 -161l222 5l-32 -127l-214 7l-33 -154zM334 -131q0 -50 -43.5 -91t-96.5 -41q-36 0 -57.5 20.5t-21.5 51.5q0 47 44 87.5t99 40.5q35 0 55.5 -18.5t20.5 -49.5z" />
<glyph unicode="&#x1eb9;" horiz-adv-x="515" d="M427 143l19 -73q-93 -80 -220 -80q-89 0 -142 48t-53 142q0 130 94 230t231 100q75 0 120 -32.5t45 -89.5q0 -79 -83 -133t-222 -60v-1q0 -89 86 -89q57 0 125 38zM327 415q-39 0 -66.5 -52.5t-39.5 -118.5q65 15 101 47.5t36 81.5q0 42 -31 42zM334 -131 q0 -50 -43.5 -91t-96.5 -41q-36 0 -57.5 20.5t-21.5 51.5q0 47 44 87.5t99 40.5q35 0 55.5 -18.5t20.5 -49.5z" />
<glyph unicode="&#x1ebc;" horiz-adv-x="581" d="M373 943q35 0 77.5 -28.5t66.5 -28.5q19 0 32.5 9.5t33.5 33.5l43 -7q-13 -62 -49.5 -106.5t-88.5 -44.5q-32 0 -80.5 28.5t-69.5 28.5q-31 0 -64 -43l-43 7q13 62 49 106.5t93 44.5zM522 140l-29 -140h-465l108 511q25 115 28 179h449l16 -20l-29 -120l-269 10l-34 -161 l222 5l-32 -127l-214 7l-33 -154z" />
<glyph unicode="&#x1ebd;" horiz-adv-x="515" d="M309 762q36 0 80.5 -28.5t67.5 -28.5q18 0 31 10t30 33l48 -7q-15 -70 -52.5 -120.5t-89.5 -50.5q-32 0 -83.5 28.5t-70.5 28.5q-28 0 -59 -43l-47 7q15 71 51.5 121t93.5 50zM427 143l19 -73q-93 -80 -220 -80q-89 0 -142 48t-53 142q0 130 94 230t231 100 q75 0 120 -32.5t45 -89.5q0 -79 -83 -133t-222 -60v-1q0 -89 86 -89q57 0 125 38zM327 415q-39 0 -66.5 -52.5t-39.5 -118.5q65 15 101 47.5t36 81.5q0 42 -31 42z" />
<glyph unicode="&#x1eca;" horiz-adv-x="336" d="M213 0h-185l107 503q24 118 29 187l177 10l16 -20zM188 -131q0 -50 -43.5 -91t-96.5 -41q-36 0 -57.5 20.5t-21.5 51.5q0 47 44 87.5t99 40.5q35 0 55.5 -18.5t20.5 -49.5z" />
<glyph unicode="&#x1ecb;" horiz-adv-x="301" d="M335 696q0 -50 -43.5 -91t-96.5 -41q-36 0 -57.5 20.5t-21.5 51.5q0 47 44 87.5t99 40.5q35 0 55.5 -18.5t20.5 -49.5zM208 0h-180q0 96 37 267l20 92l8 141l189 10q0 -64 -37 -245t-37 -265zM187 -131q0 -50 -43.5 -91t-96.5 -41q-36 0 -57.5 20.5t-21.5 51.5 q0 47 44 87.5t99 40.5q35 0 55.5 -18.5t20.5 -49.5z" />
<glyph unicode="&#x1ecc;" horiz-adv-x="705" d="M695 437q0 -114 -50 -215.5t-143.5 -166.5t-207.5 -65q-116 0 -180 68t-64 195q0 114 49.5 216t142 166.5t206.5 64.5q117 0 182 -68.5t65 -194.5zM240 250q0 -125 83 -125q56 0 99 52.5t63 123t20 139.5q0 125 -83 125q-56 0 -99 -52.5t-63 -123t-20 -139.5zM383 -131 q0 -50 -43.5 -91t-96.5 -41q-36 0 -57.5 20.5t-21.5 51.5q0 47 44 87.5t99 40.5q35 0 55.5 -18.5t20.5 -49.5z" />
<glyph unicode="&#x1ecd;" horiz-adv-x="571" d="M543 316q0 -131 -92.5 -228.5t-225.5 -97.5q-88 0 -141 48t-53 142q0 129 93.5 229.5t226.5 100.5q90 0 141 -50.5t51 -143.5zM216 161q0 -71 37 -71q47 0 76 86t29 164q0 70 -37 70q-33 0 -58 -45.5t-36 -100.5t-11 -103zM327 -131q0 -50 -43.5 -91t-96.5 -41 q-36 0 -57.5 20.5t-21.5 51.5q0 47 44 87.5t99 40.5q35 0 55.5 -18.5t20.5 -49.5z" />
<glyph unicode="&#x1ee4;" horiz-adv-x="711" d="M67 170q0 48 41.5 233.5t50.5 286.5l177 10l16 -20q-23 -109 -54 -252q-29 -134 -35 -165.5t-6 -48.5q0 -85 84 -85q103 0 131 127q55 257 67.5 322.5t14.5 111.5l187 8l-97 -458q-25 -119 -120.5 -184.5t-219.5 -65.5q-107 0 -172 48t-65 132zM383 -131q0 -50 -43.5 -91 t-96.5 -41q-36 0 -57.5 20.5t-21.5 51.5q0 47 44 87.5t99 40.5q35 0 55.5 -18.5t20.5 -49.5z" />
<glyph unicode="&#x1ee5;" horiz-adv-x="577" d="M36 150l44 209l8 141l189 10q0 -41 -8.5 -93.5t-22 -115.5t-17.5 -88q-12 -73 18 -73q31 0 59.5 56t46.5 142q11 65 15 105q3 29 3 57l190 10q-8 -77 -64 -359q-13 -62 -13 -151h-180q0 64 7 114h-3q-36 -64 -84 -94t-96 -30q-60 0 -83.5 44t-8.5 116zM330 -131 q0 -50 -43.5 -91t-96.5 -41q-36 0 -57.5 20.5t-21.5 51.5q0 47 44 87.5t99 40.5q35 0 55.5 -18.5t20.5 -49.5z" />
<glyph unicode="&#x1ef2;" horiz-adv-x="589" d="M578 771q-169 2 -282 63l-4 29l126 91q86 -80 181 -142zM195 216l-98 465l202 19l21 -202q8 -81 12 -152h3q66 121 81 151l105 203l146 -10l6 -19l-293 -455l-46 -216h-185z" />
<glyph unicode="&#x1ef3;" horiz-adv-x="522" d="M357 566q-80 75 -120 170l16 30l162 8q0 -97 14 -198zM437 510q44 0 67 -11.5t23 -45.5q0 -35 -26 -102t-68 -146t-99.5 -161.5t-117 -150t-124 -110.5t-117.5 -43q-42 0 -66.5 25.5t-24.5 70.5q0 38 19 67q34 -10 77 -10q67 0 126 27.5t87 79.5h-103q-6 315 -37 500 l194 10q18 -181 -8 -400h3q47 94 82 201.5t44 190.5q34 8 69 8z" />
<glyph unicode="&#x1ef8;" horiz-adv-x="589" d="M389 943q35 0 77.5 -28.5t66.5 -28.5q19 0 32.5 9.5t33.5 33.5l43 -7q-13 -62 -49.5 -106.5t-88.5 -44.5q-32 0 -80.5 28.5t-69.5 28.5q-31 0 -64 -43l-43 7q13 62 49 106.5t93 44.5zM195 216l-98 465l202 19l21 -202q8 -81 12 -152h3q66 121 81 151l105 203l146 -10 l6 -19l-293 -455l-46 -216h-185z" />
<glyph unicode="&#x1ef9;" horiz-adv-x="522" d="M285 762q36 0 80.5 -28.5t67.5 -28.5q18 0 31 10t30 33l48 -7q-15 -70 -52.5 -120.5t-89.5 -50.5q-32 0 -83.5 28.5t-70.5 28.5q-28 0 -59 -43l-47 7q15 71 51.5 121t93.5 50zM437 510q44 0 67 -11.5t23 -45.5q0 -35 -26 -102t-68 -146t-99.5 -161.5t-117 -150 t-124 -110.5t-117.5 -43q-42 0 -66.5 25.5t-24.5 70.5q0 38 19 67q34 -10 77 -10q67 0 126 27.5t87 79.5h-103q-6 315 -37 500l194 10q18 -181 -8 -400h3q47 94 82 201.5t44 190.5q34 8 69 8z" />
<glyph unicode="&#x2007;" />
<glyph unicode="&#x2013;" horiz-adv-x="593" d="M34 251l6 50h530l-7 -50h-529z" />
<glyph unicode="&#x2014;" horiz-adv-x="914" d="M31 251l10 50h854l-11 -50h-853z" />
<glyph unicode="&#x2018;" horiz-adv-x="298" d="M365 731q-79 -71 -114 -140q26 -5 41.5 -24t15.5 -47q0 -49 -41.5 -89.5t-91.5 -40.5q-36 0 -58.5 20t-22.5 58q0 74 73 162.5t157 147.5z" />
<glyph unicode="&#x2019;" horiz-adv-x="298" d="M71 419q79 71 114 140q-26 5 -41.5 24t-15.5 47q0 49 41.5 89.5t91.5 40.5q36 0 58.5 -20t22.5 -58q0 -74 -73 -162.5t-157 -147.5z" />
<glyph unicode="&#x201a;" horiz-adv-x="298" d="M-50 -148q79 71 114 140q-26 5 -41.5 24t-15.5 47q0 49 41.5 89.5t91.5 40.5q36 0 58.5 -20t22.5 -58q0 -74 -73 -162.5t-157 -147.5z" />
<glyph unicode="&#x201c;" horiz-adv-x="568" d="M365 731q-79 -71 -114 -140q26 -5 41.5 -24t15.5 -47q0 -49 -41.5 -89.5t-91.5 -40.5q-36 0 -58.5 20t-22.5 58q0 74 73 162.5t157 147.5zM635 731q-79 -71 -114 -140q26 -5 41.5 -24t15.5 -47q0 -49 -41.5 -89.5t-91.5 -40.5q-36 0 -58.5 20t-22.5 58q0 74 73 162.5 t157 147.5z" />
<glyph unicode="&#x201d;" horiz-adv-x="568" d="M341 419q79 71 114 140q-26 5 -41.5 24t-15.5 47q0 49 41.5 89.5t91.5 40.5q36 0 58.5 -20t22.5 -58q0 -74 -73 -162.5t-157 -147.5zM71 419q79 71 114 140q-26 5 -41.5 24t-15.5 47q0 49 41.5 89.5t91.5 40.5q36 0 58.5 -20t22.5 -58q0 -74 -73 -162.5t-157 -147.5z" />
<glyph unicode="&#x201e;" horiz-adv-x="562" d="M-50 -148q79 71 114 140q-26 5 -41.5 24t-15.5 47q0 49 41.5 89.5t91.5 40.5q36 0 58.5 -20t22.5 -58q0 -74 -73 -162.5t-157 -147.5zM214 -148q79 71 114 140q-26 5 -41.5 24t-15.5 47q0 49 41.5 89.5t91.5 40.5q36 0 58.5 -20t22.5 -58q0 -74 -73 -162.5t-157 -147.5z " />
<glyph unicode="&#x2020;" horiz-adv-x="507" d="M259 14l-11 -14h-94l-5 14l-15 134l118 294l-164 -22l-3 3q3 50 17 117l16 8l149 -22l-8 163l4 4q79 7 166 7l7 -8l-78 -166l161 22l3 -3q-6 -65 -17 -117l-16 -8l-151 22l-8 -294z" />
<glyph unicode="&#x2021;" horiz-adv-x="507" d="M113 -10l-7 8l87 169l-163 -35l-13 8q22 94 37 137l4 3l154 -35q-4 76 1 100q6 29 42 100l-169 -35l-4 3q6 64 23 137l15 8l149 -35l-16 166l4 4q84 7 178 7l7 -8l-87 -169l166 35l4 -3q-10 -80 -22 -137l-16 -8l-151 35q4 -76 -1 -100q-6 -29 -42 -100l166 35l12 -8 q-14 -70 -36 -137l-4 -3l-152 35l16 -166l-4 -4q-84 -7 -178 -7z" />
<glyph unicode="&#x2022;" horiz-adv-x="525" d="M221 88q-57 0 -92.5 32.5t-35.5 83.5q0 74 67.5 135.5t148.5 61.5q54 0 87 -31t33 -84q0 -77 -63.5 -137.5t-144.5 -60.5z" />
<glyph unicode="&#x2026;" horiz-adv-x="850" d="M227 124q0 -51 -43 -92.5t-97 -41.5q-37 0 -58 20t-21 51q0 49 45 90.5t99 41.5q34 0 54.5 -19t20.5 -50zM501 124q0 -51 -43 -92.5t-97 -41.5q-37 0 -58 20t-21 51q0 49 45 90.5t99 41.5q34 0 54.5 -19t20.5 -50zM775 124q0 -51 -43 -92.5t-97 -41.5q-37 0 -58 20 t-21 51q0 49 45 90.5t99 41.5q34 0 54.5 -19t20.5 -50z" />
<glyph unicode="&#x2030;" horiz-adv-x="1495" d="M507 547q0 -102 -75 -176.5t-184 -74.5q-73 0 -117.5 38.5t-44.5 112.5q0 102 77 178.5t184 76.5q74 0 117 -40.5t43 -114.5zM793 700l-425 -710h-65l424 710h66zM240 434q0 -55 30 -55q38 0 60.5 65t22.5 124q0 52 -30 52q-38 0 -60.5 -64t-22.5 -122zM977 175 q0 -102 -75 -176.5t-184 -74.5q-73 0 -117.5 38.5t-44.5 112.5q0 102 77 178.5t184 76.5q74 0 117 -40.5t43 -114.5zM1439 175q0 -102 -75 -176.5t-184 -74.5q-73 0 -117.5 38.5t-44.5 112.5q0 102 77 178.5t184 76.5q74 0 117 -40.5t43 -114.5zM710 62q0 -55 30 -55 q38 0 60.5 65t22.5 124q0 52 -30 52q-38 0 -60.5 -64t-22.5 -122zM1172 62q0 -55 30 -55q38 0 60.5 65t22.5 124q0 52 -30 52q-38 0 -60.5 -64t-22.5 -122z" />
<glyph unicode="&#x2039;" horiz-adv-x="299" d="M44 269l10 48q106 74 212 183l42 -18q-43 -96 -126 -189q45 -98 46 -189l-50 -18q-63 115 -134 183z" />
<glyph unicode="&#x203a;" horiz-adv-x="299" d="M273 317l-10 -48q-106 -74 -212 -183l-42 18q43 96 126 189q-45 98 -46 189l50 18q63 -115 134 -183z" />
<glyph unicode="&#x2044;" horiz-adv-x="479" d="M654 700l-576 -710h-65l575 710h66z" />
<glyph unicode="&#x2070;" horiz-adv-x="454" d="M544 610q0 -107 -73.5 -186.5t-176.5 -79.5q-68 0 -108.5 39t-40.5 114q0 107 75 188t177 81q69 0 108 -41t39 -115zM279 478q0 -61 33 -61q42 0 70.5 73.5t28.5 140.5q0 61 -34 61q-41 0 -69.5 -72.5t-28.5 -141.5z" />
<glyph unicode="&#x2074;" horiz-adv-x="437" d="M144 512l204 248l149 6l12 -13l-48 -229q18 1 54 5l-27 -93h-46l-18 -84h-126l18 84h-174zM254 524v-2h11.5t28 0.5t40.5 0.5l8 40q18 78 31 119h-2z" />
<glyph unicode="&#x2075;" horiz-adv-x="414" d="M136 358l29 84q32 -14 80 -14q38 0 64 15t26 42q0 39 -52 39q-38 0 -88 -18l-15 10l51 242h177q64 0 105 6l-28 -101h-167l-13 -60q27 5 53 5q54 0 86 -27t32 -76q0 -71 -64 -116t-165 -45q-62 0 -111 14z" />
<glyph unicode="&#x2076;" horiz-adv-x="419" d="M290 344q-67 0 -108 33.5t-41 103.5q0 110 93 197.5t218 87.5q40 0 58 -6l-30 -88q-24 6 -45 6q-37 0 -75.5 -22.5t-58.5 -64.5h2q35 7 62 7q56 0 88 -24.5t32 -72.5q0 -65 -56 -111t-139 -46zM315 525q-14 0 -32 -6q-12 -33 -12 -63q0 -39 24 -39q22 0 36 21.5t14 49.5 q0 37 -30 37z" />
<glyph unicode="&#x2077;" horiz-adv-x="369" d="M169 651l31 107h304l13 -14l-14 -67q-96 -73 -146.5 -150t-73.5 -175h-138q26 92 89 174t146 135v2h-66q-89 0 -145 -12z" />
<glyph unicode="&#x2078;" horiz-adv-x="441" d="M285 344q-70 0 -110 25t-40 68q0 41 35.5 74t88.5 51v2q-59 39 -59 83q0 50 55 84.5t134 34.5q67 0 100.5 -26t33.5 -60q0 -30 -26 -60t-70 -48v-2q75 -35 75 -93q0 -56 -61.5 -94.5t-155.5 -38.5zM370 699q-19 0 -32.5 -12.5t-13.5 -29.5q0 -29 38 -47q39 32 39 63 q0 12 -8.5 19t-22.5 7zM320 514q-26 -10 -42 -29t-16 -39q0 -16 12 -26t33 -10q28 0 47 15t19 37q0 33 -53 52z" />
<glyph unicode="&#x2079;" horiz-adv-x="419" d="M289 502q-56 0 -88 27t-32 77q0 67 54 113.5t133 46.5q68 0 113.5 -38.5t45.5 -115.5q0 -107 -84.5 -187.5t-218.5 -80.5q-34 0 -55 5l16 86q34 -4 47 -4q51 0 82.5 19t50.5 60q-37 -8 -64 -8zM351 685q-19 0 -30.5 -22t-11.5 -49q0 -40 34 -40q13 0 26 3q9 36 9 63 q0 45 -27 45z" />
<glyph unicode="&#x207f;" horiz-adv-x="488" d="M278 596q30 46 70 70t82 24q39 0 59.5 -21.5t20.5 -58.5q0 -34 -25 -143q-22 -97 -21 -175h-150q0 79 19 164q16 72 16 83q0 26 -19 26q-38 0 -70.5 -86t-33.5 -187h-150q0 90 44 280l5 110l157 8q0 -33 -7 -94h3z" />
<glyph unicode="&#x2080;" horiz-adv-x="454" d="M454 186q0 -107 -73.5 -186.5t-176.5 -79.5q-68 0 -108.5 39t-40.5 114q0 107 75 188t177 81q69 0 108 -41t39 -115zM189 54q0 -61 33 -61q42 0 70.5 73.5t28.5 140.5q0 61 -34 61q-41 0 -69.5 -72.5t-28.5 -141.5z" />
<glyph unicode="&#x2081;" horiz-adv-x="306" d="M156 224h-2l-59 -4l-2 75l206 49l12 -14l-85 -400h-134l46 215q16 72 18 79z" />
<glyph unicode="&#x2082;" horiz-adv-x="389" d="M40 -70l3 83q36 19 68.5 39.5t66 47.5t53 57t19.5 58q0 19 -11.5 30t-32.5 11q-45 0 -107 -41l8 96q76 33 153 33q62 0 98.5 -27.5t36.5 -74.5q0 -64 -65.5 -122t-157.5 -96h62q54 0 106 6l-28 -100h-272z" />
<glyph unicode="&#x2083;" horiz-adv-x="391" d="M109 310q72 32 150 32q56 0 90 -22t34 -57t-32 -67.5t-77 -45.5q42 -7 65.5 -30.5t23.5 -55.5q0 -61 -65 -102.5t-160 -41.5q-66 0 -112 14l29 80q31 -14 81 -14q37 0 62.5 14t25.5 35q0 32 -67 32q-18 0 -70 -4l17 80q59 2 97 21t38 47q0 29 -40 29q-47 0 -102 -25z" />
<glyph unicode="&#x2084;" horiz-adv-x="437" d="M54 90l204 248l149 6l12 -13l-48 -229q18 1 54 5l-27 -93h-46l-18 -84h-126l18 84h-174zM164 102v-2h11.5t28 0.5t40.5 0.5l8 40q18 78 31 119h-2z" />
<glyph unicode="&#x2085;" horiz-adv-x="414" d="M46 -66l29 84q31 -14 80 -14q38 0 64 15t26 42q0 39 -52 39q-38 0 -88 -18l-15 10l51 242h177q64 0 105 6l-28 -101h-167l-13 -60q27 5 53 5q54 0 86 -27t32 -76q0 -71 -64 -116t-165 -45q-62 0 -111 14z" />
<glyph unicode="&#x2086;" horiz-adv-x="419" d="M200 -80q-67 0 -108 33.5t-41 103.5q0 110 93 197.5t218 87.5q40 0 58 -6l-30 -88q-24 6 -45 6q-37 0 -75.5 -22.5t-58.5 -64.5h2q35 7 62 7q56 0 88 -24.5t32 -72.5q0 -65 -56 -111t-139 -46zM225 101q-14 0 -32 -6q-12 -33 -12 -63q0 -39 24 -39q22 0 36 21.5t14 49.5 q0 37 -30 37z" />
<glyph unicode="&#x2087;" horiz-adv-x="369" d="M79 229l31 107h304l13 -14l-14 -67q-96 -73 -146.5 -150t-73.5 -175h-138q26 92 89 174t146 135v2h-66q-89 0 -145 -12z" />
<glyph unicode="&#x2088;" horiz-adv-x="441" d="M195 -80q-70 0 -110 25t-40 68q0 41 35.5 74t88.5 51v2q-59 39 -59 83q0 50 55 84.5t134 34.5q67 0 100.5 -26t33.5 -60q0 -30 -26 -60t-70 -48v-2q75 -35 75 -93q0 -56 -61.5 -94.5t-155.5 -38.5zM280 275q-19 0 -32.5 -12.5t-13.5 -29.5q0 -29 38 -47q39 32 39 63 q0 12 -8.5 19t-22.5 7zM230 90q-26 -10 -42 -29t-16 -39q0 -16 12 -26t33 -10q28 0 47 15t19 37q0 33 -53 52z" />
<glyph unicode="&#x2089;" horiz-adv-x="419" d="M199 78q-56 0 -88 27t-32 77q0 67 54 113.5t133 46.5q68 0 113.5 -38.5t45.5 -115.5q0 -107 -84.5 -187.5t-218.5 -80.5q-34 0 -55 5l16 86q34 -4 47 -4q51 0 82.5 19t50.5 60q-37 -8 -64 -8zM261 261q-19 0 -30.5 -22t-11.5 -49q0 -40 34 -40q13 0 26 3q9 36 9 63 q0 45 -27 45z" />
<glyph unicode="&#x20ac;" horiz-adv-x="586" d="M18 247l18 60h54q3 24 15 70h-48l18 60h53q52 117 152.5 190t219.5 73q93 0 148 -40l-67 -155q-65 45 -113 45q-43 0 -82 -31t-66 -82h172l-18 -60h-178q-11 -35 -14 -70h171l-18 -60h-154q10 -107 104 -107q62 0 131 38l-11 -148q-83 -40 -176 -40q-119 0 -181.5 63.5 t-62.5 185.5v8h-67z" />
<glyph unicode="&#x2122;" horiz-adv-x="568" d="M611 692l8 -7l-26 -225h-72l9 78q4 29 15 88h-2q-15 -45 -34 -88l-35 -78h-81l-1 78q0 58 4 89h-1q-19 -74 -24 -89l-25 -78h-60l72 229l104 3v-42q0 -54 -8 -123h1q27 85 45 123l18 39zM205 460h-74l38 175q-22 0 -68 -2l16 56h201l-8 -56q-48 2 -67 2z" />
<glyph unicode="&#x2202;" horiz-adv-x="715" d="M466 760q252 0 252 -273q0 -132 -55 -245.5t-156 -182.5t-224 -69q-102 0 -158 48t-56 133q0 123 107 214.5t257 91.5q51 0 92 -13v6q0 155 -127 155q-91 0 -177 -63l-33 113q126 85 278 85zM263 196q0 -70 66 -70q61 0 106 57.5t69 143.5q-33 14 -75 14 q-73 0 -119.5 -41.5t-46.5 -103.5z" />
<glyph unicode="&#x220f;" horiz-adv-x="769" d="M871 670l-29 -114h-70l-148 -696h-180l148 696h-179l-148 -696h-180l148 696h-70l23 134h669z" />
<glyph unicode="&#x2211;" horiz-adv-x="600" d="M31 -20l282 295l-157 295l56 120h495l16 -20l-30 -120l-344 9l139 -262l-9 -44l-249 -262l350 9l-30 -140h-515z" />
<glyph unicode="&#x2212;" d="M541 303h-450l18 85q172 5 453 5l6 -8z" />
<glyph unicode="&#x221a;" horiz-adv-x="656" d="M792 731l-364 -731h-189l-48 366h-108l28 134h237l23 -370l269 630l146 -10z" />
<glyph unicode="&#x221e;" horiz-adv-x="795" d="M786 397q0 -100 -69 -173.5t-163 -73.5q-57 0 -91.5 27t-59.5 75q-97 -102 -208 -102q-65 0 -103 39t-38 104q0 100 69 173.5t162 73.5q102 0 153 -100q97 100 206 100q66 0 104 -39t38 -104zM609 450q-36 0 -74 -24t-67 -61l1 -4q20 -60 43.5 -90.5t63.5 -30.5 q44 0 78 40t34 93q0 35 -21.5 56t-57.5 21zM152 318q0 -36 21 -56.5t58 -20.5q34 0 74.5 25.5t66.5 58.5q0 1 -1 2.5t-1 2.5q-13 33 -20.5 49t-20.5 35.5t-29 27.5t-37 8q-45 0 -78 -39t-33 -93z" />
<glyph unicode="&#x222b;" horiz-adv-x="501" d="M69 -260q-73 0 -132 25l38 132q56 -42 105 -42q38 0 53 69q14 63 26 312q12 234 31 319q32 142 124 184q47 21 114 21q77 0 136 -25l-38 -132q-62 42 -107 42q-13 0 -22.5 -4t-16.5 -14t-11.5 -22t-8 -33t-5 -40.5t-3.5 -52t-2.5 -61t-2.5 -72.5t-4 -82 q-13 -254 -25 -306q-47 -218 -249 -218z" />
<glyph unicode="&#x2248;" d="M462 353q-25 0 -133.5 25t-123.5 25q-10 0 -69 -57l-44 34q90 119 139 119q25 0 134.5 -25t123.5 -25q2 0 5.5 1.5t7.5 4.5t8.5 6.5t10.5 9.5t11 10.5t13 12t13 12.5l44 -34q-27 -34 -44.5 -54.5t-45.5 -42.5t-50 -22zM415 129q-25 0 -133.5 25t-123.5 25q-10 0 -69 -57 l-44 34q90 119 139 119q25 0 134.5 -25t123.5 -25q2 0 5.5 1.5t7.5 4.5t8.5 6.5t10.5 9.5t11 10.5t13 12t13 12.5l44 -34q-27 -34 -44.5 -54.5t-45.5 -42.5t-50 -22z" />
<glyph unicode="&#x2260;" d="M122 132l54 78h-104l18 85q44 1 147 3l77 112h-199l18 85q53 2 243 4l76 110l11 3l65 -40l-50 -72h108l6 -8l-27 -82h-149l-77 -111q79 1 204 1l6 -8l-27 -82h-244l-80 -115l-11 -3z" />
<glyph unicode="&#x2264;" d="M245 357l287 -118l-20 -90l-427 177l12 55l8 11q319 112 494 168l-19 -90zM472 0h-450l18 85q172 5 453 5l6 -8z" />
<glyph unicode="&#x2265;" d="M63 145l20 93l342 116l-292 115l19 90q232 -88 423 -168l3 -11l-13 -64zM483 0h-450l18 85q172 5 453 5l6 -8z" />
<glyph unicode="&#x25ca;" horiz-adv-x="600" d="M53 319l10 46l278 325l99 10l146 -336l-10 -45l-281 -319l-98 -10zM258 62h1l234 280l-114 287h-1l-232 -288z" />
<glyph unicode="&#x25fc;" horiz-adv-x="510" d="M0 510h510v-510h-510v510z" />
<glyph unicode="&#xfb00;" horiz-adv-x="716" d="M305 536q-2 -10 -9 -56h136q10 60 11 67q6 31 18 56q-27 22 -67 22q-32 0 -56 -22t-33 -67zM-13 -250l-57 60q71 109 100 250l71 335l-69 5l13 60l74 20q3 26 9 56q20 97 97 150.5t185 53.5q83 0 139 -29q73 49 178 49q90 0 140 -34l-63 -131q-53 35 -100 35 q-65 0 -81 -69q-4 -20 -8 -46t-6 -35h123l8 -18l-20 -72l-126 4l-61 -286q-31 -148 -79 -229.5t-156 -138.5l-57 60q71 109 100 250l73 345h-133l-59 -277q-31 -148 -79 -229.5t-156 -138.5z" />
<glyph unicode="&#xfb01;" horiz-adv-x="623" d="M-13 -250l-57 60q71 109 100 250l71 335l-69 5l13 60l74 20q2 24 10 62q21 104 95 161t185 57q70 0 125 -19.5t86 -50.5l-105 -106q-59 46 -123 46q-68 0 -84 -79q-10 -49 -12 -71h119l189 30q0 -64 -37 -245t-37 -265h-180q0 96 37 267l20 92l2 31l-128 4l-59 -276 q-32 -149 -79.5 -230t-155.5 -138z" />
<glyph unicode="&#xfb02;" horiz-adv-x="619" d="M308 551q-10 -49 -12 -71h135l28 129v6q-31 15 -67 15q-68 0 -84 -79zM-13 -250l-57 60q71 109 100 250l71 335l-69 5l13 60l74 20q2 24 10 62q21 104 95 161t185 57q45 0 83 -9l164 9q0 -93 -63.5 -378t-63.5 -382h-180q0 96 61 380l2 10l-131 4l-59 -276 q-32 -149 -79.5 -230t-155.5 -138z" />
<glyph unicode="&#xfb03;" horiz-adv-x="936" d="M305 536q-2 -10 -9 -56h136q2 24 10 62q9 40 20 65q-29 18 -65 18q-73 0 -92 -89zM-13 -250l-57 60q71 109 100 250l71 335l-69 5l13 60l74 20q6 45 9 56q24 100 98 152t184 52q81 0 142 -26q71 46 170 46q70 0 125 -19.5t86 -50.5l-105 -106q-59 46 -123 46 q-68 0 -84 -79q-10 -49 -12 -71h119l189 30q0 -64 -37 -245t-37 -265h-180q0 96 37 267l20 92l2 31l-128 4l-59 -276q-32 -149 -79.5 -230t-155.5 -138l-57 60q71 109 100 250l71 335h-133l-59 -277q-31 -148 -79 -229.5t-156 -138.5z" />
<glyph unicode="&#xfb04;" horiz-adv-x="932" d="M621 551q-10 -49 -12 -71h135l28 129v6q-32 15 -67 15q-68 0 -84 -79zM305 536q-2 -10 -9 -56h136q2 24 10 62q5 28 19 61q-27 22 -64 22q-73 0 -92 -89zM-13 -250l-57 60q71 109 100 250l71 335l-69 5l13 60l74 20q6 45 9 56q24 100 98 152t184 52q81 0 139 -29 q70 49 173 49q46 0 83 -9l164 9q0 -93 -63.5 -378t-63.5 -382h-180q0 96 61 380l2 10l-131 4l-59 -276q-32 -149 -79.5 -230t-155.5 -138l-57 60q71 109 100 250l71 335h-133l-59 -277q-31 -148 -79 -229.5t-156 -138.5z" />
<glyph unicode="&#xfb06;" horiz-adv-x="837" d="M449 485l-38 -132q-70 42 -133 42q-25 0 -41.5 -10t-16.5 -26t18 -29.5t44 -25.5t52 -27t44 -43t18 -65q0 -79 -73.5 -129t-176.5 -50q-47 0 -93 10.5t-70 28.5l37 129q36 -24 79.5 -38.5t74.5 -14.5q26 0 40.5 10t14.5 26t-18 29.5t-44 25.5t-52 28t-44 43t-18 63 q0 78 75 129t177 51q21 0 46 -3q-2 20 -2 28q0 88 73.5 151.5t182.5 63.5q74 0 116.5 -30.5t42.5 -83.5q0 -78 -90 -136h193l8 -20l-23 -70l-140 4q-51 -242 -51 -253q0 -46 50 -46q36 0 82 24l-13 -108q-74 -41 -157 -41q-145 0 -145 139q0 8 0.5 15.5t1.5 15t3.5 21 t4.5 25.5t7.5 36t9.5 44.5t12.5 59t15.5 72.5l-55 2l13 60q44 14 68.5 46.5t24.5 65.5q0 51 -51 51q-39 0 -70 -34t-31 -79q0 -23 17 -45z" />
<glyph horiz-adv-x="335" d="M461 853l-16 -29q-141 -61 -310 -63l-3 41q135 70 241 142zM-37 -202l-38 62q95 106 132 280l77 363q20 96 23 178l185 19l15 -19l-115 -541q-29 -135 -87 -209t-192 -133z" />
<glyph horiz-adv-x="288" d="M337 766l4 -30q-79 -95 -192 -170l-68 10q66 119 98 198zM-31 -260l-57 60q71 109 100 250l65 309l8 141l189 10q0 -24 -3.5 -57t-14 -86.5t-15 -79t-20 -99t-17.5 -80.5q-31 -148 -79 -229.5t-156 -138.5z" />
<glyph horiz-adv-x="486" d="M3 55q0 67 30 128t96.5 104t155.5 43q101 0 168 -34l-31 -143q-34 -156 -34 -229h-150q0 41 12 117q-18 -51 -58 -84t-89 -33q-47 0 -73.5 35.5t-26.5 95.5zM157 85q0 -44 28 -44q27 0 54.5 46t39.5 106q7 37 10 48q-18 8 -30 8q-39 0 -70.5 -55t-31.5 -109z" />
<glyph horiz-adv-x="482" d="M76 407l5 110l158 8q0 -15 -1 -32t-4.5 -40.5t-5.5 -37.5t-8.5 -46t-8.5 -42.5t-11 -49.5t-10 -46q23 45 59.5 72t78.5 27q47 0 73.5 -34.5t26.5 -94.5q0 -66 -29.5 -127.5t-95 -105.5t-152.5 -44q-104 0 -159 36q-3 39 46 268zM245 213q-29 0 -58 -58.5t-39 -143.5 q14 -6 26 -6q39 0 69.5 50t30.5 104t-29 54zM148 11l2 18l-3 -18h1z" />
<glyph horiz-adv-x="400" d="M323 45l16 -61q-76 -60 -179 -60q-76 0 -121 40.5t-45 115.5q0 101 75 175.5t186 74.5q66 0 119 -19l-31 -110q-49 34 -93 34t-73 -38t-29 -96q0 -82 73 -82q47 0 102 26z" />
<glyph horiz-adv-x="477" d="M373 -68h-150q-1 40 7 99q-19 -47 -57 -77t-82 -30q-47 0 -74 36t-27 97q0 50 18.5 98t53 87.5t88 63.5t118.5 24q15 0 23 -1l17 78l5 110l157 8q1 -66 -34 -231q-3 -12 -14.5 -64t-15.5 -70.5t-12.5 -60.5t-11.5 -64.5t-6 -52t-3 -50.5zM144 90q0 -49 27 -49t52 44.5 t38 107.5q2 6 4.5 18t3.5 17l3 12q-16 9 -30 9q-38 0 -68 -51.5t-30 -107.5z" />
<glyph horiz-adv-x="432" d="M320 45l16 -61q-31 -28 -79 -44t-99 -16q-75 0 -120 38t-45 113q0 101 76 178t187 77q63 0 101.5 -27t38.5 -73q0 -62 -69 -102.5t-180 -45.5q3 -63 71 -63q47 0 102 26zM233 252q-31 0 -52.5 -40.5t-29.5 -89.5q47 12 78 39t31 60q0 31 -27 31z" />
<glyph horiz-adv-x="355" d="M-14 -266l-48 49q58 91 80 200l54 252l-56 5l11 49l60 16q7 41 9 52q17 81 79 124.5t153 43.5q75 0 116 -27l-51 -108q-43 27 -82 27q-54 0 -65 -49q-3 -17 -6.5 -37t-4.5 -26h100l7 -15l-16 -59l-104 3l-44 -202q-26 -120 -64.5 -186t-127.5 -112z" />
<glyph horiz-adv-x="443" d="M113 -263q-87 0 -140 27t-53 67q0 56 105 83l28 -25v-13q0 -33 23.5 -53t61.5 -20q30 0 49 10.5t19 26.5q0 5 -2 9.5t-6 8.5t-8.5 7t-12.5 7.5t-13.5 7t-17 7.5t-17.5 8q-24 11 -37 18.5t-24 20t-11 27.5q0 34 40.5 55t77.5 19v2q-22 0 -43 3q-52 8 -84.5 42t-32.5 87 q0 76 64.5 118.5t149.5 42.5q151 0 201 10q13 -10 13 -31q0 -19 -11.5 -36t-37.5 -17q-12 0 -24.5 4t-27 10.5t-22.5 9.5l-1 -2q65 -33 65 -97q0 -44 -29.5 -77.5t-64.5 -48.5t-64.5 -28t-29.5 -22q0 -10 46 -31q18 -8 28 -13t28.5 -16.5t29 -22t19 -26.5t8.5 -34 q0 -56 -70.5 -90.5t-171.5 -34.5zM245 207q0 53 -29 53q-26 0 -44 -36.5t-18 -73.5q0 -58 33 -58q26 0 42 37t16 78z" />
<glyph horiz-adv-x="489" d="M150 -68h-150q0 74 47 296l38 179l5 110l158 8q0 -79 -49 -289h3q59 94 150 94q39 0 61 -22t22 -63q0 -18 -38 -195q-11 -44 -9 -118h-150q-1 64 32 223q3 14 3 25q0 25 -19 25q-38 0 -70.5 -86.5t-33.5 -186.5z" />
<glyph horiz-adv-x="252" d="M239 474q0 -40 -35.5 -72.5t-78.5 -32.5q-30 0 -48 16.5t-18 42.5q0 40 37.5 72.5t79.5 32.5q28 0 45.5 -16t17.5 -43zM150 -68h-150q0 80 28 208l16 72l5 110l157 8q1 -49 -28 -191t-28 -207z" />
<glyph horiz-adv-x="249" d="M236 474q0 -40 -35.5 -72.5t-78.5 -32.5q-30 0 -48 16.5t-18 42.5q0 40 37.5 72.5t79.5 32.5q28 0 45.5 -16t17.5 -43zM-40 -266l-48 49q55 87 80 200l49 229l5 110l158 8q0 -53 -52 -299q-25 -120 -64 -185.5t-128 -111.5z" />
<glyph horiz-adv-x="490" d="M454 250q0 -38 -30 -75t-82 -63q54 -119 96 -180h-186q-35 77 -47 145q99 85 99 134q0 24 -21 24q-27 0 -58 -43.5t-52.5 -115t-22.5 -144.5h-150q0 74 47 296l38 179l5 110l158 8q0 -71 -48 -289h1q29 41 75 67.5t90 26.5q41 0 64.5 -22.5t23.5 -57.5z" />
<glyph horiz-adv-x="253" d="M150 -68h-150q0 74 47 296l38 179l5 110l158 8q0 -71 -49.5 -294t-48.5 -299z" />
<glyph horiz-adv-x="726" d="M201 236q30 46 70 70t81 24q81 0 81 -87v-7h2q29 46 71.5 70t83.5 24q40 0 60.5 -21.5t20.5 -60.5q0 -30 -25 -141q-21 -94 -21 -175h-150q0 67 22 173q13 65 13 76q0 24 -20 24q-37 0 -69.5 -74t-33.5 -177v-22h-150q0 79 19 164q16 72 16 83q0 26 -19 26 q-38 0 -70.5 -86t-33.5 -187h-150q0 90 44 280l5 110l157 8q0 -33 -7 -94h3z" />
<glyph horiz-adv-x="488" d="M201 236q30 46 70 70t82 24q39 0 59.5 -21.5t20.5 -58.5q0 -34 -25 -143q-22 -97 -21 -175h-150q0 79 19 164q16 72 16 83q0 26 -19 26q-38 0 -70.5 -86t-33.5 -187h-150q0 90 44 280l5 110l157 8q0 -33 -7 -94h3z" />
<glyph horiz-adv-x="458" d="M414 175q0 -102 -75 -176.5t-184 -74.5q-73 0 -117.5 38.5t-44.5 112.5q0 102 77 178.5t184 76.5q74 0 117 -40.5t43 -114.5zM147 62q0 -55 30 -55q38 0 60.5 65t22.5 124q0 52 -30 52q-38 0 -60.5 -64t-22.5 -122z" />
<glyph horiz-adv-x="488" d="M156 -76q-16 0 -25 1q-25 -124 -24 -180h-150q-1 72 46 288l39 179l5 110l158 8q0 -42 -11 -105q20 46 58 75.5t83 29.5q47 0 73 -33.5t26 -93.5q0 -66 -29.5 -128t-95 -106.5t-153.5 -44.5zM253 213q-27 0 -52.5 -43.5t-39.5 -106.5q-2 -9 -5.5 -25t-5.5 -25 q16 -8 29 -8q38 0 69.5 56.5t31.5 105.5q0 46 -27 46z" />
<glyph horiz-adv-x="468" d="M104 -76q-48 0 -75 36t-27 95q0 106 78.5 190.5t203.5 84.5q98 0 164 -36l-71 -325q-34 -157 -34 -224h-150q-1 59 44 273q-20 -42 -56 -68t-77 -26zM156 86q0 -45 27 -45q26 0 51 41.5t39 106.5l11 53q-11 7 -25 7q-40 0 -71.5 -57t-31.5 -106z" />
<glyph horiz-adv-x="359" d="M149 -68h-150q0 80 28 208l16 72l5 110l157 8q0 -54 -18 -141h3q25 74 57 107.5t64 33.5q17 0 34 -9t24 -21l-69 -139q-24 9 -48 9q-51 0 -74.5 -58t-28.5 -180z" />
<glyph horiz-adv-x="381" d="M350 311l-30 -110q-58 34 -110 34q-46 0 -46 -24q0 -12 15 -21.5t36 -18.5t42.5 -21t36.5 -34t15 -51q0 -63 -59.5 -102t-144.5 -39q-91 0 -135 31l30 107q65 -43 127 -43q43 0 43 24q0 13 -22.5 26t-50 24t-50 36t-22.5 60q0 61 61.5 101t144.5 40q67 0 119 -19z" />
<glyph horiz-adv-x="352" d="M320 248l-115 3q-39 -178 -39 -188q0 -35 41 -35q29 0 67 19l-10 -90q-60 -33 -129 -33q-59 0 -90 29t-31 85q0 27 42 217l-53 2l10 49l61 16l59 104l93 6l16 -17l-22 -93h112l7 -16z" />
<glyph horiz-adv-x="480" d="M4 11q0 17 38 201l6 110l157 8q0 -32 -6.5 -74t-17 -92t-13.5 -65q0 -1 -1.5 -11t-1.5 -15q0 -24 18 -24q25 0 48 44.5t37 112.5q8 41 11 85q1 10 1 31l158 8q-6 -58 -50 -283q-9 -46 -9 -115h-150q0 51 5 87h-3q-29 -49 -68 -72t-78 -23q-40 0 -60.5 23t-20.5 64z" />
<glyph horiz-adv-x="440" d="M54 -68q-8 254 -34 390l162 8q15 -149 -5 -309h3q84 160 99 297q24 12 59 12q74 0 74 -53q0 -48 -54.5 -151.5t-131.5 -193.5h-172z" />
<glyph horiz-adv-x="727" d="M624 330q74 0 74 -53q0 -50 -56.5 -156t-129.5 -189h-172q15 129 19 246h-2q-54 -135 -131 -246h-171q-11 265 -35 390l162 8q15 -144 -4 -308h2q90 163 104 300h184q15 -132 -5 -300h3q37 70 64.5 152t34.5 144q24 12 59 12z" />
<glyph horiz-adv-x="429" d="M-38 -68q4 54 44.5 113t109.5 99q-49 109 -111 178l154 8q38 -39 77 -128q38 55 37 114q25 14 62 14q34 0 54 -12.5t20 -36.5q0 -32 -37.5 -79.5t-99.5 -85.5q45 -110 90 -184h-154q-26 45 -58 130q-19 -20 -33 -58t-13 -72h-142z" />
<glyph horiz-adv-x="441" d="M339 330q73 0 73 -51q0 -41 -44 -130.5t-107.5 -181t-145.5 -161t-148 -69.5q-36 0 -57 22t-21 59q0 30 15 54q29 -8 67 -8q54 0 100 17t68 51h-85q-8 256 -34 390l162 8q15 -150 -5 -309h3q37 71 64.5 153t34.5 144q24 12 60 12z" />
<glyph horiz-adv-x="425" d="M13 -76l-47 71q118 99 240 210q-40 9 -64 9q-63 0 -99 -45l-39 25q25 78 60.5 107t86.5 29q29 0 85 -11t80 -13q18 16 26 24q48 0 48 -42q0 -35 -51 -84.5t-200 -156.5q11 3 22 3q10 0 40.5 -4t41.5 -4q54 0 81 54l48 -30q-21 -81 -54.5 -111.5t-87.5 -30.5 q-35 0 -86 12.5t-66 12.5q-31 0 -65 -25z" />
<glyph horiz-adv-x="486" d="M79 415q0 67 30 128t96.5 104t155.5 43q101 0 168 -34l-31 -143q-34 -156 -34 -229h-150q0 41 12 117q-18 -51 -58 -84t-89 -33q-47 0 -73.5 35.5t-26.5 95.5zM233 445q0 -44 28 -44q27 0 54.5 46t39.5 106q7 37 10 48q-18 8 -30 8q-39 0 -70.5 -55t-31.5 -109z" />
<glyph horiz-adv-x="482" d="M152 767l5 110l158 8q0 -15 -1 -32t-4.5 -40.5t-5.5 -37.5t-8.5 -46t-8.5 -42.5t-11 -49.5t-10 -46q23 45 59.5 72t78.5 27q47 0 73.5 -34.5t26.5 -94.5q0 -66 -29.5 -127.5t-95 -105.5t-152.5 -44q-104 0 -159 36q-3 39 46 268zM321 573q-29 0 -58 -58.5t-39 -143.5 q13 -6 26 -6q39 0 69.5 50t30.5 104t-29 54zM224 371l2 18l-3 -18h1z" />
<glyph horiz-adv-x="400" d="M400 405l16 -61q-76 -60 -179 -60q-76 0 -121 40.5t-45 115.5q0 101 75 175.5t186 74.5q66 0 119 -19l-31 -110q-49 34 -93 34t-73 -38t-29 -96q0 -82 73 -82q47 0 102 26z" />
<glyph horiz-adv-x="476" d="M449 292h-150q-1 40 7 99q-19 -47 -57 -77t-82 -30q-47 0 -74 36t-27 97q0 50 18.5 98t53 87.5t88 63.5t118.5 24q15 0 23 -1l17 78l5 110l157 8q1 -66 -34 -231q-3 -12 -14.5 -64t-15.5 -70.5t-12.5 -60.5t-11.5 -64.5t-6 -52t-3 -50.5zM220 450q0 -49 27 -49t52 44.5 t38 107.5q2 6 4.5 18t3.5 17l3 12q-16 9 -30 9q-38 0 -68 -51.5t-30 -107.5z" />
<glyph horiz-adv-x="433" d="M397 405l16 -61q-31 -28 -79 -44t-99 -16q-75 0 -120 38t-45 113q0 101 76 178t187 77q63 0 101.5 -27t38.5 -73q0 -62 -69 -102.5t-180 -45.5q3 -63 71 -63q47 0 102 26zM310 612q-31 0 -52.5 -40.5t-29.5 -89.5q47 12 78 39t31 60q0 31 -27 31z" />
<glyph horiz-adv-x="355" d="M62 94l-48 49q58 91 80 200l54 252l-56 5l11 49l60 16q7 41 9 52q17 81 79 124.5t153 43.5q75 0 116 -27l-51 -108q-43 27 -82 27q-54 0 -65 -49q-3 -17 -6.5 -37t-4.5 -26h100l7 -15l-16 -59l-104 3l-44 -202q-26 -120 -64.5 -186t-127.5 -112z" />
<glyph horiz-adv-x="444" d="M190 97q-87 0 -140 27t-53 67q0 56 105 83l28 -25v-13q0 -33 23.5 -53t61.5 -20q30 0 49 10.5t19 26.5q0 5 -2 9.5t-6 8.5t-8.5 7t-12.5 7.5t-13.5 7t-17 7.5t-17.5 8q-24 11 -37 18.5t-24 20t-11 27.5q0 34 40.5 55t77.5 19v2q-22 0 -43 3q-52 8 -84.5 42t-32.5 87 q0 76 64.5 118.5t149.5 42.5q151 0 201 10q13 -10 13 -31q0 -19 -11.5 -36t-37.5 -17q-12 0 -24.5 4t-27 10.5t-22.5 9.5l-1 -2q65 -33 65 -97q0 -44 -29.5 -77.5t-64.5 -48.5t-64.5 -28t-29.5 -22q0 -10 46 -31q18 -8 28 -13t28.5 -16.5t29 -22t19 -26.5t8.5 -34 q0 -56 -70.5 -90.5t-171.5 -34.5zM322 567q0 53 -29 53q-26 0 -44 -36.5t-18 -73.5q0 -58 33 -58q26 0 42 37t16 78z" />
<glyph horiz-adv-x="488" d="M226 292h-150q0 74 47 296l38 179l5 110l158 8q0 -79 -49 -289h3q59 94 150 94q39 0 61 -22t22 -63q0 -18 -38 -195q-11 -44 -9 -118h-150q-1 64 32 223q3 14 3 25q0 25 -19 25q-38 0 -70.5 -86.5t-33.5 -186.5z" />
<glyph horiz-adv-x="251" d="M315 834q0 -40 -35.5 -72.5t-78.5 -32.5q-30 0 -48 16.5t-18 42.5q0 40 37.5 72.5t79.5 32.5q28 0 45.5 -16t17.5 -43zM226 292h-150q0 80 28 208l16 72l5 110l157 8q1 -49 -28 -191t-28 -207z" />
<glyph horiz-adv-x="248" d="M312 834q0 -40 -35.5 -72.5t-78.5 -32.5q-30 0 -48 16.5t-18 42.5q0 40 37.5 72.5t79.5 32.5q28 0 45.5 -16t17.5 -43zM36 94l-48 49q55 87 80 200l49 229l5 110l158 8q0 -53 -52 -299q-25 -120 -64 -185.5t-128 -111.5z" />
<glyph horiz-adv-x="489" d="M530 610q0 -38 -30 -75t-82 -63q54 -119 96 -180h-186q-35 77 -47 145q99 85 99 134q0 24 -21 24q-27 0 -58 -43.5t-52.5 -115t-22.5 -144.5h-150q0 74 47 296l38 179l5 110l158 8q0 -71 -48 -289h1q29 41 75 67.5t90 26.5q41 0 64.5 -22.5t23.5 -57.5z" />
<glyph horiz-adv-x="252" d="M226 292h-150q0 74 47 296l38 179l5 110l158 8q0 -71 -49.5 -294t-48.5 -299z" />
<glyph horiz-adv-x="726" d="M278 596q30 46 70 70t81 24q81 0 81 -87v-7h2q29 46 71.5 70t83.5 24q40 0 60.5 -21.5t20.5 -60.5q0 -30 -25 -141q-21 -94 -21 -175h-150q0 67 22 173q13 65 13 76q0 24 -20 24q-37 0 -69.5 -74t-33.5 -177v-22h-150q0 79 19 164q16 72 16 83q0 26 -19 26 q-38 0 -70.5 -86t-33.5 -187h-150q0 90 44 280l5 110l157 8q0 -33 -7 -94h3z" />
<glyph horiz-adv-x="459" d="M491 535q0 -102 -75 -176.5t-184 -74.5q-73 0 -117.5 38.5t-44.5 112.5q0 102 77 178.5t184 76.5q74 0 117 -40.5t43 -114.5zM224 422q0 -55 30 -55q38 0 60.5 65t22.5 124q0 52 -30 52q-38 0 -60.5 -64t-22.5 -122z" />
<glyph horiz-adv-x="488" d="M184 105h-150q-1 72 46 288l39 179l5 110l158 8q0 -42 -11 -105q20 46 58 75.5t83 29.5q47 0 73 -33.5t26 -93.5q0 -66 -29.5 -128t-95 -106.5t-153.5 -44.5q-16 0 -25 1q-25 -124 -24 -180zM330 573q-27 0 -52.5 -43.5t-39.5 -106.5q-2 -8 -5.5 -25t-5.5 -25 q16 -8 29 -8q38 0 69.5 56.5t31.5 105.5q0 46 -27 46z" />
<glyph horiz-adv-x="469" d="M181 284q-48 0 -75 36t-27 95q0 106 78.5 190.5t203.5 84.5q98 0 164 -36l-71 -325q-34 -157 -34 -224h-150q-1 59 44 273q-20 -42 -56 -68t-77 -26zM233 446q0 -45 27 -45q26 0 51 41.5t39 106.5l11 53q-11 7 -25 7q-40 0 -71.5 -57t-31.5 -106z" />
<glyph horiz-adv-x="360" d="M226 292h-150q0 80 28 208l16 72l5 110l157 8q0 -54 -18 -141h3q25 74 57 107.5t64 33.5q17 0 34 -9t24 -21l-69 -139q-24 9 -48 9q-51 0 -74.5 -58t-28.5 -180z" />
<glyph horiz-adv-x="381" d="M427 671l-30 -110q-58 34 -110 34q-46 0 -46 -24q0 -12 15 -21.5t36.5 -18.5t42.5 -21t36 -34t15 -51q0 -63 -59.5 -102t-144.5 -39q-91 0 -135 31l30 107q65 -43 127 -43q43 0 43 24q0 13 -22.5 26t-50 24t-50 36t-22.5 60q0 61 61.5 101t144.5 40q67 0 119 -19z" />
<glyph horiz-adv-x="352" d="M396 608l-115 3q-39 -178 -39 -188q0 -35 41 -35q29 0 67 19l-10 -90q-60 -33 -129 -33q-59 0 -90 29t-31 85q0 27 42 217l-53 2l10 49l61 16l59 104l93 6l16 -17l-22 -93h112l7 -16z" />
<glyph horiz-adv-x="480" d="M81 371q0 17 38 201l6 110l157 8q0 -32 -6.5 -74t-17 -92t-13.5 -65q0 -1 -1.5 -11t-1.5 -15q0 -24 18 -24q25 0 48 44.5t37 112.5q7 41 11 85q1 10 1 31l158 8q-6 -58 -50 -283q-9 -47 -9 -115h-150q0 51 5 87h-3q-29 -49 -68 -72t-78 -23q-40 0 -60.5 23t-20.5 64z" />
<glyph horiz-adv-x="441" d="M131 292q-8 254 -34 390l162 8q15 -149 -5 -309h3q84 160 99 297q24 12 59 12q74 0 74 -53q0 -48 -54.5 -151.5t-131.5 -193.5h-172z" />
<glyph horiz-adv-x="727" d="M701 690q74 0 74 -53q0 -50 -56.5 -156t-129.5 -189h-172q15 129 19 246h-2q-54 -135 -131 -246h-171q-11 265 -35 390l162 8q15 -144 -4 -308h2q90 163 104 300h184q15 -132 -5 -300h3q37 70 64.5 152t34.5 144q24 12 59 12z" />
<glyph horiz-adv-x="429" d="M39 292q4 54 44.5 113t109.5 99q-49 109 -111 178l154 8q38 -39 77 -128q38 55 37 114q24 14 62 14q34 0 54 -12.5t20 -36.5q0 -32 -37.5 -79.5t-99.5 -85.5q45 -110 90 -184h-154q-26 45 -58 130q-19 -20 -33 -58t-13 -72h-142z" />
<glyph horiz-adv-x="440" d="M415 690q73 0 73 -51q0 -41 -44 -130.5t-107.5 -181t-145.5 -161t-148 -69.5q-36 0 -57 22t-21 59q0 30 15 54q29 -8 67 -8q54 0 100 17t68 51h-85q-8 256 -34 390l162 8q15 -150 -5 -309h3q37 71 64.5 153t34.5 144q24 12 60 12z" />
<glyph horiz-adv-x="426" d="M90 284l-47 71q118 99 240 210q-40 9 -64 9q-63 0 -99 -45l-39 25q25 78 60.5 107t86.5 29q29 0 85 -11t80 -13q18 16 26 24q48 0 48 -42q0 -35 -51 -84.5t-200 -156.5q11 3 22 3q10 0 40.5 -4t41.5 -4q54 0 81 54l48 -30q-21 -81 -54.5 -111.5t-87.5 -30.5 q-35 0 -86 12.5t-66 12.5q-31 0 -65 -25z" />
<glyph horiz-adv-x="1073" d="M430 143l19 -73q-93 -80 -221 -80q-91 0 -144 48t-53 142q0 130 93 230t234 100q20 0 30 -1q-9 27 -9 52q0 85 82.5 142t206.5 57q67 0 149 -20q0 -82 -63 -354h3q38 62 88 93t99 31q46 0 71.5 -27.5t25.5 -77.5q0 -33 -48 -254q-13 -59 -13 -151h-180q0 83 36 257 q11 54 11 68q0 35 -24 35q-31 0 -61.5 -53t-50.5 -137t-21 -170h-180q0 102 61 380l29 133q9 44 17 94q-22 8 -46 8q-39 0 -62 -21t-23 -58q0 -35 18 -68l1 -1l-51 -134q-59 62 -118 62q-34 0 -59 -23.5t-37.5 -58.5t-18 -65.5t-5.5 -53.5q0 -89 88 -89q58 0 126 38z" />
<glyph horiz-adv-x="895" d="M430 143l19 -73q-93 -80 -225 -80q-88 0 -140.5 48.5t-52.5 142.5q0 130 93.5 229.5t237.5 99.5q23 0 47 -3q-2 18 -2 28q0 88 73.5 151.5t182.5 63.5q74 0 116.5 -30.5t42.5 -83.5q0 -78 -90 -136h193l8 -20l-23 -70l-140 4q-51 -242 -51 -253q0 -46 50 -46q36 0 82 24 l-13 -108q-74 -41 -157 -41q-145 0 -145 139q0 8 0.5 15.5t1.5 15t3.5 21t4.5 25.5t7.5 36t9.5 44.5t12.5 59t15.5 72.5l-55 2l13 60q44 14 68.5 46.5t24.5 65.5q0 51 -51 51q-39 0 -70 -34t-31 -79q0 -27 15 -53l-45 -144q-62 62 -123 62q-55 0 -88 -56t-33 -128 q0 -106 89 -106q57 0 125 38z" />
<glyph horiz-adv-x="1020" d="M637 0h-180q0 102 61 380l29 133q9 44 17 94q-22 8 -46 8q-39 0 -62 -19t-23 -52q0 -28 16 -59l-38 -132q-70 42 -133 42q-25 0 -41.5 -10t-16.5 -26t18 -29.5t44 -25.5t52 -27t44 -43t18 -65q0 -79 -73.5 -129t-176.5 -50q-47 0 -93 10.5t-70 28.5l37 129 q36 -24 79.5 -38.5t74.5 -14.5q26 0 40.5 10t14.5 26t-18 29.5t-44 25.5t-52 28t-44 43t-18 63q0 78 75 129t177 51q22 0 34 -1q-13 30 -13 61q0 81 82.5 135.5t204.5 54.5q69 0 151 -20q0 -82 -63 -354h3q38 62 88 93t99 31q46 0 71.5 -27.5t25.5 -77.5q0 -33 -48 -254 q-13 -59 -13 -151h-180q0 83 36 257q11 54 11 68q0 35 -24 35q-31 0 -61.5 -53t-50.5 -137t-21 -170z" />
<glyph horiz-adv-x="570" d="M122 0h-170l229 451q29 59 40 87l224 9l24 -24l43 -523h-179l-5 83h-166zM224 212l-4 -9h101v8q-5 91 -5 194h-5q-41 -98 -87 -193z" />
<glyph horiz-adv-x="570" d="M506 786l4 -30q-79 -95 -192 -170l-68 10q66 119 98 198zM122 0h-170l229 451q29 59 40 87l224 9l24 -24l43 -523h-179l-5 83h-166zM224 212l-4 -9h101v8q-5 91 -5 194h-5q-41 -98 -87 -193z" />
<glyph horiz-adv-x="570" d="M494 785l71 9q-22 -87 -78 -142t-127 -55q-64 0 -95.5 49t-18.5 130l72 10q0 -36 19.5 -57.5t51.5 -21.5q33 0 62 22t43 56zM122 0h-170l229 451q29 59 40 87l224 9l24 -24l43 -523h-179l-5 83h-166zM224 212l-4 -9h101v8q-5 91 -5 194h-5q-41 -98 -87 -193z" />
<glyph horiz-adv-x="600" d="M500 790l48 -40q-80 -82 -150 -164l-119 -10q-44 110 -78 174l66 40q33 -24 96 -93q88 67 137 93zM122 0h-170l229 451q29 59 40 87l224 9l24 -24l43 -523h-179l-5 83h-166zM224 212l-4 -9h101v8q-5 91 -5 194h-5q-41 -98 -87 -193z" />
<glyph horiz-adv-x="570" d="M252 572l-48 40q80 82 150 164l119 10q44 -110 78 -174l-66 -40q-33 24 -96 93q-88 -67 -137 -93zM122 0h-170l229 451q29 59 40 87l224 9l24 -24l43 -523h-179l-5 83h-166zM224 212l-4 -9h101v8q-5 91 -5 194h-5q-41 -98 -87 -193z" />
<glyph horiz-adv-x="570" d="M359 716q0 -47 -39 -84.5t-88 -37.5q-33 0 -52 18t-19 47q0 45 41 82.5t90 37.5q31 0 49 -17t18 -46zM598 716q0 -47 -39 -84.5t-88 -37.5q-33 0 -52 18t-19 47q0 45 41 82.5t90 37.5q31 0 49 -17t18 -46zM122 0h-170l229 451q29 59 40 87l224 9l24 -24l43 -523h-179 l-5 83h-166zM224 212l-4 -9h101v8q-5 91 -5 194h-5q-41 -98 -87 -193z" />
<glyph horiz-adv-x="570" d="M122 0h-170l229 451q29 59 40 87l224 9l24 -24l43 -523h-179l-5 83h-166zM224 212l-4 -9h101v8q-5 91 -5 194h-5q-41 -98 -87 -193zM308 -131q0 -50 -43.5 -91t-96.5 -41q-36 0 -57.5 20.5t-21.5 51.5q0 47 44 87.5t99 40.5q35 0 55.5 -18.5t20.5 -49.5z" />
<glyph horiz-adv-x="570" d="M404 586q-80 75 -120 170l16 30l162 8q0 -97 14 -198zM122 0h-170l229 451q29 59 40 87l224 9l24 -24l43 -523h-179l-5 83h-166zM224 212l-4 -9h101v8q-5 91 -5 194h-5q-41 -98 -87 -193z" />
<glyph horiz-adv-x="570" d="M220 638l20 96h298l-20 -96h-298zM122 0h-170l229 451q29 59 40 87l224 9l24 -24l43 -523h-179l-5 83h-166zM224 212l-4 -9h101v8q-5 91 -5 194h-5q-41 -98 -87 -193z" />
<glyph horiz-adv-x="570" d="M122 0h-170l229 451q29 59 40 87l224 9l24 -24l43 -523q-66 -28 -104 -64t-38 -69q0 -29 35 -29q26 0 57 13l12 -59q-77 -58 -157 -58q-45 0 -72.5 22.5t-27.5 60.5q0 51 48 100.5t130 82.5h-62l-5 83h-166zM224 212l-4 -9h101v8q-5 91 -5 194h-5q-41 -98 -87 -193z" />
<glyph horiz-adv-x="570" d="M514 733q0 -56 -51 -101t-114 -45q-45 0 -71.5 23t-26.5 58q0 54 53.5 99t117.5 45q42 0 67 -21.5t25 -57.5zM324 682q0 -17 11 -28t31 -11q28 0 51.5 23.5t23.5 52.5q0 37 -37 37q-30 0 -55 -23t-25 -51zM122 0h-170l229 451q29 59 40 87l224 9l24 -24l43 -523h-179 l-5 83h-166zM224 212l-4 -9h101v8q-5 91 -5 194h-5q-41 -98 -87 -193z" />
<glyph horiz-adv-x="570" d="M568 1078l4 -30q-79 -95 -192 -170l-68 10q66 119 98 198zM514 733q0 -56 -51 -101t-114 -45q-45 0 -71.5 23t-26.5 58q0 54 53.5 99t117.5 45q42 0 67 -21.5t25 -57.5zM324 682q0 -17 11 -28t31 -11q28 0 51.5 23.5t23.5 52.5q0 37 -37 37q-30 0 -55 -23t-25 -51zM122 0 h-170l229 451q29 59 40 87l224 9l24 -24l43 -523h-179l-5 83h-166zM224 212l-4 -9h101v8q-5 91 -5 194h-5q-41 -98 -87 -193z" />
<glyph horiz-adv-x="570" d="M332 782q36 0 80.5 -28.5t67.5 -28.5q18 0 31 10t30 33l48 -7q-15 -70 -52.5 -120.5t-89.5 -50.5q-32 0 -83.5 28.5t-70.5 28.5q-28 0 -59 -43l-47 7q15 71 51.5 121t93.5 50zM122 0h-170l229 451q29 59 40 87l224 9l24 -24l43 -523h-179l-5 83h-166zM224 212l-4 -9h101 v8q-5 91 -5 194h-5q-41 -98 -87 -193z" />
<glyph horiz-adv-x="736" d="M122 0h-170l254 450q28 51 41 90h458l16 -19l-28 -110l-192 7l-7 -98l170 4l-30 -116l-148 5l-7 -91l201 7l-27 -129h-362q3 17 7.5 46t5.5 37h-136q-6 -12 -21.5 -39.5t-24.5 -43.5zM336 405q-32 -70 -103 -202h90q17 107 33 202h-20z" />
<glyph horiz-adv-x="736" d="M635 786l4 -30q-79 -95 -192 -170l-68 10q66 119 98 198zM122 0h-170l254 450q28 51 41 90h458l16 -19l-28 -110l-192 7l-7 -98l170 4l-30 -116l-148 5l-7 -91l201 7l-27 -129h-362q3 17 7.5 46t5.5 37h-136q-6 -12 -21.5 -39.5t-24.5 -43.5zM336 405q-32 -70 -103 -202 h90q17 107 33 202h-20z" />
<glyph horiz-adv-x="589" d="M288 0h-272l84 394q20 85 22 146h286q82 0 127.5 -33.5t45.5 -86.5q0 -93 -113 -138q83 -30 83 -101q0 -79 -76 -130t-187 -51zM350 420h-65l-20 -96h66q28 0 46.5 17.5t18.5 43.5q0 35 -46 35zM315 214h-73l-20 -94h74q30 0 51 15.5t21 39.5q0 39 -53 39z" />
<glyph horiz-adv-x="501" d="M451 157l-9 -137q-75 -28 -171 -28q-118 0 -182 53t-64 148q0 146 109 250.5t261 104.5q95 0 150 -31l-65 -143q-62 35 -112 35q-62 0 -108 -54t-46 -127q0 -47 29 -72t82 -25q61 0 126 26z" />
<glyph horiz-adv-x="501" d="M514 786l4 -30q-79 -95 -192 -170l-68 10q66 119 98 198zM451 157l-9 -137q-75 -28 -171 -28q-118 0 -182 53t-64 148q0 146 109 250.5t261 104.5q95 0 150 -31l-65 -143q-62 35 -112 35q-62 0 -108 -54t-46 -127q0 -47 29 -72t82 -25q61 0 126 26z" />
<glyph horiz-adv-x="501" d="M535 804l48 -40q-80 -82 -150 -164l-119 -10q-44 110 -78 174l66 40q33 -24 96 -93q88 67 137 93zM451 157l-9 -137q-75 -28 -171 -28q-118 0 -182 53t-64 148q0 146 109 250.5t261 104.5q95 0 150 -31l-65 -143q-62 35 -112 35q-62 0 -108 -54t-46 -127q0 -47 29 -72 t82 -25q61 0 126 26z" />
<glyph horiz-adv-x="501" d="M357 -125q0 -63 -69.5 -99t-191.5 -36l18 60q53 3 85 19.5t32 40.5q0 30 -69 30l-13 30l40 80q-80 16 -122 66t-42 127q0 146 109 250.5t261 104.5q95 0 150 -31l-65 -143q-62 35 -112 35q-62 0 -108 -54t-46 -127q0 -47 29 -72t82 -25q61 0 126 26l-9 -137 q-75 -28 -165 -28l-22 -41q102 -14 102 -76z" />
<glyph horiz-adv-x="501" d="M260 572l-48 40q80 82 150 164l119 10q44 -110 78 -174l-66 -40q-33 24 -96 93q-88 -67 -137 -93zM451 157l-9 -137q-75 -28 -171 -28q-118 0 -182 53t-64 148q0 146 109 250.5t261 104.5q95 0 150 -31l-65 -143q-62 35 -112 35q-62 0 -108 -54t-46 -127q0 -47 29 -72 t82 -25q61 0 126 26z" />
<glyph horiz-adv-x="501" d="M496 716q0 -50 -43.5 -91t-96.5 -41q-36 0 -57.5 20.5t-21.5 51.5q0 47 44 87.5t99 40.5q35 0 55.5 -18.5t20.5 -49.5zM451 157l-9 -137q-75 -28 -171 -28q-118 0 -182 53t-64 148q0 146 109 250.5t261 104.5q95 0 150 -31l-65 -143q-62 35 -112 35q-62 0 -108 -54 t-46 -127q0 -47 29 -72t82 -25q61 0 126 26z" />
<glyph horiz-adv-x="617" d="M599 344q0 -147 -108.5 -245.5t-269.5 -98.5h-205l84 394q20 85 22 146h234q118 0 180.5 -51.5t62.5 -144.5zM321 420h-36l-63 -300h41q65 0 107 57t42 148q0 95 -91 95z" />
<glyph horiz-adv-x="617" d="M599 344q0 -147 -108.5 -245.5t-269.5 -98.5h-205l48 223h-50l16 90h53l17 81q20 85 22 146h234q118 0 180.5 -51.5t62.5 -144.5zM342 223h-99l-21 -103h41q65 0 107 57t42 148q0 95 -91 95h-36l-22 -107h96z" />
<glyph horiz-adv-x="617" d="M554 804l48 -40q-80 -82 -150 -164l-119 -10q-44 110 -78 174l66 40q33 -24 96 -93q88 67 137 93zM599 344q0 -147 -108.5 -245.5t-269.5 -98.5h-205l84 394q20 85 22 146h234q118 0 180.5 -51.5t62.5 -144.5zM321 420h-36l-63 -300h41q65 0 107 57t42 148q0 95 -91 95z " />
<glyph horiz-adv-x="617" d="M599 344q0 -147 -108.5 -245.5t-269.5 -98.5h-205l48 223h-50l16 90h53l17 81q20 85 22 146h234q118 0 180.5 -51.5t62.5 -144.5zM342 223h-99l-21 -103h41q65 0 107 57t42 148q0 95 -91 95h-36l-22 -107h96z" />
<glyph horiz-adv-x="617" d="M599 344q0 -147 -108.5 -245.5t-269.5 -98.5h-205l84 394q20 85 22 146h234q118 0 180.5 -51.5t62.5 -144.5zM321 420h-36l-63 -300h41q65 0 107 57t42 148q0 95 -91 95zM335 -131q0 -50 -43.5 -91t-96.5 -41q-36 0 -57.5 20.5t-21.5 51.5q0 47 44 87.5t99 40.5 q35 0 55.5 -18.5t20.5 -49.5z" />
<glyph horiz-adv-x="512" d="M456 129l-27 -129h-413l84 394q20 85 22 146h398l16 -19l-28 -110l-223 9l-21 -100l182 4l-30 -116l-174 6l-20 -94z" />
<glyph horiz-adv-x="512" d="M494 786l4 -30q-79 -95 -192 -170l-68 10q66 119 98 198zM456 129l-27 -129h-413l84 394q20 85 22 146h398l16 -19l-28 -110l-223 9l-21 -100l182 4l-30 -116l-174 6l-20 -94z" />
<glyph horiz-adv-x="512" d="M482 785l71 9q-22 -87 -78 -142t-127 -55q-64 0 -95.5 49t-18.5 130l72 10q0 -36 19.5 -57.5t51.5 -21.5q33 0 62 22t43 56zM456 129l-27 -129h-413l84 394q20 85 22 146h398l16 -19l-28 -110l-223 9l-21 -100l182 4l-30 -116l-174 6l-20 -94z" />
<glyph horiz-adv-x="512" d="M515 804l48 -40q-80 -82 -150 -164l-119 -10q-44 110 -78 174l66 40q33 -24 96 -93q88 67 137 93zM456 129l-27 -129h-413l84 394q20 85 22 146h398l16 -19l-28 -110l-223 9l-21 -100l182 4l-30 -116l-174 6l-20 -94z" />
<glyph horiz-adv-x="512" d="M240 572l-48 40q80 82 150 164l119 10q44 -110 78 -174l-66 -40q-33 24 -96 93q-88 -67 -137 -93zM456 129l-27 -129h-413l84 394q20 85 22 146h398l16 -19l-28 -110l-223 9l-21 -100l182 4l-30 -116l-174 6l-20 -94z" />
<glyph horiz-adv-x="512" d="M347 716q0 -47 -39 -84.5t-88 -37.5q-33 0 -52 18t-19 47q0 45 41 82.5t90 37.5q31 0 49 -17t18 -46zM586 716q0 -47 -39 -84.5t-88 -37.5q-33 0 -52 18t-19 47q0 45 41 82.5t90 37.5q31 0 49 -17t18 -46zM456 129l-27 -129h-413l84 394q20 85 22 146h398l16 -19 l-28 -110l-223 9l-21 -100l182 4l-30 -116l-174 6l-20 -94z" />
<glyph horiz-adv-x="512" d="M476 716q0 -50 -43.5 -91t-96.5 -41q-36 0 -57.5 20.5t-21.5 51.5q0 47 44 87.5t99 40.5q35 0 55.5 -18.5t20.5 -49.5zM456 129l-27 -129h-413l84 394q20 85 22 146h398l16 -19l-28 -110l-223 9l-21 -100l182 4l-30 -116l-174 6l-20 -94z" />
<glyph horiz-adv-x="512" d="M456 129l-27 -129h-413l84 394q20 85 22 146h398l16 -19l-28 -110l-223 9l-21 -100l182 4l-30 -116l-174 6l-20 -94zM304 -131q0 -50 -43.5 -91t-96.5 -41q-36 0 -57.5 20.5t-21.5 51.5q0 47 44 87.5t99 40.5q35 0 55.5 -18.5t20.5 -49.5z" />
<glyph horiz-adv-x="512" d="M392 586q-80 75 -120 170l16 30l162 8q0 -97 14 -198zM456 129l-27 -129h-413l84 394q20 85 22 146h398l16 -19l-28 -110l-223 9l-21 -100l182 4l-30 -116l-174 6l-20 -94z" />
<glyph horiz-adv-x="512" d="M208 638l20 96h298l-20 -96h-298zM456 129l-27 -129h-413l84 394q20 85 22 146h398l16 -19l-28 -110l-223 9l-21 -100l182 4l-30 -116l-174 6l-20 -94z" />
<glyph horiz-adv-x="512" d="M429 0q-66 -28 -104 -64t-38 -69q0 -29 35 -29q26 0 57 13l12 -59q-77 -58 -157 -58q-45 0 -72.5 22.5t-27.5 60.5q0 51 48 100.5t130 82.5h-296l84 394q20 85 22 146h398l16 -19l-28 -110l-223 9l-21 -100l182 4l-30 -116l-174 6l-20 -94l234 9z" />
<glyph horiz-adv-x="512" d="M320 782q36 0 80.5 -28.5t67.5 -28.5q18 0 31 10t30 33l48 -7q-15 -70 -52.5 -120.5t-89.5 -50.5q-32 0 -83.5 28.5t-70.5 28.5q-28 0 -59 -43l-47 7q15 71 51.5 121t93.5 50zM456 129l-27 -129h-413l84 394q20 85 22 146h398l16 -19l-28 -110l-223 9l-21 -100l182 4 l-30 -116l-174 6l-20 -94z" />
<glyph horiz-adv-x="563" d="M32 255l18 15h299q2 20 2 30q0 62 -29 90.5t-87 28.5q-74 0 -149 -39l17 118q78 51 198 51q114 0 178.5 -55.5t64.5 -159.5q0 -138 -103 -241t-241 -103q-88 0 -137 44t-49 111q0 49 18 110zM185 138q0 -48 41 -48q34 0 65 35.5t47 88.5l-141 -7q-12 -42 -12 -69z" />
<glyph horiz-adv-x="448" d="M176 0h-180l84 394q20 85 22 146h378l16 -19l-28 -110l-203 9l-25 -118l162 5l-30 -117l-154 7l3 13z" />
<glyph horiz-adv-x="563" d="M517 269l16 -19l-52 -229q-101 -29 -195 -29q-128 0 -194.5 53t-66.5 145q0 148 115.5 253t276.5 105q97 0 163 -32l-59 -143q-58 40 -125 40q-78 0 -130 -55t-52 -137q0 -99 116 -99h6q11 59 16 139z" />
<glyph horiz-adv-x="563" d="M524 786l4 -30q-79 -95 -192 -170l-68 10q66 119 98 198zM517 269l16 -19l-52 -229q-101 -29 -195 -29q-128 0 -194.5 53t-66.5 145q0 148 115.5 253t276.5 105q97 0 163 -32l-59 -143q-58 40 -125 40q-78 0 -130 -55t-52 -137q0 -99 116 -99h6q11 59 16 139z" />
<glyph horiz-adv-x="563" d="M512 785l71 9q-22 -87 -78 -142t-127 -55q-64 0 -95.5 49t-18.5 130l72 10q0 -36 19.5 -57.5t51.5 -21.5q33 0 62 22t43 56zM517 269l16 -19l-52 -229q-101 -29 -195 -29q-128 0 -194.5 53t-66.5 145q0 148 115.5 253t276.5 105q97 0 163 -32l-59 -143q-58 40 -125 40 q-78 0 -130 -55t-52 -137q0 -99 116 -99h6q11 59 16 139z" />
<glyph horiz-adv-x="563" d="M545 804l48 -40q-80 -82 -150 -164l-119 -10q-44 110 -78 174l66 40q33 -24 96 -93q88 67 137 93zM517 269l16 -19l-52 -229q-101 -29 -195 -29q-128 0 -194.5 53t-66.5 145q0 148 115.5 253t276.5 105q97 0 163 -32l-59 -143q-58 40 -125 40q-78 0 -130 -55t-52 -137 q0 -99 116 -99h6q11 59 16 139z" />
<glyph horiz-adv-x="563" d="M270 572l-48 40q80 82 150 164l119 10q44 -110 78 -174l-66 -40q-33 24 -96 93q-88 -67 -137 -93zM517 269l16 -19l-52 -229q-101 -29 -195 -29q-128 0 -194.5 53t-66.5 145q0 148 115.5 253t276.5 105q97 0 163 -32l-59 -143q-58 40 -125 40q-78 0 -130 -55t-52 -137 q0 -99 116 -99h6q11 59 16 139z" />
<glyph horiz-adv-x="563" d="M517 269l16 -19l-52 -229q-101 -29 -195 -29q-128 0 -194.5 53t-66.5 145q0 148 115.5 253t276.5 105q97 0 163 -32l-59 -143q-58 40 -125 40q-78 0 -130 -55t-52 -137q0 -99 116 -99h6q11 59 16 139zM122 -325q55 48 81 95q-25 5 -38 26t-7 50q7 35 38.5 61t69.5 26 q35 0 54.5 -24.5t10.5 -70.5q-21 -100 -167 -208z" />
<glyph horiz-adv-x="563" d="M506 716q0 -50 -43.5 -91t-96.5 -41q-36 0 -57.5 20.5t-21.5 51.5q0 47 44 87.5t99 40.5q35 0 55.5 -18.5t20.5 -49.5zM517 269l16 -19l-52 -229q-101 -29 -195 -29q-128 0 -194.5 53t-66.5 145q0 148 115.5 253t276.5 105q97 0 163 -32l-59 -143q-58 40 -125 40 q-78 0 -130 -55t-52 -137q0 -99 116 -99h6q11 59 16 139z" />
<glyph horiz-adv-x="644" d="M196 0h-180l82 386q18 80 24 154l170 8l16 -19l-43 -202h155l13 59q18 80 24 154l171 8l15 -19l-112 -529h-180l44 207h-155z" />
<glyph horiz-adv-x="644" d="M196 0h-180l80 378h-69l18 90h68q6 36 9 72l170 8l16 -19l-13 -61h153q6 36 9 72l171 8l15 -19l-13 -61h63l-18 -90h-64l-80 -378h-180l44 207h-155zM265 327h155l11 51h-155z" />
<glyph horiz-adv-x="644" d="M293 572l-48 40q80 82 150 164l119 10q44 -110 78 -174l-66 -40q-33 24 -96 93q-88 -67 -137 -93zM196 0h-180l82 386q18 80 24 154l170 8l16 -19l-43 -202h155l13 59q18 80 24 154l171 8l15 -19l-112 -529h-180l44 207h-155z" />
<glyph horiz-adv-x="644" d="M196 0h-180l82 386q18 80 24 154l170 8l16 -19l-43 -202h155l13 59q18 80 24 154l171 8l15 -19l-112 -529h-180l44 207h-155zM349 -131q0 -50 -43.5 -91t-96.5 -41q-36 0 -57.5 20.5t-21.5 51.5q0 47 44 87.5t99 40.5q35 0 55.5 -18.5t20.5 -49.5z" />
<glyph horiz-adv-x="309" d="M196 0h-180l82 386q19 94 24 154l170 8l16 -19z" />
<glyph horiz-adv-x="309" d="M196 0h-180l82 386q19 94 24 154l170 8l16 -19z" />
<glyph horiz-adv-x="309" d="M379 786l4 -30q-79 -95 -192 -170l-68 10q66 119 98 198zM196 0h-180l82 386q19 94 24 154l170 8l16 -19z" />
<glyph horiz-adv-x="309" d="M367 785l71 9q-22 -87 -78 -142t-127 -55q-64 0 -95.5 49t-18.5 130l72 10q0 -36 19.5 -57.5t51.5 -21.5q33 0 62 22t43 56zM196 0h-180l82 386q19 94 24 154l170 8l16 -19z" />
<glyph horiz-adv-x="309" d="M400 804l48 -40q-80 -82 -150 -164l-119 -10q-44 110 -78 174l66 40q33 -24 96 -93q88 67 137 93zM196 0h-180l82 386q19 94 24 154l170 8l16 -19z" />
<glyph horiz-adv-x="309" d="M125 572l-48 40q80 82 150 164l119 10q44 -110 78 -174l-66 -40q-33 24 -96 93q-88 -67 -137 -93zM196 0h-180l82 386q19 94 24 154l170 8l16 -19z" />
<glyph horiz-adv-x="309" d="M232 716q0 -47 -39 -84.5t-88 -37.5q-33 0 -52 18t-19 47q0 45 41 82.5t90 37.5q31 0 49 -17t18 -46zM471 716q0 -47 -39 -84.5t-88 -37.5q-33 0 -52 18t-19 47q0 45 41 82.5t90 37.5q31 0 49 -17t18 -46zM196 0h-180l82 386q19 94 24 154l170 8l16 -19z" />
<glyph horiz-adv-x="309" d="M361 716q0 -50 -43.5 -91t-96.5 -41q-36 0 -57.5 20.5t-21.5 51.5q0 47 44 87.5t99 40.5q35 0 55.5 -18.5t20.5 -49.5zM196 0h-180l82 386q19 94 24 154l170 8l16 -19z" />
<glyph horiz-adv-x="309" d="M196 0h-180l82 386q19 94 24 154l170 8l16 -19zM181 -131q0 -50 -43.5 -91t-96.5 -41q-36 0 -57.5 20.5t-21.5 51.5q0 47 44 87.5t99 40.5q35 0 55.5 -18.5t20.5 -49.5z" />
<glyph horiz-adv-x="309" d="M277 586q-80 75 -120 170l16 30l162 8q0 -97 14 -198zM196 0h-180l82 386q19 94 24 154l170 8l16 -19z" />
<glyph horiz-adv-x="619" d="M196 0h-180l82 386q19 94 24 154l170 8l16 -19zM282 -162l-37 56q77 91 108 234l55 258q16 75 16 145l180 17l14 -18l-85 -402q-24 -113 -75 -175.5t-176 -114.5z" />
<glyph horiz-adv-x="309" d="M93 638l20 96h298l-20 -96h-298zM196 0h-180l82 386q19 94 24 154l170 8l16 -19z" />
<glyph horiz-adv-x="309" d="M196 0q-44 -34 -69.5 -70t-25.5 -63q0 -29 35 -29q26 0 57 13l12 -59q-77 -58 -157 -58q-45 0 -72.5 22.5t-27.5 60.5q0 47 39 95.5t105 87.5h-76l82 386q19 94 24 154l170 8l16 -19z" />
<glyph horiz-adv-x="309" d="M205 782q36 0 80.5 -28.5t67.5 -28.5q18 0 31 10t30 33l48 -7q-15 -70 -52.5 -120.5t-89.5 -50.5q-32 0 -83.5 28.5t-70.5 28.5q-28 0 -59 -43l-47 7q15 71 51.5 121t93.5 50zM196 0h-180l82 386q19 94 24 154l170 8l16 -19z" />
<glyph horiz-adv-x="310" d="M-27 -162l-37 56q77 91 108 234l55 258q16 75 16 145l180 17l14 -18l-85 -402q-24 -113 -75 -175.5t-176 -114.5z" />
<glyph horiz-adv-x="310" d="M-27 -162l-37 56q77 91 108 234l55 258q16 75 16 145l180 17l14 -18l-85 -402q-24 -113 -75 -175.5t-176 -114.5z" />
<glyph horiz-adv-x="310" d="M366 786l4 -30q-79 -95 -192 -170l-68 10q66 119 98 198zM-27 -162l-37 56q77 91 108 234l55 258q16 75 16 145l180 17l14 -18l-85 -402q-24 -113 -75 -175.5t-176 -114.5z" />
<glyph horiz-adv-x="310" d="M112 572l-48 40q80 82 150 164l119 10q44 -110 78 -174l-66 -40q-33 24 -96 93q-88 -67 -137 -93zM-27 -162l-37 56q77 91 108 234l55 258q16 75 16 145l180 17l14 -18l-85 -402q-24 -113 -75 -175.5t-176 -114.5z" />
<glyph horiz-adv-x="594" d="M98 386q20 104 24 154l171 8l15 -19l-47 -225h43q120 191 151 244l171 -8l5 -17l-186 -236l96 -287l-211 -3q-28 78 -52 187h-43l-39 -184h-180z" />
<glyph horiz-adv-x="594" d="M98 386q20 104 24 154l171 8l15 -19l-47 -225h43q120 191 151 244l171 -8l5 -17l-186 -236l96 -287l-211 -3q-28 78 -52 187h-43l-39 -184h-180zM105 -325q55 48 81 95q-25 5 -38 26t-7 50q7 35 38.5 61t69.5 26q35 0 54.5 -24.5t10.5 -70.5q-21 -100 -167 -208z" />
<glyph horiz-adv-x="594" d="M98 386q20 104 24 154l171 8l15 -19l-47 -225h43q120 191 151 244l171 -8l5 -17l-186 -236l96 -287l-211 -3q-28 78 -52 187h-43l-39 -184h-180z" />
<glyph horiz-adv-x="473" d="M437 129l-27 -129h-394l82 386q19 94 24 154l170 8l16 -19l-87 -409z" />
<glyph horiz-adv-x="473" d="M464 786l4 -30q-79 -95 -192 -170l-68 10q66 119 98 198zM437 129l-27 -129h-394l82 386q19 94 24 154l170 8l16 -19l-87 -409z" />
<glyph horiz-adv-x="473" d="M555 601l4 -30q-66 -103 -165 -210h-59q48 133 83 240h137zM437 129l-27 -129h-394l82 386q19 94 24 154l170 8l16 -19l-87 -409z" />
<glyph horiz-adv-x="473" d="M437 129l-27 -129h-394l82 386q19 94 24 154l170 8l16 -19l-87 -409zM39 -325q55 48 81 95q-25 5 -38 26t-7 50q7 35 38.5 61t69.5 26q35 0 54.5 -24.5t10.5 -70.5q-21 -100 -167 -208z" />
<glyph horiz-adv-x="600" d="M437 129l-27 -129h-394l82 386q19 94 24 154l170 8l16 -19l-87 -409zM572 360q0 -50 -43.5 -91t-96.5 -41q-36 0 -57.5 20.5t-21.5 51.5q0 47 44 87.5t99 40.5q35 0 55.5 -18.5t20.5 -49.5z" />
<glyph horiz-adv-x="473" d="M437 129l-27 -129h-394l37 174l-85 -42l-24 74l129 64l25 116q19 94 24 154l170 8l16 -19l-34 -159l116 57l25 -74l-161 -80l-33 -153z" />
<glyph horiz-adv-x="777" d="M740 548l20 -19l-61 -529h-176l22 183q4 29 17 112.5t15 96.5h-3q-29 -100 -75 -209l-78 -183h-201v183q0 118 14 210h-3q-32 -124 -58 -210l-56 -183h-145l167 539l250 7l-2 -101q-4 -178 -19 -288h3q40 136 102 288l38 94z" />
<glyph horiz-adv-x="639" d="M376 356q24 -55 39 -126h3l8 100q24 114 36 210l161 6l15 -19l-112 -527h-169q-18 40 -42 101.5t-35 84.5q-22 47 -40 115h-3q0 -60 -16 -138l-35 -163h-170l84 394q16 75 22 146l180 5q51 -138 74 -189z" />
<glyph horiz-adv-x="639" d="M544 786l4 -30q-79 -95 -192 -170l-68 10q66 119 98 198zM376 356q24 -55 39 -126h3l8 100q24 114 36 210l161 6l15 -19l-112 -527h-169q-18 40 -42 101.5t-35 84.5q-22 47 -40 115h-3q0 -60 -16 -138l-35 -163h-170l84 394q16 75 22 146l180 5q51 -138 74 -189z" />
<glyph horiz-adv-x="639" d="M565 804l48 -40q-80 -82 -150 -164l-119 -10q-44 110 -78 174l66 40q33 -24 96 -93q88 67 137 93zM376 356q24 -55 39 -126h3l8 100q24 114 36 210l161 6l15 -19l-112 -527h-169q-18 40 -42 101.5t-35 84.5q-22 47 -40 115h-3q0 -60 -16 -138l-35 -163h-170l84 394 q16 75 22 146l180 5q51 -138 74 -189z" />
<glyph horiz-adv-x="639" d="M376 356q24 -55 39 -126h3l8 100q24 114 36 210l161 6l15 -19l-112 -527h-169q-18 40 -42 101.5t-35 84.5q-22 47 -40 115h-3q0 -60 -16 -138l-35 -163h-170l84 394q16 75 22 146l180 5q51 -138 74 -189zM119 -325q55 48 81 95q-25 5 -38 26t-7 50q7 35 38.5 61t69.5 26 q35 0 54.5 -24.5t10.5 -70.5q-21 -100 -167 -208z" />
<glyph horiz-adv-x="639" d="M526 716q0 -50 -43.5 -91t-96.5 -41q-36 0 -57.5 20.5t-21.5 51.5q0 47 44 87.5t99 40.5q35 0 55.5 -18.5t20.5 -49.5zM376 356q24 -55 39 -126h3l8 100q24 114 36 210l161 6l15 -19l-112 -527h-169q-18 40 -42 101.5t-35 84.5q-22 47 -40 115h-3q0 -60 -16 -138 l-35 -163h-170l84 394q16 75 22 146l180 5q51 -138 74 -189z" />
<glyph horiz-adv-x="639" d="M303 -162l-38 56q62 67 83 126q-12 29 -34.5 85.5t-33.5 80.5q-22 47 -40 115h-3q0 -60 -16 -138l-35 -163h-170l84 394q16 75 22 146l180 5q51 -138 74 -189q24 -55 39 -126h3l8 100q24 114 36 210l161 6l15 -19l-85 -399q-12 -57 -28 -96t-44 -75t-70.5 -64t-107.5 -55 z" />
<glyph horiz-adv-x="640" d="M-27 -162l-37 56q77 87 108 234l56 266q19 98 22 146l180 5q56 -147 75 -190q21 -45 38 -125h3l9 100q26 130 35 210l162 6l15 -19l-112 -527h-169q-19 41 -43.5 104t-33.5 82q-25 54 -40 115h-3q-1 -58 -17 -138l-7 -35q-25 -114 -74 -176t-167 -114z" />
<glyph horiz-adv-x="639" d="M370 782q36 0 80.5 -28.5t67.5 -28.5q18 0 31 10t30 33l48 -7q-15 -70 -52.5 -120.5t-89.5 -50.5q-32 0 -83.5 28.5t-70.5 28.5q-28 0 -59 -43l-47 7q15 71 51.5 121t93.5 50zM376 356q24 -55 39 -126h3l8 100q24 114 36 210l161 6l15 -19l-112 -527h-169 q-18 40 -42 101.5t-35 84.5q-22 47 -40 115h-3q0 -60 -16 -138l-35 -163h-170l84 394q16 75 22 146l180 5q51 -138 74 -189z" />
<glyph horiz-adv-x="615" d="M597 345q0 -148 -102 -250.5t-250 -102.5q-103 0 -161.5 52.5t-58.5 145.5q0 148 104 253t250 105q105 0 161.5 -55t56.5 -148zM213 208q0 -91 67 -91q55 0 94 66t39 159q0 81 -68 81q-55 0 -93.5 -63t-38.5 -152z" />
<glyph horiz-adv-x="615" d="M527 786l4 -30q-79 -95 -192 -170l-68 10q66 119 98 198zM597 345q0 -148 -102 -250.5t-250 -102.5q-103 0 -161.5 52.5t-58.5 145.5q0 148 104 253t250 105q105 0 161.5 -55t56.5 -148zM213 208q0 -91 67 -91q55 0 94 66t39 159q0 81 -68 81q-55 0 -93.5 -63t-38.5 -152 z" />
<glyph horiz-adv-x="615" d="M515 785l71 9q-22 -87 -78 -142t-127 -55q-64 0 -95.5 49t-18.5 130l72 10q0 -36 19.5 -57.5t51.5 -21.5q33 0 62 22t43 56zM597 345q0 -148 -102 -250.5t-250 -102.5q-103 0 -161.5 52.5t-58.5 145.5q0 148 104 253t250 105q105 0 161.5 -55t56.5 -148zM213 208 q0 -91 67 -91q55 0 94 66t39 159q0 81 -68 81q-55 0 -93.5 -63t-38.5 -152z" />
<glyph horiz-adv-x="615" d="M548 804l48 -40q-80 -82 -150 -164l-119 -10q-44 110 -78 174l66 40q33 -24 96 -93q88 67 137 93zM597 345q0 -148 -102 -250.5t-250 -102.5q-103 0 -161.5 52.5t-58.5 145.5q0 148 104 253t250 105q105 0 161.5 -55t56.5 -148zM213 208q0 -91 67 -91q55 0 94 66t39 159 q0 81 -68 81q-55 0 -93.5 -63t-38.5 -152z" />
<glyph horiz-adv-x="615" d="M273 572l-48 40q80 82 150 164l119 10q44 -110 78 -174l-66 -40q-33 24 -96 93q-88 -67 -137 -93zM597 345q0 -148 -102 -250.5t-250 -102.5q-103 0 -161.5 52.5t-58.5 145.5q0 148 104 253t250 105q105 0 161.5 -55t56.5 -148zM213 208q0 -91 67 -91q55 0 94 66t39 159 q0 81 -68 81q-55 0 -93.5 -63t-38.5 -152z" />
<glyph horiz-adv-x="615" d="M380 716q0 -47 -39 -84.5t-88 -37.5q-33 0 -52 18t-19 47q0 45 41 82.5t90 37.5q31 0 49 -17t18 -46zM619 716q0 -47 -39 -84.5t-88 -37.5q-33 0 -52 18t-19 47q0 45 41 82.5t90 37.5q31 0 49 -17t18 -46zM597 345q0 -148 -102 -250.5t-250 -102.5q-103 0 -161.5 52.5 t-58.5 145.5q0 148 104 253t250 105q105 0 161.5 -55t56.5 -148zM213 208q0 -91 67 -91q55 0 94 66t39 159q0 81 -68 81q-55 0 -93.5 -63t-38.5 -152z" />
<glyph horiz-adv-x="615" d="M597 345q0 -148 -102 -250.5t-250 -102.5q-103 0 -161.5 52.5t-58.5 145.5q0 148 104 253t250 105q105 0 161.5 -55t56.5 -148zM213 208q0 -91 67 -91q55 0 94 66t39 159q0 81 -68 81q-55 0 -93.5 -63t-38.5 -152zM329 -131q0 -50 -43.5 -91t-96.5 -41q-36 0 -57.5 20.5 t-21.5 51.5q0 47 44 87.5t99 40.5q35 0 55.5 -18.5t20.5 -49.5z" />
<glyph horiz-adv-x="615" d="M425 586q-80 75 -120 170l16 30l162 8q0 -97 14 -198zM597 345q0 -148 -102 -250.5t-250 -102.5q-103 0 -161.5 52.5t-58.5 145.5q0 148 104 253t250 105q105 0 161.5 -55t56.5 -148zM213 208q0 -91 67 -91q55 0 94 66t39 159q0 81 -68 81q-55 0 -93.5 -63t-38.5 -152z " />
<glyph horiz-adv-x="615" d="M441 786l4 -30q-71 -98 -160 -170l-68 10q66 119 98 198zM634 786l4 -30q-71 -98 -160 -170l-68 10q66 119 98 198zM597 345q0 -148 -102 -250.5t-250 -102.5q-103 0 -161.5 52.5t-58.5 145.5q0 148 104 253t250 105q105 0 161.5 -55t56.5 -148zM213 208q0 -91 67 -91 q55 0 94 66t39 159q0 81 -68 81q-55 0 -93.5 -63t-38.5 -152z" />
<glyph horiz-adv-x="615" d="M241 638l20 96h298l-20 -96h-298zM597 345q0 -148 -102 -250.5t-250 -102.5q-103 0 -161.5 52.5t-58.5 145.5q0 148 104 253t250 105q105 0 161.5 -55t56.5 -148zM213 208q0 -91 67 -91q55 0 94 66t39 159q0 81 -68 81q-55 0 -93.5 -63t-38.5 -152z" />
<glyph horiz-adv-x="615" d="M597 345q0 -99 -48.5 -181t-130.5 -128q-146 -87 -146 -165q0 -33 35 -33q26 0 57 13l12 -59q-77 -58 -157 -58q-46 0 -73 23t-27 65q0 93 129 170h-3q-103 0 -161.5 52.5t-58.5 145.5q0 148 104 253t250 105q105 0 161.5 -55t56.5 -148zM213 208q0 -91 67 -91 q55 0 94 66t39 159q0 81 -68 81q-55 0 -93.5 -63t-38.5 -152z" />
<glyph horiz-adv-x="615" d="M597 345q0 -148 -102 -250.5t-250 -102.5q-103 0 -161.5 52.5t-58.5 145.5q0 148 104 253t250 105q105 0 161.5 -55t56.5 -148zM213 208q0 -91 67 -91q55 0 94 66t39 159q0 81 -68 81q-55 0 -93.5 -63t-38.5 -152z" />
<glyph horiz-adv-x="615" d="M527 786l4 -30q-79 -95 -192 -170l-68 10q66 119 98 198zM597 345q0 -148 -102 -250.5t-250 -102.5q-103 0 -161.5 52.5t-58.5 145.5q0 148 104 253t250 105q105 0 161.5 -55t56.5 -148zM213 208q0 -91 67 -91q55 0 94 66t39 159q0 81 -68 81q-55 0 -93.5 -63t-38.5 -152 z" />
<glyph horiz-adv-x="615" d="M353 782q36 0 80.5 -28.5t67.5 -28.5q18 0 31 10t30 33l48 -7q-15 -70 -52.5 -120.5t-89.5 -50.5q-32 0 -83.5 28.5t-70.5 28.5q-28 0 -59 -43l-47 7q15 71 51.5 121t93.5 50zM597 345q0 -148 -102 -250.5t-250 -102.5q-103 0 -161.5 52.5t-58.5 145.5q0 148 104 253 t250 105q105 0 161.5 -55t56.5 -148zM213 208q0 -91 67 -91q55 0 94 66t39 159q0 81 -68 81q-55 0 -93.5 -63t-38.5 -152z" />
<glyph horiz-adv-x="827" d="M597 345q0 -17 -1 -25l164 4l-29 -116l-158 5q-19 -46 -52 -89l250 5l-28 -129h-422q-38 -8 -76 -8q-103 0 -161.5 52.5t-58.5 145.5q0 148 104 253t250 105q37 0 72 -8h383l16 -19l-27 -110l-236 5q10 -31 10 -71zM213 208q0 -91 67 -91q55 0 94 66t39 159q0 81 -68 81 q-55 0 -93.5 -63t-38.5 -152z" />
<glyph horiz-adv-x="534" d="M196 0h-180l84 394q20 85 22 146h239q92 0 142.5 -40t50.5 -108q0 -103 -84 -172.5t-208 -69.5h-34zM294 420h-9l-31 -150h9q50 0 76.5 24.5t26.5 71.5q0 54 -72 54z" />
<glyph horiz-adv-x="534" d="M196 0h-180l84 394q20 85 22 146h189l-15 -70h50q92 0 142.5 -40t50.5 -108q0 -103 -84 -172.5t-208 -69.5h-34zM279 350h-8l-56 -260l24 110h10q49 0 75.5 24.5t26.5 71.5q0 54 -72 54z" />
<glyph horiz-adv-x="617" d="M383 549q103 0 159 -56t56 -155q0 -130 -87.5 -228t-219.5 -114q49 -33 129 -55t157 -22q71 0 128 16t84 32q22 -20 22 -56q0 -60 -49 -93t-134 -33q-122 0 -260 57.5t-195 158.5q-70 16 -108.5 67t-38.5 132q0 141 105 245t252 104zM350 424q-60 0 -98 -63.5t-38 -144.5 q0 -98 65 -98q57 0 96 66t39 148q0 92 -64 92z" />
<glyph horiz-adv-x="556" d="M196 0h-180l84 394q20 85 22 146h211q110 0 166.5 -36t56.5 -103q0 -60 -34.5 -111.5t-91.5 -78.5l73 -211l-212 -3q-19 86 -28 169h-32zM294 420h-9l-29 -139h10q49 0 75 24t26 68q0 47 -73 47z" />
<glyph horiz-adv-x="556" d="M504 786l4 -30q-79 -95 -192 -170l-68 10q66 119 98 198zM196 0h-180l84 394q20 85 22 146h211q110 0 166.5 -36t56.5 -103q0 -60 -34.5 -111.5t-91.5 -78.5l73 -211l-212 -3q-19 86 -28 169h-32zM294 420h-9l-29 -139h10q49 0 75 24t26 68q0 47 -73 47z" />
<glyph horiz-adv-x="556" d="M525 804l48 -40q-80 -82 -150 -164l-119 -10q-44 110 -78 174l66 40q33 -24 96 -93q88 67 137 93zM196 0h-180l84 394q20 85 22 146h211q110 0 166.5 -36t56.5 -103q0 -60 -34.5 -111.5t-91.5 -78.5l73 -211l-212 -3q-19 86 -28 169h-32zM294 420h-9l-29 -139h10 q49 0 75 24t26 68q0 47 -73 47z" />
<glyph horiz-adv-x="556" d="M196 0h-180l84 394q20 85 22 146h211q110 0 166.5 -36t56.5 -103q0 -60 -34.5 -111.5t-91.5 -78.5l73 -211l-212 -3q-19 86 -28 169h-32zM294 420h-9l-29 -139h10q49 0 75 24t26 68q0 47 -73 47zM92 -325q55 48 81 95q-25 5 -38 26t-7 50q7 35 38.5 61t69.5 26 q35 0 54.5 -24.5t10.5 -70.5q-21 -100 -167 -208z" />
<glyph horiz-adv-x="556" d="M196 0h-180l84 394q20 85 22 146h211q110 0 166.5 -36t56.5 -103q0 -60 -34.5 -111.5t-91.5 -78.5l73 -211l-212 -3q-19 86 -28 169h-32zM294 420h-9l-29 -139h10q49 0 75 24t26 68q0 47 -73 47zM319 -131q0 -50 -43.5 -91t-96.5 -41q-36 0 -57.5 20.5t-21.5 51.5 q0 47 44 87.5t99 40.5q35 0 55.5 -18.5t20.5 -49.5z" />
<glyph horiz-adv-x="475" d="M428 187q0 -87 -76 -141t-199 -54q-51 0 -102.5 9t-68.5 22l39 140q31 -19 79 -30t88 -11q52 0 52 36q0 16 -29 32t-64 29.5t-64 46t-29 78.5q0 89 78.5 146.5t199.5 57.5q92 0 149 -18l-50 -143q-59 31 -125 31q-29 0 -46 -11t-17 -31q0 -16 19 -29t46.5 -24.5 t54.5 -26.5t46 -43t19 -66z" />
<glyph horiz-adv-x="475" d="M466 786l4 -30q-79 -95 -192 -170l-68 10q66 119 98 198zM428 187q0 -87 -76 -141t-199 -54q-51 0 -102.5 9t-68.5 22l39 140q31 -19 79 -30t88 -11q52 0 52 36q0 16 -29 32t-64 29.5t-64 46t-29 78.5q0 89 78.5 146.5t199.5 57.5q92 0 149 -18l-50 -143q-59 31 -125 31 q-29 0 -46 -11t-17 -31q0 -16 19 -29t46.5 -24.5t54.5 -26.5t46 -43t19 -66z" />
<glyph horiz-adv-x="475" d="M487 804l48 -40q-80 -82 -150 -164l-119 -10q-44 110 -78 174l66 40q33 -24 96 -93q88 67 137 93zM428 187q0 -87 -76 -141t-199 -54q-51 0 -102.5 9t-68.5 22l39 140q31 -19 79 -30t88 -11q52 0 52 36q0 16 -29 32t-64 29.5t-64 46t-29 78.5q0 89 78.5 146.5t199.5 57.5 q92 0 149 -18l-50 -143q-59 31 -125 31q-29 0 -46 -11t-17 -31q0 -16 19 -29t46.5 -24.5t54.5 -26.5t46 -43t19 -66z" />
<glyph horiz-adv-x="475" d="M292 -125q0 -63 -69.5 -99t-191.5 -36l18 60q53 3 85 19.5t32 40.5q0 30 -69 30l-13 30l37 73q-44 2 -84.5 11t-54.5 19l39 140q31 -19 79 -30t88 -11q52 0 52 36q0 16 -29 32t-64 29.5t-64 46t-29 78.5q0 89 78.5 146.5t199.5 57.5q92 0 149 -18l-50 -143 q-59 31 -125 31q-29 0 -46 -11t-17 -31q0 -16 19 -29t46.5 -24.5t54.5 -26.5t46 -43t19 -66q0 -75 -58 -126.5t-156 -64.5l-24 -45q102 -14 102 -76z" />
<glyph horiz-adv-x="475" d="M212 572l-48 40q80 82 150 164l119 10q44 -110 78 -174l-66 -40q-33 24 -96 93q-88 -67 -137 -93zM428 187q0 -87 -76 -141t-199 -54q-51 0 -102.5 9t-68.5 22l39 140q31 -19 79 -30t88 -11q52 0 52 36q0 16 -29 32t-64 29.5t-64 46t-29 78.5q0 89 78.5 146.5t199.5 57.5 q92 0 149 -18l-50 -143q-59 31 -125 31q-29 0 -46 -11t-17 -31q0 -16 19 -29t46.5 -24.5t54.5 -26.5t46 -43t19 -66z" />
<glyph horiz-adv-x="475" d="M428 187q0 -87 -76 -141t-199 -54q-51 0 -102.5 9t-68.5 22l39 140q31 -19 79 -30t88 -11q52 0 52 36q0 16 -29 32t-64 29.5t-64 46t-29 78.5q0 89 78.5 146.5t199.5 57.5q92 0 149 -18l-50 -143q-59 31 -125 31q-29 0 -46 -11t-17 -31q0 -16 19 -29t46.5 -24.5 t54.5 -26.5t46 -43t19 -66zM33 -325q55 48 81 95q-25 5 -38 26t-7 50q7 35 38.5 61t69.5 26q35 0 54.5 -24.5t10.5 -70.5q-21 -100 -167 -208z" />
<glyph horiz-adv-x="475" d="M428 187q0 -87 -76 -141t-199 -54q-51 0 -102.5 9t-68.5 22l39 140q31 -19 79 -30t88 -11q52 0 52 36q0 16 -29 32t-64 29.5t-64 46t-29 78.5q0 89 78.5 146.5t199.5 57.5q92 0 149 -18l-50 -143q-59 31 -125 31q-29 0 -46 -11t-17 -31q0 -16 19 -29t46.5 -24.5 t54.5 -26.5t46 -43t19 -66zM260 -131q0 -50 -43.5 -91t-96.5 -41q-36 0 -57.5 20.5t-21.5 51.5q0 47 44 87.5t99 40.5q35 0 55.5 -18.5t20.5 -49.5z" />
<glyph horiz-adv-x="630" d="M157 -10l-160 10q32 57 49 130l46 219q20 95 103 147t186 52t160 -49t43 -114l-109 -85q97 -36 97 -118q0 -80 -68 -135t-167 -55q-58 0 -94 13l28 130q36 -13 67 -13q47 0 47 40q0 41 -92 76l9 44l104 94q-4 44 -53 44q-75 0 -94 -88l-38 -177q-24 -111 -64 -165z" />
<glyph horiz-adv-x="515" d="M294 0h-180l88 414q-110 -4 -159 -7l38 133h476l-19 -133q-52 3 -156 7z" />
<glyph horiz-adv-x="515" d="M294 0h-180l44 205h-103l19 90h103l25 119q-110 -4 -159 -7l38 133h476l-19 -133q-52 3 -156 7l-25 -119h103l-19 -90h-103z" />
<glyph horiz-adv-x="515" d="M498 804l48 -40q-80 -82 -150 -164l-119 -10q-44 110 -78 174l66 40q33 -24 96 -93q88 67 137 93zM294 0h-180l88 414q-110 -4 -159 -7l38 133h476l-19 -133q-52 3 -156 7z" />
<glyph horiz-adv-x="515" d="M294 0h-59l-26 -49q102 -14 102 -76q0 -63 -69.5 -99t-191.5 -36l18 60q53 3 85 19.5t32 40.5q0 30 -69 30l-13 30l40 80h-29l88 414q-110 -4 -159 -7l38 133h476l-19 -133q-52 3 -156 7z" />
<glyph horiz-adv-x="515" d="M294 0h-180l88 414q-110 -4 -159 -7l38 133h476l-19 -133q-52 3 -156 7zM52 -325q55 48 81 95q-25 5 -38 26t-7 50q7 35 38.5 61t69.5 26q35 0 54.5 -24.5t10.5 -70.5q-21 -100 -167 -208z" />
<glyph horiz-adv-x="515" d="M294 0h-180l88 414q-110 -4 -159 -7l38 133h476l-19 -133q-52 3 -156 7zM279 -131q0 -50 -43.5 -91t-96.5 -41q-36 0 -57.5 20.5t-21.5 51.5q0 47 44 87.5t99 40.5q35 0 55.5 -18.5t20.5 -49.5z" />
<glyph horiz-adv-x="613" d="M87 386q19 99 24 153l170 9l17 -20l-68 -320q-9 -44 4.5 -66t54.5 -22q76 0 95 88l46 217q14 70 16 114l179 7l-75 -355q-20 -95 -103.5 -147t-193.5 -52t-168.5 51.5t-38.5 147.5z" />
<glyph horiz-adv-x="613" d="M530 786l4 -30q-79 -95 -192 -170l-68 10q66 119 98 198zM87 386q19 99 24 153l170 9l17 -20l-68 -320q-9 -44 4.5 -66t54.5 -22q76 0 95 88l46 217q14 70 16 114l179 7l-75 -355q-20 -95 -103.5 -147t-193.5 -52t-168.5 51.5t-38.5 147.5z" />
<glyph horiz-adv-x="613" d="M518 785l71 9q-22 -87 -78 -142t-127 -55q-64 0 -95.5 49t-18.5 130l72 10q0 -36 19.5 -57.5t51.5 -21.5q33 0 62 22t43 56zM87 386q19 99 24 153l170 9l17 -20l-68 -320q-9 -44 4.5 -66t54.5 -22q76 0 95 88l46 217q14 70 16 114l179 7l-75 -355q-20 -95 -103.5 -147 t-193.5 -52t-168.5 51.5t-38.5 147.5z" />
<glyph horiz-adv-x="613" d="M551 804l48 -40q-80 -82 -150 -164l-119 -10q-44 110 -78 174l66 40q33 -24 96 -93q88 67 137 93zM87 386q19 99 24 153l170 9l17 -20l-68 -320q-9 -44 4.5 -66t54.5 -22q76 0 95 88l46 217q14 70 16 114l179 7l-75 -355q-20 -95 -103.5 -147t-193.5 -52t-168.5 51.5 t-38.5 147.5z" />
<glyph horiz-adv-x="613" d="M276 572l-48 40q80 82 150 164l119 10q44 -110 78 -174l-66 -40q-33 24 -96 93q-88 -67 -137 -93zM87 386q19 99 24 153l170 9l17 -20l-68 -320q-9 -44 4.5 -66t54.5 -22q76 0 95 88l46 217q14 70 16 114l179 7l-75 -355q-20 -95 -103.5 -147t-193.5 -52t-168.5 51.5 t-38.5 147.5z" />
<glyph horiz-adv-x="613" d="M383 716q0 -47 -39 -84.5t-88 -37.5q-33 0 -52 18t-19 47q0 45 41 82.5t90 37.5q31 0 49 -17t18 -46zM622 716q0 -47 -39 -84.5t-88 -37.5q-33 0 -52 18t-19 47q0 45 41 82.5t90 37.5q31 0 49 -17t18 -46zM87 386q19 99 24 153l170 9l17 -20l-68 -320q-9 -44 4.5 -66 t54.5 -22q76 0 95 88l46 217q14 70 16 114l179 7l-75 -355q-20 -95 -103.5 -147t-193.5 -52t-168.5 51.5t-38.5 147.5z" />
<glyph horiz-adv-x="613" d="M585 1045l4 -30q-79 -95 -192 -170l-68 10q66 119 98 198zM383 716q0 -47 -39 -84.5t-88 -37.5q-33 0 -52 18t-19 47q0 45 41 82.5t90 37.5q31 0 49 -17t18 -46zM622 716q0 -47 -39 -84.5t-88 -37.5q-33 0 -52 18t-19 47q0 45 41 82.5t90 37.5q31 0 49 -17t18 -46z M87 386q19 99 24 153l170 9l17 -20l-68 -320q-9 -44 4.5 -66t54.5 -22q76 0 95 88l46 217q14 70 16 114l179 7l-75 -355q-20 -95 -103.5 -147t-193.5 -52t-168.5 51.5t-38.5 147.5z" />
<glyph horiz-adv-x="613" d="M606 1063l48 -40q-80 -82 -150 -164l-119 -10q-44 110 -78 174l66 40q33 -24 96 -93q88 67 137 93zM383 716q0 -47 -39 -84.5t-88 -37.5q-33 0 -52 18t-19 47q0 45 41 82.5t90 37.5q31 0 49 -17t18 -46zM622 716q0 -47 -39 -84.5t-88 -37.5q-33 0 -52 18t-19 47 q0 45 41 82.5t90 37.5q31 0 49 -17t18 -46zM87 386q19 99 24 153l170 9l17 -20l-68 -320q-9 -44 4.5 -66t54.5 -22q76 0 95 88l46 217q14 70 16 114l179 7l-75 -355q-20 -95 -103.5 -147t-193.5 -52t-168.5 51.5t-38.5 147.5z" />
<glyph horiz-adv-x="613" d="M483 845q-80 75 -120 170l16 30l162 8q0 -97 14 -198zM383 716q0 -47 -39 -84.5t-88 -37.5q-33 0 -52 18t-19 47q0 45 41 82.5t90 37.5q31 0 49 -17t18 -46zM622 716q0 -47 -39 -84.5t-88 -37.5q-33 0 -52 18t-19 47q0 45 41 82.5t90 37.5q31 0 49 -17t18 -46zM87 386 q19 99 24 153l170 9l17 -20l-68 -320q-9 -44 4.5 -66t54.5 -22q76 0 95 88l46 217q14 70 16 114l179 7l-75 -355q-20 -95 -103.5 -147t-193.5 -52t-168.5 51.5t-38.5 147.5z" />
<glyph horiz-adv-x="613" d="M299 897l20 96h298l-20 -96h-298zM383 716q0 -47 -39 -84.5t-88 -37.5q-33 0 -52 18t-19 47q0 45 41 82.5t90 37.5q31 0 49 -17t18 -46zM622 716q0 -47 -39 -84.5t-88 -37.5q-33 0 -52 18t-19 47q0 45 41 82.5t90 37.5q31 0 49 -17t18 -46zM87 386q19 99 24 153l170 9 l17 -20l-68 -320q-9 -44 4.5 -66t54.5 -22q76 0 95 88l46 217q14 70 16 114l179 7l-75 -355q-20 -95 -103.5 -147t-193.5 -52t-168.5 51.5t-38.5 147.5z" />
<glyph horiz-adv-x="613" d="M87 386q19 99 24 153l170 9l17 -20l-68 -320q-9 -44 4.5 -66t54.5 -22q76 0 95 88l46 217q14 70 16 114l179 7l-75 -355q-20 -95 -103.5 -147t-193.5 -52t-168.5 51.5t-38.5 147.5zM332 -131q0 -50 -43.5 -91t-96.5 -41q-36 0 -57.5 20.5t-21.5 51.5q0 47 44 87.5 t99 40.5q35 0 55.5 -18.5t20.5 -49.5z" />
<glyph horiz-adv-x="613" d="M428 586q-80 75 -120 170l16 30l162 8q0 -97 14 -198zM87 386q19 99 24 153l170 9l17 -20l-68 -320q-9 -44 4.5 -66t54.5 -22q76 0 95 88l46 217q14 70 16 114l179 7l-75 -355q-20 -95 -103.5 -147t-193.5 -52t-168.5 51.5t-38.5 147.5z" />
<glyph horiz-adv-x="613" d="M444 786l4 -30q-71 -98 -160 -170l-68 10q66 119 98 198zM637 786l4 -30q-71 -98 -160 -170l-68 10q66 119 98 198zM87 386q19 99 24 153l170 9l17 -20l-68 -320q-9 -44 4.5 -66t54.5 -22q76 0 95 88l46 217q14 70 16 114l179 7l-75 -355q-20 -95 -103.5 -147t-193.5 -52 t-168.5 51.5t-38.5 147.5z" />
</font>
</defs>
</svg>
