<?xml version="1.0" standalone="no"?>
<!DOCTYPE svg PUBLIC "-//W3C//DTD SVG 1.1//EN" "http://www.w3.org/Graphics/SVG/1.1/DTD/svg11.dtd" >
<svg xmlns="http://www.w3.org/2000/svg" xmlns:xlink="http://www.w3.org/1999/xlink" version="1.1">
<metadata></metadata>
<defs>
<font id="indivisa_text_sansitalic" horiz-adv-x="574" >
<font-face units-per-em="1000" ascent="754" descent="-246" />
<missing-glyph horiz-adv-x="258" />
<glyph unicode="&#x2f;symbol&#x33;&#x2f;" horiz-adv-x="957" d="M505 638l68 -270h270l-203 -135l136 -270l-271 135l-270 -270l135 405l-270 203l338 -68zM814 87q18 0 30.5 -12.5t12.5 -31.5q0 -18 -12.5 -30.5t-30.5 -12.5t-30.5 12.5t-12.5 30.5q0 19 12.5 31.5t30.5 12.5zM854 43q0 17 -11.5 29t-28.5 12t-28.5 -12t-11.5 -29 t12 -28.5t28 -11.5t28 11.5t12 28.5zM796 68h18q8 0 11 -2q6 -3 6 -10q0 -5 -4 -9q-3 -3 -6 -3q7 -3 8 -10q2 -14 3 -16h-7q-1 2 -2 7.5t-1 6.5q0 9 -10 9h-9v-23h-7v50zM803 47h10q5 0 7 1q3 3 3 6q0 9 -10 9h-10v-16z" />
<glyph unicode="&#x2f;symbol&#x32;&#x2f;" horiz-adv-x="932" d="M494 570l52 -90l-137 -240h-103l137 240l-52 90h103zM357 570l52 -90l-138 -240h-103l138 240l-52 90h103zM752 120h-103l-137 240l51 90l137 -240h103zM683 0h-103l-137 240l51 90l138 -240h103zM100 120l51 90h275l51 -90h-274l-52 -90zM168 0l52 90h274l52 -90h-275 l-51 -90zM789 88q18 0 30.5 -13t12.5 -31t-12.5 -31t-30.5 -13t-30.5 13t-12.5 31t12.5 31t30.5 13zM829 44q0 16 -11.5 28t-28.5 12t-28.5 -12t-11.5 -28t11.5 -28t28.5 -12t28.5 12t11.5 28zM771 69h18q7 0 11 -2q5 -4 5 -11q0 -5 -3 -8q-1 -2 -6 -4q7 -1 8 -9q0 -8 3 -16 h-8q-1 2 -1.5 6.5t-0.5 6.5q-1 10 -11 10h-8v-23h-7v50zM778 47h10q5 0 7 1q3 3 3 7q0 8 -10 8h-10v-16z" />
<glyph unicode="&#x2f;symbol&#x35;&#x2f;" horiz-adv-x="705" d="M232 -6l-132 136l124 234l129 -136zM474 -6l-121 234l128 136l124 -234z" />
<glyph unicode="&#x2f;symbol&#x31;&#x2f;" horiz-adv-x="5534" d="M1865 412q-25 0 -40.5 14.5t-15.5 37.5q0 35 32.5 64t70.5 29q24 0 39 -13.5t15 -37.5q0 -36 -31 -65t-70 -29zM1284 412q-26 0 -41.5 14.5t-15.5 37.5q0 35 33 64t71 29q24 0 38.5 -13.5t14.5 -37.5q0 -36 -31 -65t-69 -29zM959 0q0 42 11 108q-16 -50 -51.5 -82.5 t-78.5 -32.5q-41 0 -63 29.5t-22 82.5q0 62 27 121t84 101t132 42q17 0 25 -1l16 73l6 102l136 7q0 -67 -46 -273t-46 -277h-130zM100 0l78 364q17 86 21 136l128 7l11 -15l-104 -492h-134zM3503 492l-57 -492h-131l20 175q5 50 33 215h-3q-31 -102 -81 -215l-76 -175h-149 l-2 175q-2 121 9 215h-2q-32 -130 -59 -215l-53 -175h-109l154 500l184 6l1 -137q2 -134 -15 -259h2q39 126 94 259l56 131l169 7zM5316 300q-37 -177 -37 -183q0 -34 36 -34q25 0 59 18l-9 -79q-52 -29 -114 -29q-105 0 -105 100q0 20 40 210l-47 1l9 44l54 14l53 95l81 6 l13 -15l-20 -86h99l6 -14l-17 -51zM336 0q0 79 41 260l6 102l137 7q0 -31 -7 -89h2q52 89 134 89q34 0 53 -19.5t19 -51.5q0 -27 -26 -147q-18 -85 -18 -151h-131q0 55 19 150q15 78 15 87q0 24 -17 24q-34 0 -64 -82.5t-32 -178.5h-131zM1170 0q0 72 27 193l14 67l6 102 l137 7q0 -46 -27 -177t-27 -192h-130zM1399 362l140 7q13 -129 -5 -289h2q76 151 91 284q22 5 50 5q32 0 48.5 -8.5t16.5 -33.5q0 -46 -51 -147.5t-116 -179.5h-149q-5 228 -27 362zM1752 0q0 69 26 193l15 67l6 102l137 7q0 -46 -27 -177t-27 -192h-130zM4716 0 q0 79 41 260l6 102l137 7q0 -12 -7 -89h2q52 89 134 89q34 0 53 -19.5t19 -51.5q0 -27 -26 -147q-19 -90 -19 -151h-130q0 55 19 150q15 78 15 87q0 24 -17 24q-35 0 -65 -82t-32 -179h-130zM2245 256q-52 30 -97 30q-18 0 -30 -7t-12 -19q0 -14 20 -26.5t44 -22t44 -33 t20 -56.5q0 -57 -53 -93t-128 -36q-78 0 -118 28l27 93q57 -38 111 -38q19 0 29.5 7.5t10.5 18.5q0 13 -20 26t-44 23t-44 33t-20 55q0 56 54.5 93t128.5 37q58 0 104 -18zM2525 369q88 0 146 -32l-29 -128q-31 -145 -31 -209h-130q0 37 12 112q-15 -52 -51 -85.5t-81 -33.5 q-41 0 -62.5 29.5t-21.5 83.5q0 62 26.5 120.5t85 100.5t136.5 42zM4653 51q-67 -58 -159 -58q-65 0 -103.5 35t-38.5 102q0 94 68.5 166.5t167.5 72.5q54 0 86.5 -23.5t32.5 -64.5q0 -57 -60 -96.5t-161 -43.5v-1q0 -64 63 -64q42 0 90 28zM3936 0q0 74 42 260l5 102l137 7 q0 -31 -7 -89h2q53 89 134 89q34 0 53 -19.5t19 -51.5q0 -27 -26 -147q-18 -85 -18 -151h-131q0 55 19 150q15 71 15 87q0 24 -17 24q-34 0 -64 -82.5t-32 -178.5h-131zM3768 369q87 0 145 -32l-28 -128q-31 -145 -31 -209h-130q0 45 12 112q-15 -52 -51 -85.5t-81 -33.5 q-41 0 -63 29.5t-22 83.5q0 46 16 91.5t46 84t79 63t108 24.5zM4490 177q47 10 73 34t26 59q0 31 -22 31q-28 0 -48.5 -38.5t-28.5 -85.5zM3677 101q23 0 47 43t38 101q1 8 4.5 24.5t4.5 19.5q-16 8 -27 8q-34 0 -62.5 -54.5t-28.5 -101.5q0 -40 24 -40zM913 101 q22 0 44.5 39.5t37.5 94.5q1 9 8 40l3 14q-14 8 -27 8q-33 0 -61.5 -54.5t-28.5 -101.5q0 -40 24 -40zM2435 101q23 0 47 43.5t37 100.5q3 14 9 44q-14 8 -27 8q-34 0 -62 -54.5t-28 -101.5q0 -40 24 -40z" />
<glyph unicode="&#x2f;symbol&#x34;&#x2f;" horiz-adv-x="2607" d="M1684 406q0 65 -11 128l126 14l15 -15v-533h-130v406zM1889 406q0 62 -10 128l126 14l14 -15v-533h-130v406zM427 101v-101h-320v362q0 80 -7 135l126 7l14 -14v-396zM925 21l7 109q62 -36 144 -36q50 0 50 36q0 20 -31.5 41.5t-69 40.5t-69 57t-31.5 88q0 69 55 108 t138 39q80 0 127 -18l-14 -111q-56 29 -111 29q-27 0 -42.5 -11t-15.5 -29q0 -20 20.5 -38t50 -34t59.5 -35t50.5 -51t20.5 -72q0 -66 -53.5 -103.5t-139.5 -37.5q-41 0 -83.5 8t-61.5 20zM795 0l-106 -7q-11 16 -21 49h-4q-34 -49 -104 -49q-43 0 -70 23t-27 66 q0 113 191 118v20q0 54 -58 54q-55 0 -108 -29l-8 97q72 26 150 26q154 0 154 -135q0 -25 -2 -69t-2 -70q0 -51 15 -94zM1626 0l-107 -7q-12 20 -21 49h-3q-34 -49 -105 -49q-43 0 -69.5 23t-26.5 66q0 113 191 118v20q0 54 -58 54q-54 0 -109 -29l-7 97q72 26 150 26 q153 0 153 -135q0 -25 -1.5 -69.5t-1.5 -69.5q0 -51 15 -94zM2405 213q0 -24 -1 -36l-11 -11h-191q14 -83 98 -83q44 0 84 21l7 -81q-46 -30 -127 -30q-90 0 -144 47.5t-54 134.5q0 85 52 139t132 54q72 0 113.5 -43t41.5 -112zM2199 207l78 4q2 14 2 26q0 59 -34 59 q-44 0 -46 -89zM654 74v88q-29 -3 -47 -18t-18 -39q0 -18 10 -29t27 -11q16 0 28 9zM1485 74v88q-29 -3 -47 -18t-18 -39q0 -18 10 -29t27 -11q16 0 28 9zM2464 85q18 0 30.5 -13t12.5 -31t-12.5 -31t-30.5 -13t-31 13t-13 31t13 31t31 13zM2504 41q0 17 -12 28.5t-28 11.5 t-28 -11.5t-12 -28.5t12 -28.5t28 -11.5t28 11.5t12 28.5zM2446 66h18q7 0 11 -3q5 -3 5 -10q0 -5 -3 -9q-3 -3 -6 -3q7 -1 8 -10q0 -7 3 -15h-8q-1 2 -1.5 6.5t-0.5 6.5q-1 9 -11 9h-8v-22h-7v50zM2453 44h10q5 0 7 1q3 3 3 7q0 8 -10 8h-10v-16z" />
<glyph unicode=" "  horiz-adv-x="258" />
<glyph unicode="&#x09;" horiz-adv-x="258" />
<glyph unicode="&#xa0;" horiz-adv-x="258" />
<glyph unicode="!" horiz-adv-x="279" d="M152 200h-49q28 152 88 486l74 10l7 -8q-61 -264 -120 -488zM147 65q0 -29 -20.5 -52t-46.5 -23q-17 0 -27 11t-10 28q0 27 21 49.5t46 22.5q37 0 37 -36z" />
<glyph unicode="&#x22;" horiz-adv-x="274" d="M214 756l4 -11l-74 -242h-29l34 253h65zM335 756l4 -11l-74 -242h-29l34 253h65z" />
<glyph unicode="#" horiz-adv-x="718" d="M181 -10l-39 5l-7 8l67 145h-135l-6 8l15 41h148l68 146h-141l-6 8l15 41h154l71 154l40 -5l6 -8l-65 -141h169l71 154l40 -5l6 -8l-65 -141h130l6 -8l-14 -41h-144l-68 -146h141l6 -8l-14 -41h-155l-73 -158l-39 5l-7 8l67 145h-169zM276 197h169l68 146h-169z" />
<glyph unicode="$" horiz-adv-x="475" d="M138 -140l-6 8l26 122q-92 0 -150 36l23 68q58 -42 143 -42q65 0 107 33.5t42 90.5q0 38 -21 70t-51 56.5t-60 50t-51 61.5t-21 80q0 76 56.5 131t143.5 68l28 130l32 3l6 -8l-26 -122h5q81 0 133 -31l-26 -69q-48 38 -120 38q-68 0 -109.5 -37t-41.5 -92q0 -36 21 -67 t51 -55t59.5 -49t50.5 -62t21 -82q0 -80 -58 -133.5t-147 -64.5l-28 -129z" />
<glyph unicode="%" horiz-adv-x="959" d="M453 555q0 -100 -63 -180.5t-157 -80.5q-59 0 -92.5 36.5t-33.5 105.5q0 100 63.5 180.5t156.5 80.5q60 0 93 -37t33 -105zM748 696l-423 -706h-46l422 706h47zM173 436q0 -99 72 -99q63 0 103 71t40 150q0 97 -73 97q-63 0 -102.5 -70.5t-39.5 -148.5zM878 183 q0 -100 -63 -180.5t-157 -80.5q-59 0 -92 36.5t-33 105.5q0 100 63.5 180.5t156.5 80.5q60 0 92.5 -36.5t32.5 -105.5zM598 64q0 -99 72 -99q63 0 103 71t40 150q0 97 -72 97q-64 0 -103.5 -70.5t-39.5 -148.5z" />
<glyph unicode="&#x26;" horiz-adv-x="764" d="M697 72q0 -65 -70 -82l-7 7q15 21 15 49t-25 53t-73 53q-109 -162 -271 -162q-88 0 -140 48t-52 121q0 67 46 129t123 97q-21 47 -21 99q0 97 63 154.5t153 57.5q60 0 94 -26t34 -69q0 -32 -17.5 -60.5t-44.5 -44.5q86 0 269 10l6 -5q0 -31 -10 -63q-55 2 -139 8 q-3 -121 -58 -231q61 -35 93 -67.5t32 -75.5zM298 496q0 -28 8.5 -54t18 -45t32.5 -41t36.5 -34t46 -32t45 -27t49.5 -27q44 102 47 214q-56 5 -121 13l-3 18q40 50 40 93q0 30 -17 49.5t-54 19.5q-54 0 -91 -40t-37 -107zM150 175q0 -59 39.5 -94t103.5 -35q123 0 206 128 q-121 66 -168 103q-44 36 -70 75q-55 -33 -83 -80.5t-28 -96.5z" />
<glyph unicode="'" horiz-adv-x="153" d="M214 756l4 -11l-74 -242h-29l34 253h65z" />
<glyph unicode="(" horiz-adv-x="377" d="M96 127q0 182 89 355.5t236 273.5l21 -35q-129 -113 -200.5 -272.5t-71.5 -324.5q0 -164 84 -284l-36 -36q-122 116 -122 323z" />
<glyph unicode=")" horiz-adv-x="377" d="M294 434q0 -183 -88.5 -356t-235.5 -274l-21 36q128 113 199.5 272t71.5 324q0 166 -84 285l36 35q122 -116 122 -322z" />
<glyph unicode="*" horiz-adv-x="486" d="M247 367l-4 9l47 152l-151 -94l-15 42l6 10l155 63l-135 68l34 41l10 1l105 -89l20 161h48l4 -9l-48 -154l152 96l15 -42l-5 -10l-153 -63l132 -68l-34 -41l-9 -1l-107 90l-19 -162h-48z" />
<glyph unicode="+" d="M526 322h-194l-42 -197h-51l41 197h-204l9 47q54 1 206 3l39 193h54l-41 -192q41 0 107.5 0.5t86.5 0.5l3 -6z" />
<glyph unicode="," horiz-adv-x="228" d="M-42 -170q64 86 91 160q-17 1 -27 13t-10 29q0 28 23 51t51 23q41 0 41 -43q0 -45 -47.5 -121.5t-100.5 -130.5z" />
<glyph unicode="-" horiz-adv-x="365" d="M40 272l3 39h300l-3 -39h-300z" />
<glyph unicode="." horiz-adv-x="232" d="M133 66q0 -28 -23 -52t-51 -24q-20 0 -32 11.5t-12 30.5q0 28 23.5 51t52.5 23q19 0 30.5 -11t11.5 -29z" />
<glyph unicode="/" horiz-adv-x="353" d="M400 751l6 -8l-346 -747l-41 7l-6 8l346 747z" />
<glyph unicode="0" horiz-adv-x="691" d="M637 456q0 -119 -48.5 -226.5t-131.5 -173.5t-176 -66q-87 0 -137.5 61.5t-50.5 178.5q0 118 49 226t132 174t176 66q88 0 137.5 -61.5t49.5 -178.5zM169 230q0 -91 32 -139t94 -48q70 0 132.5 61t98.5 156.5t36 196.5q0 90 -32.5 138t-93.5 48q-70 0 -132.5 -61 t-98.5 -156.5t-36 -195.5z" />
<glyph unicode="1" horiz-adv-x="320" d="M206 611h-2l-122 -28l-2 44l206 69l7 -9l-146 -687h-73l99 466q23 106 33 145z" />
<glyph unicode="2" horiz-adv-x="539" d="M0 0l3 62q91 67 159.5 123t138 122t107.5 126t38 108q0 44 -32 70.5t-91 26.5q-84 0 -202 -58l6 61q112 55 224 55q80 0 127 -37t47 -98q0 -181 -448 -499h201q88 0 162 10l-25 -72h-415z" />
<glyph unicode="3" horiz-adv-x="504" d="M145 642q104 54 207 54q68 0 108.5 -30.5t40.5 -84.5q0 -68 -61 -128t-162 -92q178 -12 178 -141q0 -94 -87.5 -162t-213.5 -68q-85 0 -157 24l20 55q73 -23 148 -23q89 0 150 47t61 114q0 106 -166 106q-38 0 -72 -7l11 55q120 23 195.5 78.5t75.5 121.5q0 77 -99 77 q-76 0 -184 -52z" />
<glyph unicode="4" horiz-adv-x="561" d="M42 242l387 442l78 10l7 -8l-93 -439q46 1 101 8l-25 -69h-89l-39 -186h-71l40 186h-297zM107 245v-2q73 2 218 2h26l46 212q29 135 36 162h-1z" />
<glyph unicode="5" horiz-adv-x="553" d="M24 14l20 57q65 -24 138 -24q94 0 156.5 55t62.5 134q0 60 -38.5 88.5t-100.5 28.5q-80 0 -132 -22l-11 12l74 343h204q86 0 162 10l-20 -72h-297l-49 -228q52 13 110 13q78 0 127 -39t49 -117q0 -108 -89 -185.5t-219 -77.5q-79 0 -147 24z" />
<glyph unicode="6" horiz-adv-x="595" d="M245 -10q-173 0 -173 208q0 124 57.5 239.5t155.5 187t207 71.5q57 0 80 -14l-20 -58q-26 14 -71 14q-102 0 -188.5 -80t-125.5 -232h2q36 35 89.5 54t103.5 19q73 0 114.5 -39.5t41.5 -110.5q0 -104 -81 -181.5t-192 -77.5zM333 346q-49 0 -100.5 -23.5t-77.5 -61.5 q-8 -48 -8 -79q0 -139 111 -139q74 0 128 58t54 135q0 52 -27.5 81t-79.5 29z" />
<glyph unicode="7" horiz-adv-x="517" d="M134 612l27 74h411l7 -8l-9 -45q-140 -132 -254.5 -300t-160.5 -333h-76q44 156 166.5 330t248.5 293l1 1h-186q-102 0 -175 -12z" />
<glyph unicode="8" horiz-adv-x="558" d="M207 -10q-87 0 -140 38t-53 100q0 64 57.5 123t151.5 95v1q-107 63 -107 155q0 80 71.5 137t168.5 57q78 0 125.5 -39t47.5 -99q0 -63 -51 -118t-135 -88l-1 -2q57 -27 94 -68.5t37 -94.5q0 -79 -77 -138t-189 -59zM343 645q-65 0 -110 -38t-45 -93q0 -81 111 -135 q73 32 116 77t43 95q0 43 -31.5 68.5t-83.5 25.5zM265 315q-80 -31 -128.5 -80.5t-48.5 -99.5q0 -42 36 -68t95 -26q76 0 128 40.5t52 95.5q0 44 -35.5 76.5t-98.5 61.5z" />
<glyph unicode="9" horiz-adv-x="591" d="M271 267q-77 0 -120.5 42t-43.5 117q0 108 77.5 189t188.5 81q85 0 134.5 -53.5t49.5 -157.5q0 -117 -55 -231t-153.5 -189t-210.5 -75q-47 0 -74 8l11 57q30 -7 66 -7q110 0 197.5 82.5t120.5 215.5h-1q-34 -39 -84.5 -59t-102.5 -20zM360 641q-73 0 -124 -61.5 t-51 -142.5q0 -55 29 -86t85 -31q47 0 94 21.5t78 65.5q8 43 8 83q0 71 -30.5 111t-88.5 40z" />
<glyph unicode=":" horiz-adv-x="233" d="M202 390q0 -29 -23 -52t-51 -23q-19 0 -31.5 11.5t-12.5 30.5q0 28 24 51t52 23q19 0 30.5 -11t11.5 -30zM133 66q0 -28 -23 -52t-51 -24q-20 0 -32 11.5t-12 30.5q0 28 23.5 51t52.5 23q19 0 30.5 -11t11.5 -29z" />
<glyph unicode=";" horiz-adv-x="239" d="M208 390q0 -29 -23 -52t-51 -23q-19 0 -31.5 11.5t-12.5 30.5q0 28 24 51t52 23q19 0 30.5 -11t11.5 -30zM-42 -170q64 86 91 160q-17 1 -27 13t-10 29q0 28 23 51t51 23q41 0 41 -43q0 -45 -47.5 -121.5t-100.5 -130.5z" />
<glyph unicode="&#x3c;" d="M548 566l-13 -56l-386 -175l314 -163l-12 -52q-207 97 -379 194l-2 7l7 37z" />
<glyph unicode="=" d="M545 417h-450l11 47q170 5 450 5l5 -6zM505 229h-450l10 47q172 5 451 5l4 -6z" />
<glyph unicode="&#x3e;" d="M57 120l12 56l387 175l-314 162l11 53q71 -33 195 -96.5t185 -98.5l2 -7l-7 -36z" />
<glyph unicode="?" horiz-adv-x="447" d="M197 213l-45 -1q-2 14 0 40q3 29 28.5 56.5t59.5 51.5t67.5 50.5t56.5 63t23 78.5q0 39 -25.5 63t-71.5 24q-42 0 -89.5 -22t-84.5 -64l-26 39q43 48 102.5 76t122.5 28q71 0 111 -33t41 -89q0 -51 -25 -96t-61.5 -75.5t-73.5 -56.5t-65 -50t-32 -44q-3 -24 -3 -31z M193 65q0 -29 -20.5 -52t-46.5 -23q-17 0 -27 11t-10 28q0 27 21.5 49.5t46.5 22.5q36 0 36 -36z" />
<glyph unicode="@" horiz-adv-x="1119" d="M815 -162q-133 -94 -304 -94q-191 0 -313 121t-122 313q0 157 84 291.5t219 210.5t285 76q187 0 305 -115t118 -285q0 -151 -90.5 -258.5t-217.5 -107.5q-51 0 -83.5 20t-44 53.5t-9.5 72t15 82.5h-5q-33 -86 -93.5 -157t-122.5 -71q-43 0 -70 37.5t-27 108.5 q0 89 39.5 173t113.5 140.5t164 56.5q65 0 125 -22l-52 -216q-6 -24 -8.5 -37.5t-7 -41.5t-4 -45.5t4 -40t13 -35.5t27.5 -22.5t44 -9.5q90 0 166.5 91.5t76.5 226.5q0 158 -107 260.5t-269 102.5q-96 0 -193 -39.5t-174.5 -107t-126.5 -169t-49 -214.5q0 -177 110.5 -290.5 t290.5 -113.5q83 0 146 21.5t131 59.5zM469 53q58 0 123 110t88 206l18 74q-35 12 -66 12q-55 0 -106 -46.5t-81 -117t-30 -140.5q0 -98 54 -98z" />
<glyph unicode="A" horiz-adv-x="613" d="M44 0h-72l331 589q29 52 55 103l74 4l9 -10l94 -686h-77l-28 201h-273zM273 406l-83 -148h232l-21 148q-17 145 -17 209h-2q-28 -62 -109 -209z" />
<glyph unicode="B" horiz-adv-x="607" d="M247 0h-180l113 532q18 80 25 154h175q90 0 140 -37.5t50 -104.5q0 -64 -42.5 -115t-108.5 -70q62 -12 92 -48t30 -89q0 -100 -84 -161t-210 -61zM358 630h-82l-54 -252h65q90 0 147.5 44t57.5 106q0 102 -134 102zM301 326h-90l-58 -270h107q91 0 147.5 44.5t56.5 117.5 q0 53 -38 80.5t-125 27.5z" />
<glyph unicode="C" horiz-adv-x="580" d="M505 107l-5 -63q-84 -54 -195 -54q-104 0 -160.5 63.5t-56.5 184.5q0 112 45.5 216.5t131.5 173t192 68.5q101 0 162 -44l-30 -68q-57 48 -144 48q-85 0 -150.5 -60.5t-96 -145t-30.5 -172.5q0 -95 40.5 -147.5t119.5 -52.5q92 0 177 53z" />
<glyph unicode="D" horiz-adv-x="697" d="M648 432q0 -82 -29.5 -159.5t-82.5 -138t-133.5 -97.5t-174.5 -37h-161l113 532q21 100 25 154h176q128 0 197.5 -63.5t69.5 -190.5zM359 628h-83l-121 -570h88q77 0 140.5 32t103 84.5t61 117t21.5 132.5q0 107 -53 155.5t-157 48.5z" />
<glyph unicode="E" horiz-adv-x="543" d="M457 63l-13 -63h-377l113 532q20 89 25 154h367l7 -8l-12 -54l-291 5l-55 -261l248 2l-14 -59l-246 3l-55 -257z" />
<glyph unicode="F" horiz-adv-x="511" d="M142 0h-75l113 532q20 89 25 154h363l6 -8l-12 -54l-286 5l-58 -274l244 3l-15 -60l-240 4z" />
<glyph unicode="G" horiz-adv-x="646" d="M574 298l7 -8l-56 -252q-84 -48 -201 -48q-115 0 -175.5 63t-60.5 188q0 115 48 219t136 170t193 66q100 0 165 -44l-29 -68q-58 49 -146 49q-84 0 -151.5 -57.5t-101.5 -143t-34 -178.5q0 -202 179 -202q57 0 113 18l11 53q20 93 26 165z" />
<glyph unicode="H" horiz-adv-x="718" d="M142 0h-75l112 530q21 98 26 156l77 10l7 -8l-68 -318h335l34 160q19 87 26 156l77 10l6 -8l-146 -688h-75l66 312h-335z" />
<glyph unicode="I" horiz-adv-x="308" d="M142 0h-75l112 530q20 87 26 156l77 10l7 -8z" />
<glyph unicode="J" horiz-adv-x="284" d="M-59 -187l-17 35q103 67 135 218l98 464q16 73 24 154l78 12l7 -8l-132 -622q-21 -97 -65.5 -156.5t-127.5 -96.5z" />
<glyph unicode="K" horiz-adv-x="615" d="M180 530q19 92 25 156l75 10l7 -8l-68 -323h97q74 86 284 331l59 -12l5 -8l-289 -327l168 -349l-83 -9q-87 175 -154 316h-100l-65 -307h-74z" />
<glyph unicode="L" horiz-adv-x="510" d="M142 0h-75l113 531q20 91 25 155l77 10l7 -8zM446 63l-13 -63h-291l13 57z" />
<glyph unicode="M" horiz-adv-x="851" d="M793 696l8 -8l-61 -688h-74l23 264q17 194 35 331h-1q-44 -94 -170 -331l-142 -264h-84l-29 264q-25 215 -31 331h-1q-17 -60 -106 -331l-90 -264h-65l232 691l87 5l47 -369q15 -148 15 -260h2q55 124 127 260l200 364z" />
<glyph unicode="N" horiz-adv-x="729" d="M406 397q6 -16 26 -65t27 -66.5t20 -53t21 -62.5t15 -57h2q13 87 83 424q21 97 29 169l74 10l7 -9l-146 -687h-76q-23 56 -63 155.5t-57 141.5q-87 217 -108 294h-1q-14 -99 -45 -241l-74 -350h-73l113 532q19 86 25 154l81 9q12 -29 54.5 -136t65.5 -162z" />
<glyph unicode="O" horiz-adv-x="693" d="M645 445q0 -111 -44 -215t-126.5 -172t-182.5 -68q-96 0 -150.5 63.5t-54.5 182.5q0 112 45 217t128 174t181 69q96 0 150 -65.5t54 -185.5zM166 242q0 -91 36 -141t105 -50q77 0 138 61.5t91 150t30 180.5t-34.5 142.5t-102.5 50.5q-76 0 -138 -62t-93.5 -151.5 t-31.5 -180.5z" />
<glyph unicode="P" horiz-adv-x="556" d="M142 0h-75l113 532q20 95 25 154h169q94 0 146.5 -43.5t52.5 -121.5q0 -118 -88.5 -193t-218.5 -75h-70zM351 630h-74l-69 -321h70q97 0 156.5 57t59.5 147q0 117 -143 117z" />
<glyph unicode="Q" horiz-adv-x="674" d="M752 -117q0 -58 -112 -58q-97 0 -202.5 45.5t-179.5 122.5q-80 12 -125.5 75t-45.5 170q0 111 45.5 216t128 173.5t179.5 68.5q95 0 149.5 -66.5t54.5 -187.5q0 -106 -40.5 -205t-114.5 -166.5t-163 -78.5q62 -40 149 -69t165 -29q48 0 104 15q8 -10 8 -26zM305 51 q77 0 138 61.5t91.5 150t30.5 180.5q0 91 -34.5 142t-102.5 51q-58 0 -108.5 -36.5t-84 -94t-52.5 -127t-19 -136.5q0 -91 36 -141t105 -50z" />
<glyph unicode="R" horiz-adv-x="589" d="M142 0h-75l113 532q20 89 25 154h162q98 0 152.5 -43t54.5 -119q0 -82 -51 -144t-138 -87l124 -293l-82 -10q-59 145 -113 283h-114zM351 630h-74l-65 -302h71q96 0 153.5 50.5t57.5 135.5q0 116 -143 116z" />
<glyph unicode="S" horiz-adv-x="508" d="M438 197q0 -90 -73.5 -148.5t-188.5 -58.5q-102 0 -167 36l23 68q64 -42 157 -42q74 0 122 38.5t48 96.5q0 25 -9.5 45.5t-27.5 36.5t-34.5 27t-40.5 25q-6 3 -9 5q-28 16 -45.5 28t-37.5 32t-30 45.5t-10 57.5q0 88 74.5 147.5t188.5 59.5q94 0 149 -31l-26 -69 q-54 38 -136 38q-74 0 -122 -37.5t-48 -93.5q0 -13 3.5 -25t7 -20.5t13.5 -19t15 -16t20 -16t20 -13.5t24 -14.5t23 -13.5q25 -15 42 -28t36 -33.5t29 -47.5t10 -59z" />
<glyph unicode="T" horiz-adv-x="511" d="M240 0h-75l134 628q-105 -2 -211 -6l18 64h484l-9 -64q-103 4 -207 6z" />
<glyph unicode="U" horiz-adv-x="652" d="M82 160q0 43 44.5 242.5t50.5 285.5l83 8l4 -5q-102 -476 -104 -494q-1 -9 -1 -19q0 -61 36 -93t96 -32q72 0 127 45t72 128q78 367 84 415q2 20 4 47l85 8l-100 -471q-25 -113 -105.5 -174t-185.5 -61q-86 0 -138 44.5t-52 125.5z" />
<glyph unicode="V" horiz-adv-x="600" d="M214 -4l-100 693l80 7l56 -405q19 -139 18 -213q38 83 118 221l222 397l59 -6l5 -8l-391 -686h-67z" />
<glyph unicode="W" horiz-adv-x="958" d="M180 -4l-66 692l78 8l36 -408q13 -126 9 -207q21 54 106 222l200 388l72 5l36 -408q13 -130 11 -207q23 63 104 220l202 395l57 -6l5 -8l-356 -686h-67l-44 429q-8 103 -9 167h-2q-23 -53 -81 -167l-224 -429h-67z" />
<glyph unicode="X" horiz-adv-x="557" d="M-25 0l-2 8l278 335l-134 342l81 11l117 -305h2l242 305l64 -6l2 -9l-278 -337l133 -344h-84l-113 296h-2l-238 -296h-68z" />
<glyph unicode="Y" horiz-adv-x="539" d="M232 247l-118 442l80 7l62 -246l10.5 -45.5t12.5 -58.5t6 -47h2q17 33 96 152l164 245l59 -6l5 -8l-305 -438l-52 -244h-75z" />
<glyph unicode="Z" horiz-adv-x="514" d="M-15 0l-2 47l492 577l-359 -4l19 66h424l8 -47l-491 -577l373 5l-18 -67h-446z" />
<glyph unicode="[" horiz-adv-x="332" d="M198 756h211l-12 -59h-140l-178 -834h141l-13 -59h-212l190 893z" />
<glyph unicode="\" horiz-adv-x="360" d="M194 -4l-28 747l10 8l43 7l28 -747l-10 -8z" />
<glyph unicode="]" horiz-adv-x="332" d="M148 -196h-211l12 59h140l178 834h-141l13 59h212l-190 -893z" />
<glyph unicode="^" horiz-adv-x="511" d="M129 210h-57l216 336h58l76 -336h-56l-62 277z" />
<glyph unicode="_" horiz-adv-x="370" d="M-95 -196l9 38h370l-8 -38h-371z" />
<glyph unicode="`" horiz-adv-x="326" d="M280 577q-88 66 -128 155l7 13l70 14q21 -77 77 -170z" />
<glyph unicode="a" horiz-adv-x="523" d="M46 135q0 90 39 174.5t113 140.5t164 56q68 0 126 -22l-42 -174q-46 -204 -46 -310h-73q0 91 25 210q-42 -90 -96 -155t-113 -65q-44 0 -70.5 36.5t-26.5 108.5zM122 151q0 -98 54 -98q38 0 84 60t79 132.5t50 132.5q5 20 15 64q-35 13 -67 13q-83 0 -149 -97.5 t-66 -206.5z" />
<glyph unicode="b" horiz-adv-x="528" d="M171 609l8 137l82 10q0 -51 -15 -138.5t-28 -146.5t-43 -185q39 93 93 156.5t116 63.5q46 0 73 -36.5t27 -108.5q0 -90 -39 -174.5t-113 -140.5t-164 -56q-70 0 -125 22q7 35 16 76t26.5 122.5t36.5 169.5zM354 444q-40 0 -88.5 -62t-83.5 -138.5t-48 -135.5 q-2 -8 -5.5 -26t-5.5 -27q39 -14 70 -14q82 0 148 98t66 207q0 98 -53 98z" />
<glyph unicode="c" horiz-adv-x="454" d="M381 125l18 -27q-77 -108 -191 -108q-71 0 -113.5 47t-42.5 134q0 130 84.5 232.5t198.5 102.5q62 0 111 -40l-24 -65q-44 51 -100 51q-75 0 -134 -85t-59 -186q0 -63 26.5 -100t78.5 -37q74 0 147 81z" />
<glyph unicode="d" horiz-adv-x="526" d="M402 0h-73q0 72 27 215q-39 -95 -93.5 -160t-119.5 -65q-44 0 -70.5 36.5t-26.5 108.5q0 90 39 174.5t112.5 140.5t162.5 56q31 0 56 -5l23 108l8 137l82 10q0 -94 -63.5 -373t-63.5 -383zM122 151q0 -98 54 -98q39 0 85.5 60t80 133.5t48.5 132.5v1l14 62q-36 13 -67 13 q-83 0 -149 -97.5t-66 -206.5z" />
<glyph unicode="e" horiz-adv-x="463" d="M379 125l18 -27q-33 -51 -84 -79.5t-105 -28.5q-70 0 -113 47.5t-43 134.5q0 123 80 228.5t186 105.5q54 0 86.5 -28t32.5 -78q0 -73 -74 -124t-231 -58q-3 -21 -3 -41q0 -60 27 -96.5t76 -36.5q73 0 147 81zM305 456q-55 0 -101.5 -62t-65.5 -143q122 10 175 52t53 92 q0 28 -16.5 44.5t-44.5 16.5z" />
<glyph unicode="f" horiz-adv-x="338" d="M-12 -216l-25 30q68 85 93 198l92 434l-75 3l7 32l77 11q4 18 9.5 50t7.5 41q17 82 68.5 127.5t130.5 45.5q65 0 109 -28l-31 -61q-38 31 -91 31q-89 0 -114 -114q-12 -62 -17 -92h132l5 -9l-11 -40l-135 3l-89 -421q-33 -157 -143 -241z" />
<glyph unicode="g" horiz-adv-x="443" d="M128 -256q-82 0 -128.5 33t-46.5 86q0 71 89 117l19 -19q-38 -41 -38 -78q0 -41 31.5 -67t87.5 -26q61 0 100.5 28.5t39.5 66.5q0 24 -20.5 43.5t-65.5 41.5q-60 30 -73 45t-13 31q0 46 96 100v2q-9 -1 -14 -1q-61 1 -94.5 38t-33.5 99q0 92 64 157t152 65q124 0 172 11 q8 -10 8 -25q0 -14 -10 -24.5t-33 -10.5q-18 0 -77 16v-2q55 -34 55 -109q0 -52 -22 -96t-53.5 -73t-63 -51.5t-53.5 -41t-22 -32.5q0 -20 51 -44q3 -1 5 -2q60 -28 90 -57t30 -67q0 -60 -64 -107t-165 -47zM325 367q0 43 -17 68t-48 25q-49 0 -87.5 -56.5t-38.5 -122.5 q0 -44 18.5 -68t50.5 -24q51 0 86.5 56t35.5 122z" />
<glyph unicode="h" horiz-adv-x="550" d="M134 0h-73q0 96 61 380l49 229l8 137l82 10q0 -48 -12.5 -125t-22 -120.5t-35.5 -155.5h2q36 74 89.5 112.5t107.5 38.5q46 0 70.5 -25.5t24.5 -72.5q0 -25 -5 -52t-33 -154q-23 -111 -23 -202h-73q0 82 34 242q24 109 24 141q0 61 -56 61q-60 0 -110 -63t-78 -164.5 t-31 -216.5z" />
<glyph unicode="i" horiz-adv-x="255" d="M252 685q0 -30 -21.5 -53.5t-48.5 -23.5q-18 0 -28.5 11.5t-10.5 28.5q0 29 22 52t49 23q18 0 28 -10.5t10 -27.5zM134 0h-73q0 96 37 267l20 92l8 137l82 10q0 -70 -37 -246.5t-37 -259.5z" />
<glyph unicode="j" horiz-adv-x="234" d="M242 685q0 -30 -21 -53.5t-49 -23.5q-18 0 -28.5 11.5t-10.5 28.5q0 29 22 52t49 23q18 0 28 -10.5t10 -27.5zM-61 -256l-25 30q88 68 115 198l83 387l8 137l81 10q0 -18 -1.5 -37.5t-6 -47.5t-8.5 -52t-13.5 -70t-17 -81.5l-22.5 -106.5t-27 -126q-19 -86 -56.5 -142.5 t-109.5 -98.5z" />
<glyph unicode="k" horiz-adv-x="500" d="M480 425q0 -59 -54 -116t-129 -95q68 -130 141 -214h-92q-69 89 -124 217q183 108 183 191q0 44 -42 44q-52 0 -104.5 -70t-87 -175.5t-37.5 -206.5h-73q0 96 61 380l49 229l8 137l82 10q0 -32 -4.5 -71t-14.5 -90t-17.5 -88t-22.5 -103t-22 -96h2q39 95 96.5 146.5 t117.5 51.5q41 0 62.5 -22.5t21.5 -58.5z" />
<glyph unicode="l" horiz-adv-x="254" d="M134 0h-73q0 96 61 380l49 229l8 137l82 10q0 -94 -63.5 -373t-63.5 -383z" />
<glyph unicode="m" horiz-adv-x="824" d="M191 355q35 74 86.5 112.5t105.5 38.5q56 0 79.5 -41.5t9.5 -109.5h2q34 73 85.5 112t105.5 39q57 0 80.5 -42t7.5 -114l-42 -199q-13 -59 -13 -151h-72q0 80 42 287q17 80 8.5 118.5t-49.5 38.5q-57 0 -106 -63t-77 -165t-28 -216h-73q0 80 42 287q18 81 9.5 119 t-49.5 38q-61 0 -110 -70t-74 -170t-27 -204h-73q0 98 57 359l8 137l82 10q0 -63 -20 -151h3z" />
<glyph unicode="n" horiz-adv-x="550" d="M134 0h-73q0 51 9 115t18 105.5t30 138.5l8 137l82 10q0 -64 -20 -151h3q36 74 90 112.5t109 38.5q45 0 70 -25.5t25 -69.5q0 -39 -33 -189q-28 -128 -28 -222h-73q0 71 32 236q22 112 22 143q0 65 -54 65q-85 0 -149 -132.5t-68 -311.5z" />
<glyph unicode="o" horiz-adv-x="512" d="M461 332q0 -82 -32.5 -160t-94.5 -130t-137 -52q-68 0 -106.5 44t-38.5 130q0 83 33 161t95 129.5t136 51.5q69 0 107 -44.5t38 -129.5zM129 163q0 -122 83 -122q51 0 92 48t61 113.5t20 130.5q0 122 -83 122q-52 0 -93 -47.5t-60.5 -113.5t-19.5 -131z" />
<glyph unicode="p" horiz-adv-x="523" d="M162 -10q-27 0 -55 4q-32 -158 -32 -240h-73q0 92 61 376l49 229l8 137l82 10q0 -71 -28 -209q39 89 92 149t115 60q44 0 70.5 -37.5t26.5 -110.5q0 -90 -39 -173.5t-113 -139t-164 -55.5zM348 444q-37 0 -82.5 -57.5t-79 -128.5t-49.5 -132q-3 -12 -8.5 -36t-8.5 -36 q36 -13 67 -13q83 0 149 98t66 207q0 98 -54 98z" />
<glyph unicode="q" horiz-adv-x="519" d="M144 -10q-44 0 -71 38t-27 110q0 90 39 173.5t113 139t164 55.5q68 0 126 -22l-99 -437q-43 -191 -43 -293h-73q0 107 64 388l14 61q-41 -87 -95 -150t-112 -63zM122 151q0 -98 54 -98q38 0 84.5 59t80 130.5t49.5 131.5l15 68q-36 13 -68 13q-83 0 -149 -97.5 t-66 -206.5z" />
<glyph unicode="r" horiz-adv-x="382" d="M134 0h-73q0 96 37 267l20 92l8 137l82 10q0 -66 -25 -180h2q35 93 81 136.5t96 43.5q39 0 64 -23l-39 -65q-25 13 -51 13q-54 0 -101 -65.5t-73 -164t-28 -201.5z" />
<glyph unicode="s" horiz-adv-x="430" d="M393 480l-22 -62q-54 34 -110 34q-48 0 -78 -24t-30 -61q0 -27 20.5 -48t50 -35.5t58.5 -31t49.5 -44t20.5 -64.5q0 -66 -57 -110t-141 -44q-82 0 -136 34l22 61q56 -41 128 -41q47 0 78.5 25t31.5 62q0 27 -20.5 47.5t-50 34.5t-59 30t-50 43.5t-20.5 64.5 q0 68 58.5 111.5t140.5 43.5q64 0 116 -26z" />
<glyph unicode="t" horiz-adv-x="352" d="M350 450l-139 1q-9 -42 -18 -85t-14.5 -69t-11.5 -53t-9 -42t-6 -30.5t-4.5 -23t-2.5 -16t-1.5 -13.5t-0.5 -10q0 -62 60 -62q40 0 85 25l-2 -51q-55 -31 -116 -31q-102 0 -102 100q0 30 45 240q5 24 8 38t8 38t10 46h-73l7 34l76 10l43 117l49 5l7 -9l-27 -113h135l5 -8 z" />
<glyph unicode="u" horiz-adv-x="526" d="M67 146l44 213l8 137l82 10q0 -43 -6.5 -89t-21 -116t-18.5 -92q-17 -74 -10.5 -115t49.5 -41q56 0 102.5 61t73.5 161q23 111 29 170l3 51l75 10q-1 -35 -6.5 -77t-11.5 -72.5t-18.5 -89.5t-18.5 -92q-20 -105 -20 -175h-73q0 59 13 134q-34 -71 -84 -107.5t-101 -36.5 q-57 0 -81 42t-9 114z" />
<glyph unicode="v" horiz-adv-x="427" d="M118 0q-1 274 -53 496l75 10q50 -203 44 -434h1q164 251 183 429q15 5 31 5q34 0 34 -27q0 -67 -72 -213.5t-166 -265.5h-77z" />
<glyph unicode="w" horiz-adv-x="667" d="M639 506q35 0 35 -27q0 -69 -66 -214t-156 -265h-79q7 206 -5 395h-1q-23 -91 -74.5 -197.5t-116.5 -197.5h-78q3 279 -33 496l76 8q32 -194 24 -436h1q146 235 167 428h85q32 -195 22 -428h2q66 107 111 222t55 211q16 5 31 5z" />
<glyph unicode="x" horiz-adv-x="440" d="M-2 0q59 153 184 259q-41 156 -95 237l74 10q42 -65 84 -209q105 94 126 201q11 8 30 8q36 0 36 -27q0 -39 -53.5 -108t-124.5 -126q45 -167 91 -245h-79q-37 65 -75 206q-86 -83 -128 -206h-70z" />
<glyph unicode="y" horiz-adv-x="427" d="M399 506q34 0 34 -27q0 -59 -58.5 -182t-139.5 -245.5t-177 -215t-162 -92.5q-23 0 -36.5 11.5t-13.5 31.5q0 18 11 33q21 -4 46 -4q59 0 123.5 55t113.5 129h-22q-1 274 -53 496l75 10q50 -203 44 -434h1q164 251 183 429q15 5 31 5z" />
<glyph unicode="z" horiz-adv-x="416" d="M10 -10l-27 37q244 267 332 388q-76 31 -138 31q-65 0 -105 -58l-27 14q25 60 56.5 82t77.5 22q71 0 166 -49q15 22 32 49q37 0 37 -26q0 -33 -96.5 -154t-233.5 -260q10 3 25 3q22 0 69 -9t65 -9q58 0 103 62l29 -14q-28 -63 -60 -86t-81 -23q-34 0 -91 11.5t-79 11.5 q-30 0 -54 -23z" />
<glyph unicode="{" horiz-adv-x="332" d="M142 171q0 73 -83 86l12 56q63 4 99 53.5t36 143.5q0 10 -0.5 31.5t-0.5 30.5q0 107 51.5 145.5t152.5 38.5l-7 -46q-70 0 -99 -34.5t-29 -118.5q0 -1 0.5 -22.5t0.5 -31.5q0 -101 -38.5 -154.5t-97.5 -66.5q75 -28 75 -102q0 -47 -42 -137t-42 -129q0 -33 21 -48.5 t69 -15.5l-13 -46q-80 0 -116 20.5t-36 70.5q0 48 43.5 142t43.5 134z" />
<glyph unicode="|" horiz-adv-x="313" d="M31 -256l-6 7l214 1002l43 3l6 -7l-213 -1002z" />
<glyph unicode="}" horiz-adv-x="331" d="M203 389q0 -73 83 -86l-12 -56q-64 -4 -100 -53.5t-36 -143.5q0 -10 1 -31.5t1 -30.5q0 -107 -51.5 -145.5t-152.5 -38.5l6 46q70 0 99 34.5t29 118.5v54q0 101 38.5 154.5t97.5 66.5q-75 28 -75 102q0 47 42 137t42 129q0 33 -21 48.5t-69 15.5l13 46q80 0 116 -20.5 t36 -70.5q0 -48 -43.5 -142t-43.5 -134z" />
<glyph unicode="~" d="M409 224q-25 0 -128.5 34.5t-114.5 34.5q-17 0 -84 -73q-3 -2 -4.5 -4t-3.5 -4l-27 22q85 112 133 112q25 0 128 -34.5t114 -34.5q16 0 82 68l12 12l26 -21q-25 -32 -42 -51.5t-44 -40t-47 -20.5z" />
<glyph unicode="&#xa1;" horiz-adv-x="279" d="M132 431q0 29 20.5 52t46.5 23q17 0 27 -11t10 -27q0 -28 -21 -50.5t-46 -22.5q-37 0 -37 36zM127 296h49q-47 -255 -88 -486l-74 -10l-7 8q61 264 120 488z" />
<glyph unicode="&#xa2;" horiz-adv-x="458" d="M172 -140l-6 8l26 123q-63 6 -99.5 53.5t-36.5 136.5q0 137 80.5 242.5t191.5 116.5l30 136l31 3l7 -8l-28 -131q54 -4 89 -39l-24 -68q-39 51 -97 51q-82 0 -142 -87t-60 -203q0 -148 102 -148q76 0 148 79l19 -27q-71 -96 -172 -107l-27 -128z" />
<glyph unicode="&#xa3;" horiz-adv-x="532" d="M471 -139q-23 -10 -62 -10q-53 0 -105 22.5t-124 70.5t-90 58q-24 -13 -51 -13q-51 0 -48 35q1 17 15 26.5t34 9.5q19 0 47 -10q21 25 35 68t36 129l10 46l-110 3l10 35l111 10q17 70 29.5 114.5t34 95t45 78.5t59 47t79.5 19q76 0 113 -32l-33 -67q-39 41 -89 41 q-60 0 -92.5 -62t-74.5 -234h181l5 -8l-16 -40h-182l-11 -42q-41 -157 -99 -219q17 -8 64.5 -33.5t76.5 -39.5t73 -27t81 -13q44 0 78 13z" />
<glyph unicode="&#xa4;" horiz-adv-x="572" d="M434 44l-65 85q-61 -41 -129 -41q-60 0 -98 32l-91 -74l-26 33l90 74q-19 33 -19 75q0 92 74 159l-59 78l35 30q51 -63 63 -78q56 35 119 35q65 0 104 -39l97 82l27 -33l-100 -82q15 -30 15 -69q0 -83 -63 -148q66 -86 66 -87v-6zM314 406q-66 0 -115 -50t-49 -116 q0 -46 27 -76t79 -30q67 0 114 49t47 116q0 49 -27.5 78t-75.5 29z" />
<glyph unicode="&#xa5;" horiz-adv-x="546" d="M43 124l8 40h167l20 93h-167l8 39h168l-133 393l79 7l70 -214q18 -53 36 -133h1q36 54 94 132l161 215l58 -6l5 -8l-297 -386h166l-8 -39h-168l-19 -93h167l-8 -40h-168l-26 -124h-74l27 124h-167z" />
<glyph unicode="&#xa6;" horiz-adv-x="313" d="M208 370l-37 -3l-13 7l81 379l43 3l6 -7zM75 -253l-36 -3l-14 7l81 378l44 3l5 -7z" />
<glyph unicode="&#xa7;" horiz-adv-x="544" d="M419 613q-54 0 -88.5 -34.5t-34.5 -87.5q0 -41 24.5 -89.5t53.5 -88t53.5 -96.5t24.5 -112q0 -117 -92.5 -196t-231.5 -79q-83 0 -127 23l32 89q36 -29 90 -29q59 0 96.5 35.5t37.5 89.5q0 40 -25 88.5t-54.5 87.5t-54.5 95.5t-25 111.5q0 116 91.5 195.5t226.5 79.5 q80 0 124 -23l-31 -89q-36 29 -90 29zM153 -124q112 4 178.5 67.5t66.5 149.5q0 49 -25 102.5t-54.5 92.5t-54.5 89.5t-25 95.5q0 64 44.5 114.5t114.5 56.5v6q-113 -4 -179 -67t-66 -150q0 -49 25 -102.5t54.5 -92.5t54.5 -89.5t25 -95.5q0 -64 -44.5 -114.5t-114.5 -56.5 v-6z" />
<glyph unicode="&#xa8;" horiz-adv-x="397" d="M238 682q0 -29 -20.5 -52.5t-46.5 -23.5q-17 0 -26.5 11t-9.5 27q0 28 21.5 51t46.5 23q35 0 35 -36zM437 682q0 -29 -20.5 -52.5t-45.5 -23.5q-17 0 -27 11t-10 27q0 28 21.5 51t47.5 23q16 0 25 -9.5t9 -26.5z" />
<glyph unicode="&#xa9;" horiz-adv-x="689" d="M281 -39q-104 0 -168.5 63t-64.5 162q0 135 110 244t249 109q104 0 169 -64t65 -163q0 -87 -50 -168.5t-134 -132t-176 -50.5zM289 0q120 0 216 93t96 208q0 86 -57 142.5t-146 56.5q-120 0 -214.5 -94t-94.5 -211q0 -86 55.5 -140.5t144.5 -54.5zM466 384l-21 -48 q-29 31 -69 31q-46 0 -78 -40t-32 -98q0 -41 18 -65t51 -24q44 0 92 48l15 -23q-23 -31 -58.5 -49.5t-72.5 -18.5q-48 0 -76.5 31t-28.5 88q0 81 53.5 138t126.5 57q50 0 80 -27z" />
<glyph unicode="&#xaa;" horiz-adv-x="435" d="M89 401q0 108 74 196t185 88q60 0 106 -17l-32 -137q-37 -164 -36 -242h-62q0 73 18 159q-33 -68 -77.5 -117t-92.5 -49q-37 0 -60 30.5t-23 88.5zM154 412q0 -78 45 -78q31 0 68.5 45t64 101.5t40.5 104.5q2 8 11 48q-28 11 -53 11q-69 0 -122.5 -73.5t-53.5 -158.5z " />
<glyph unicode="&#xab;" horiz-adv-x="457" d="M62 283l5 20q90 68 209 194l18 -10q-62 -97 -155 -194q51 -94 73 -194l-22 -10q-78 140 -128 194zM236 283l5 20q84 64 209 194l18 -10q-67 -103 -156 -194q52 -92 74 -194l-23 -10q-73 136 -127 194z" />
<glyph unicode="&#xac;" horiz-adv-x="543" d="M500 313l-48 -219h-52l38 175h-389l9 47q167 5 436 5z" />
<glyph unicode="&#xae;" horiz-adv-x="690" d="M281 -39q-103 0 -167.5 63.5t-64.5 163.5q0 135 110 243t249 108q104 0 169 -64.5t65 -163.5q0 -134 -110.5 -242t-250.5 -108zM290 0q121 0 216 93.5t95 207.5q0 86 -57 142.5t-146 56.5q-120 0 -214.5 -94t-94.5 -211q0 -87 56.5 -141t144.5 -54zM265 92h-47l47 225 q14 64 16 104h107q48 0 73 -21.5t25 -61.5q0 -41 -27 -73.5t-69 -42.5l43 -130l-51 -5q-6 19 -19 64.5t-17 58.5h-56zM378 380h-52l-27 -128h51q37 0 60.5 22.5t23.5 55.5q0 23 -14.5 36.5t-41.5 13.5z" />
<glyph unicode="&#xaf;" horiz-adv-x="344" d="M132 639l10 49h272l-10 -49h-272z" />
<glyph unicode="&#xb0;" horiz-adv-x="335" d="M174 307q-41 0 -66 24t-25 65q0 58 46.5 104t106.5 46q41 0 66 -24t25 -64q0 -58 -46.5 -104.5t-106.5 -46.5zM224 508q-39 0 -68.5 -31t-29.5 -70q0 -28 16.5 -45t43.5 -17q39 0 68.5 31t29.5 71q0 29 -16.5 45t-43.5 16z" />
<glyph unicode="&#xb1;" horiz-adv-x="581" d="M545 398h-178l-33 -160h-52l33 160h-183l9 47q49 1 185 3l32 160h54l-34 -159q38 0 99 0.5t79 0.5l3 -6zM518 75h-450l9 47q172 5 452 5l3 -6z" />
<glyph unicode="&#xb2;" horiz-adv-x="366" d="M118 352l3 45q59 35 99 61.5t83 61t64.5 69t21.5 67.5q0 31 -20 48.5t-55 17.5q-62 0 -127 -44l4 47q63 41 146 41q53 0 85.5 -26t32.5 -71q0 -124 -273 -271h119q54 0 105 6l-17 -52h-271z" />
<glyph unicode="&#xb3;" horiz-adv-x="356" d="M204 733q60 33 132 33q47 0 76.5 -20t29.5 -53q0 -41 -40.5 -77t-100.5 -52q54 -2 85 -24t31 -61q0 -56 -57.5 -95.5t-140.5 -39.5q-59 0 -103 14l14 41q44 -14 91 -14q56 0 94 24.5t38 60.5q0 60 -103 60q-27 0 -51 -4l10 41q76 13 121.5 43t45.5 67q0 21 -17 33t-49 12 q-53 0 -111 -30z" />
<glyph unicode="&#xb4;" horiz-adv-x="246" d="M294 743l2 -13q-78 -88 -194 -156l-21 13q103 104 149 170z" />
<glyph unicode="&#xb6;" horiz-adv-x="604" d="M163 -119q171 0 218 220l101 471l15 75h-72l-90 -422h-29q-18 0 -38 2.5t-49 13.5t-51.5 29.5t-38.5 53.5t-16 81q0 116 87 198.5t212 82.5h151l-23 -114l-103 -482q-26 -124 -99.5 -192.5t-179.5 -68.5q-70 0 -139 26l16 53q67 -27 128 -27z" />
<glyph unicode="&#xb7;" horiz-adv-x="295" d="M213 299q0 -29 -23 -52.5t-51 -23.5q-19 0 -31 11.5t-12 30.5q0 28 23.5 51t51.5 23q19 0 30.5 -11t11.5 -29z" />
<glyph unicode="&#xb8;" horiz-adv-x="301" d="M152 -117q0 -44 -51 -72.5t-121 -33.5l4 31q105 18 105 64q0 28 -58 33l-7 15l48 91l44 -1l-37 -69q73 -11 73 -58z" />
<glyph unicode="&#xb9;" horiz-adv-x="245" d="M252 704h-1l-76 -14l-2 35l145 41l5 -6l-87 -408h-60l57 267q6 31 19 85z" />
<glyph unicode="&#xba;" horiz-adv-x="425" d="M436 543q0 -100 -63 -180.5t-157 -80.5q-59 0 -92 36.5t-33 105.5q0 100 63 180.5t156 80.5q60 0 93 -36.5t33 -105.5zM156 424q0 -99 72 -99q63 0 103 71t40 150q0 97 -72 97q-64 0 -103.5 -70.5t-39.5 -148.5z" />
<glyph unicode="&#xbb;" horiz-adv-x="457" d="M414 303l-5 -20q-84 -64 -209 -194l-18 10q67 103 156 194q-52 92 -74 194l23 10q73 -136 127 -194zM240 303l-5 -20q-87 -68 -209 -194l-18 10q67 103 156 194q-52 93 -73 194l22 10q73 -136 127 -194z" />
<glyph unicode="&#xbc;" horiz-adv-x="811" d="M269 644h-1l-76 -14l-2 35l145 41l5 -6l-87 -408h-60l57 267q6 31 19 85zM748 700l-576 -710h-50l575 710h51zM448 136l236 262l67 6l5 -6l-55 -258q34 2 65 6l-17 -50h-57l-23 -106h-58l23 106h-187zM500 140v-1q17 0 59 0.5t72 0.5h13l24 111q4 15 11 49.5t12 52.5h-1z " />
<glyph unicode="&#xbd;" horiz-adv-x="865" d="M269 644h-1l-76 -14l-2 35l145 41l5 -6l-87 -408h-60l57 267q6 31 19 85zM757 700l-576 -710h-49l575 710h50zM511 -10l2 45q59 35 99 61.5t83 61t64.5 69t21.5 67.5q0 31 -19.5 48.5t-54.5 17.5q-63 0 -128 -44l4 47q65 41 146 41q53 0 85.5 -26t32.5 -71 q0 -123 -272 -271h118q53 0 106 6l-18 -52h-270z" />
<glyph unicode="&#xbe;" horiz-adv-x="946" d="M221 671q60 33 132 33q47 0 76.5 -20t29.5 -53q0 -41 -40.5 -77t-100.5 -52q54 -2 85 -24t31 -61q0 -56 -57.5 -95.5t-140.5 -39.5q-59 0 -103 14l14 41q44 -14 91 -14q56 0 94 24.5t38 60.5q0 60 -103 60q-27 0 -51 -4l10 41q76 13 121.5 43t45.5 67q0 21 -17 33t-49 12 q-53 0 -111 -30zM871 700l-576 -710h-50l575 710h51zM581 136l237 262l67 6l5 -6l-55 -258q34 2 65 6l-18 -50h-56l-23 -106h-58l23 106h-187v40zM634 140v-1q17 0 59 0.5t72 0.5h13l24 111q16 78 23 102h-1z" />
<glyph unicode="&#xbf;" horiz-adv-x="446" d="M254 432q0 29 20.5 51.5t46.5 22.5q17 0 27 -11t10 -27q0 -28 -21 -50.5t-46 -22.5q-37 0 -37 37zM250 284l46 1q1 -15 -1 -40q-3 -29 -28.5 -56.5t-59 -51.5t-67 -50.5t-56.5 -63t-23 -78.5q0 -39 25.5 -63t70.5 -24q42 0 89.5 22t85.5 64l26 -39q-44 -49 -103.5 -76.5 t-122.5 -27.5q-71 0 -111 33t-41 89q0 51 25 96t62 75.5t74 56.5t65 50t31 44q3 24 3 31z" />
<glyph unicode="&#xc0;" horiz-adv-x="613" d="M535 777q-135 16 -225 75v13l57 45q70 -60 181 -110zM44 0h-72l331 589q29 52 55 103l74 4l9 -10l94 -686h-77l-28 201h-273zM273 406l-83 -148h232l-21 148q-17 145 -17 209h-2q-28 -62 -109 -209z" />
<glyph unicode="&#xc1;" horiz-adv-x="613" d="M562 865l-6 -13q-116 -60 -257 -75l-3 23q144 56 227 110zM44 0h-72l331 589q29 52 55 103l74 4l9 -10l94 -686h-77l-28 201h-273zM273 406l-83 -148h232l-21 148q-17 145 -17 209h-2q-28 -62 -109 -209z" />
<glyph unicode="&#xc2;" horiz-adv-x="613" d="M296 770l-17 20q80 61 140 118l62 7q47 -71 98 -125l-26 -20q-53 36 -114 88q-80 -53 -143 -88zM44 0h-72l331 589q29 52 55 103l74 4l9 -10l94 -686h-77l-28 201h-273zM273 406l-83 -148h232l-21 148q-17 145 -17 209h-2q-28 -62 -109 -209z" />
<glyph unicode="&#xc3;" horiz-adv-x="613" d="M373 902q30 0 69.5 -28t62.5 -28q37 0 78 54l22 -4q-13 -43 -45 -74.5t-72 -31.5q-30 0 -71 28t-63 28q-39 0 -78 -53l-22 4q13 41 44.5 73t74.5 32zM44 0h-72l331 589q29 52 55 103l74 4l9 -10l94 -686h-77l-28 201h-273zM273 406l-83 -148h232l-21 148q-17 145 -17 209 h-2q-28 -62 -109 -209z" />
<glyph unicode="&#xc4;" horiz-adv-x="613" d="M582 857q0 -26 -20.5 -47t-46.5 -21q-18 0 -28 10t-10 26q0 25 21 45.5t47 20.5q17 0 27 -9.5t10 -24.5zM380 857q0 -26 -20.5 -47t-45.5 -21q-19 0 -29 10t-10 26q0 25 21 45.5t47 20.5q17 0 27 -9.5t10 -24.5zM44 0h-72l331 589q29 52 55 103l74 4l9 -10l94 -686h-77 l-28 201h-273zM273 406l-83 -148h232l-21 148q-17 145 -17 209h-2q-28 -62 -109 -209z" />
<glyph unicode="&#xc5;" horiz-adv-x="613" d="M521 863q0 -40 -35.5 -72.5t-79.5 -32.5q-30 0 -50 17.5t-20 44.5q0 39 36 71t81 32q31 0 49.5 -17t18.5 -43zM380 827q0 -16 10 -25.5t26 -9.5q24 0 42.5 19t18.5 44q0 15 -9.5 24.5t-26.5 9.5q-24 0 -42.5 -19t-18.5 -43zM44 0h-72l331 589q29 52 55 103l74 4l9 -10 l94 -686h-77l-28 201h-273zM273 406l-83 -148h232l-21 148q-17 145 -17 209h-2q-28 -62 -109 -209z" />
<glyph unicode="&#xc6;" horiz-adv-x="858" d="M44 0h-72l425 589q49 71 67 97h352l7 -8l-13 -54l-266 4l-26 -260l230 2l-14 -59l-221 3l-25 -256l283 5l-13 -63h-352l23 201h-240zM337 406l-106 -148h204l17 148q17 147 28 209h-2q-42 -70 -141 -209z" />
<glyph unicode="&#xc7;" horiz-adv-x="580" d="M379 -117q0 -44 -50.5 -72.5t-120.5 -33.5l3 31q106 18 106 64q0 27 -58 33l-7 15l37 70q-97 5 -149 68.5t-52 179.5q0 112 45.5 216.5t131.5 173t192 68.5q101 0 162 -44l-30 -68q-57 48 -144 48q-85 0 -150.5 -60.5t-96 -145t-30.5 -172.5q0 -95 40.5 -147.5 t119.5 -52.5q92 0 177 53l-5 -63q-70 -44 -166 -53l-27 -50q72 -11 72 -58z" />
<glyph unicode="&#xc8;" horiz-adv-x="543" d="M532 777q-135 16 -224 75l-1 13l57 45q70 -60 181 -110zM457 63l-13 -63h-377l113 532q20 89 25 154h367l7 -8l-12 -54l-291 5l-55 -261l248 2l-14 -59l-246 3l-55 -257z" />
<glyph unicode="&#xc9;" horiz-adv-x="543" d="M559 865l-6 -13q-115 -60 -257 -75l-3 23q146 57 228 110zM457 63l-13 -63h-377l113 532q20 89 25 154h367l7 -8l-12 -54l-291 5l-55 -261l248 2l-14 -59l-246 3l-55 -257z" />
<glyph unicode="&#xca;" horiz-adv-x="543" d="M293 770l-17 20q78 59 141 118l61 7q47 -71 98 -125l-25 -20q-53 35 -115 88q-86 -57 -143 -88zM457 63l-13 -63h-377l113 532q20 89 25 154h367l7 -8l-12 -54l-291 5l-55 -261l248 2l-14 -59l-246 3l-55 -257z" />
<glyph unicode="&#xcb;" horiz-adv-x="543" d="M579 857q0 -26 -20.5 -47t-45.5 -21q-18 0 -28.5 10t-10.5 26q0 25 21 45.5t47 20.5q17 0 27 -9.5t10 -24.5zM377 857q0 -26 -20 -47t-46 -21q-18 0 -28.5 10t-10.5 26q0 25 21 45.5t47 20.5q17 0 27 -9.5t10 -24.5zM457 63l-13 -63h-377l113 532q20 89 25 154h367l7 -8 l-12 -54l-291 5l-55 -261l248 2l-14 -59l-246 3l-55 -257z" />
<glyph unicode="&#xcc;" horiz-adv-x="308" d="M387 777q-134 16 -224 75v13l57 45q67 -59 181 -110zM142 0h-75l112 530q20 87 26 156l77 10l7 -8z" />
<glyph unicode="&#xcd;" horiz-adv-x="308" d="M415 865l-6 -13q-116 -60 -257 -75l-3 23q146 57 227 110zM142 0h-75l112 530q20 87 26 156l77 10l7 -8z" />
<glyph unicode="&#xce;" horiz-adv-x="308" d="M148 770l-16 20q80 61 140 118l62 7q46 -70 97 -125l-25 -20q-58 39 -115 88q-86 -57 -143 -88zM142 0h-75l112 530q20 87 26 156l77 10l7 -8z" />
<glyph unicode="&#xcf;" horiz-adv-x="308" d="M435 857q0 -26 -20.5 -47t-46.5 -21q-18 0 -28 10t-10 26q0 25 21 45.5t46 20.5q18 0 28 -9.5t10 -24.5zM233 857q0 -26 -20.5 -47t-46.5 -21q-18 0 -28 10t-10 26q0 25 21 45.5t46 20.5q18 0 28 -9.5t10 -24.5zM142 0h-75l112 530q20 87 26 156l77 10l7 -8z" />
<glyph unicode="&#xd0;" horiz-adv-x="697" d="M648 432q0 -82 -29.5 -159.5t-82.5 -138t-133.5 -97.5t-174.5 -37h-161l69 321h-78l9 44h78l35 167q21 100 25 154h176q128 0 197.5 -63.5t69.5 -190.5zM424 321h-213l-56 -263h88q77 0 140.5 32t103 84.5t61 117t21.5 132.5q0 107 -53 155.5t-157 48.5h-83l-56 -263h213 z" />
<glyph unicode="&#xd1;" horiz-adv-x="729" d="M426 902q31 0 70.5 -28t62.5 -28q37 0 78 54l22 -4q-13 -43 -45 -74.5t-72 -31.5q-31 0 -72 28t-62 28q-39 0 -78 -53l-22 4q13 40 44.5 72.5t73.5 32.5zM406 397q6 -16 26 -65t27 -66.5t20 -53t21 -62.5t15 -57h2q13 87 83 424q21 97 29 169l74 10l7 -9l-146 -687h-76 q-23 56 -63 155.5t-57 141.5q-87 217 -108 294h-1q-14 -99 -45 -241l-74 -350h-73l113 532q19 86 25 154l81 9q12 -29 54.5 -136t65.5 -162z" />
<glyph unicode="&#xd2;" horiz-adv-x="693" d="M582 777q-135 16 -224 75l-1 13l57 45q70 -60 181 -110zM645 445q0 -111 -44 -215t-126.5 -172t-182.5 -68q-96 0 -150.5 63.5t-54.5 182.5q0 112 45 217t128 174t181 69q96 0 150 -65.5t54 -185.5zM166 242q0 -91 36 -141t105 -50q77 0 138 61.5t91 150t30 180.5 t-34.5 142.5t-102.5 50.5q-76 0 -138 -62t-93.5 -151.5t-31.5 -180.5z" />
<glyph unicode="&#xd3;" horiz-adv-x="693" d="M609 865l-6 -13q-115 -60 -257 -75l-3 23q147 57 227 110zM645 445q0 -111 -44 -215t-126.5 -172t-182.5 -68q-96 0 -150.5 63.5t-54.5 182.5q0 112 45 217t128 174t181 69q96 0 150 -65.5t54 -185.5zM166 242q0 -91 36 -141t105 -50q77 0 138 61.5t91 150t30 180.5 t-34.5 142.5t-102.5 50.5q-76 0 -138 -62t-93.5 -151.5t-31.5 -180.5z" />
<glyph unicode="&#xd4;" horiz-adv-x="693" d="M343 770l-17 20q78 59 141 118l61 7q47 -71 98 -125l-25 -20q-53 35 -115 88q-86 -57 -143 -88zM645 445q0 -111 -44 -215t-126.5 -172t-182.5 -68q-96 0 -150.5 63.5t-54.5 182.5q0 112 45 217t128 174t181 69q96 0 150 -65.5t54 -185.5zM166 242q0 -91 36 -141t105 -50 q77 0 138 61.5t91 150t30 180.5t-34.5 142.5t-102.5 50.5q-76 0 -138 -62t-93.5 -151.5t-31.5 -180.5z" />
<glyph unicode="&#xd5;" horiz-adv-x="693" d="M420 902q30 0 69.5 -28t62.5 -28q36 0 79 54l21 -4q-13 -43 -44.5 -74.5t-71.5 -31.5q-30 0 -71.5 28t-63.5 28q-37 0 -78 -53l-21 4q13 41 44.5 73t73.5 32zM645 445q0 -111 -44 -215t-126.5 -172t-182.5 -68q-96 0 -150.5 63.5t-54.5 182.5q0 112 45 217t128 174 t181 69q96 0 150 -65.5t54 -185.5zM166 242q0 -91 36 -141t105 -50q77 0 138 61.5t91 150t30 180.5t-34.5 142.5t-102.5 50.5q-76 0 -138 -62t-93.5 -151.5t-31.5 -180.5z" />
<glyph unicode="&#xd6;" horiz-adv-x="693" d="M629 857q0 -26 -20.5 -47t-45.5 -21q-18 0 -28.5 10t-10.5 26q0 25 21 45.5t47 20.5q17 0 27 -9.5t10 -24.5zM427 857q0 -26 -20.5 -47t-45.5 -21q-18 0 -28.5 10t-10.5 26q0 25 21 45.5t47 20.5q17 0 27 -9.5t10 -24.5zM645 445q0 -111 -44 -215t-126.5 -172t-182.5 -68 q-96 0 -150.5 63.5t-54.5 182.5q0 112 45 217t128 174t181 69q96 0 150 -65.5t54 -185.5zM166 242q0 -91 36 -141t105 -50q77 0 138 61.5t91 150t30 180.5t-34.5 142.5t-102.5 50.5q-76 0 -138 -62t-93.5 -151.5t-31.5 -180.5z" />
<glyph unicode="&#xd7;" d="M430 149l-128 163l-199 -164l-27 34l199 164l-129 164l42 34q27 -35 61.5 -79.5t66.5 -84.5l198 164l26 -34l-197 -164q31 -40 127 -162l-3 -8z" />
<glyph unicode="&#xd8;" horiz-adv-x="693" d="M645 445q0 -111 -44 -215t-126.5 -172t-182.5 -68q-121 0 -172 95l-96 -88l-28 29l107 99q-16 47 -16 111q0 112 45 217t128 174t181 69q120 0 172 -99l101 93l30 -28l-114 -106q15 -48 15 -111zM166 242q0 -32 4 -55l383 354q-32 95 -124 95q-76 0 -138 -62 t-93.5 -151.5t-31.5 -180.5zM566 443q0 28 -3 52l-382 -354q33 -90 126 -90q77 0 138 61.5t91 150t30 180.5z" />
<glyph unicode="&#xd9;" horiz-adv-x="652" d="M563 777q-135 16 -225 75v13l57 45q67 -59 181 -110zM82 160q0 43 44.5 242.5t50.5 285.5l83 8l4 -5q-102 -476 -104 -494q-1 -9 -1 -19q0 -61 36 -93t96 -32q72 0 127 45t72 128q78 367 84 415q2 20 4 47l85 8l-100 -471q-25 -113 -105.5 -174t-185.5 -61 q-86 0 -138 44.5t-52 125.5z" />
<glyph unicode="&#xda;" horiz-adv-x="652" d="M590 865l-6 -13q-116 -60 -257 -75l-3 23q144 56 227 110zM82 160q0 43 44.5 242.5t50.5 285.5l83 8l4 -5q-102 -476 -104 -494q-1 -9 -1 -19q0 -61 36 -93t96 -32q72 0 127 45t72 128q78 367 84 415q2 20 4 47l85 8l-100 -471q-25 -113 -105.5 -174t-185.5 -61 q-86 0 -138 44.5t-52 125.5z" />
<glyph unicode="&#xdb;" horiz-adv-x="652" d="M324 770l-17 20q80 61 140 118l62 7q47 -71 98 -125l-26 -20q-61 41 -114 88q-80 -53 -143 -88zM82 160q0 43 44.5 242.5t50.5 285.5l83 8l4 -5q-102 -476 -104 -494q-1 -9 -1 -19q0 -61 36 -93t96 -32q72 0 127 45t72 128q78 367 84 415q2 20 4 47l85 8l-100 -471 q-25 -113 -105.5 -174t-185.5 -61q-86 0 -138 44.5t-52 125.5z" />
<glyph unicode="&#xdc;" horiz-adv-x="652" d="M610 857q0 -26 -20.5 -47t-46.5 -21q-18 0 -28 10t-10 26q0 25 21 45.5t47 20.5q17 0 27 -9.5t10 -24.5zM408 857q0 -26 -20.5 -47t-45.5 -21q-19 0 -29 10t-10 26q0 25 21 45.5t47 20.5q17 0 27 -9.5t10 -24.5zM82 160q0 43 44.5 242.5t50.5 285.5l83 8l4 -5 q-102 -476 -104 -494q-1 -9 -1 -19q0 -61 36 -93t96 -32q72 0 127 45t72 128q78 367 84 415q2 20 4 47l85 8l-100 -471q-25 -113 -105.5 -174t-185.5 -61q-86 0 -138 44.5t-52 125.5z" />
<glyph unicode="&#xdd;" horiz-adv-x="539" d="M534 865l-6 -13q-116 -60 -257 -75l-3 23q144 56 227 110zM232 247l-118 442l80 7l62 -246l10.5 -45.5t12.5 -58.5t6 -47h2q17 33 96 152l164 245l59 -6l5 -8l-305 -438l-52 -244h-75z" />
<glyph unicode="&#xde;" horiz-adv-x="570" d="M142 0h-75l113 532q20 102 25 154h83l-24 -116h98q95 0 147.5 -43.5t52.5 -125.5q0 -111 -87.5 -187.5t-219.5 -76.5h-84zM339 513h-87l-68 -319h85q93 0 153 56.5t60 140.5q0 122 -143 122z" />
<glyph unicode="&#xdf;" horiz-adv-x="577" d="M-12 -214l-25 30q69 88 92 198l92 432l-74 3l7 32l76 10l5 24q27 128 89 184.5t141 56.5q64 0 101.5 -35t37.5 -95q0 -65 -45 -116.5t-123 -74.5q63 -34 100.5 -97.5t37.5 -140.5q0 -92 -52.5 -149.5t-141.5 -57.5q-56 0 -97 17l11 56q42 -20 85 -20q60 0 91 43t31 107 q0 73 -39 133.5t-105 94.5l7 36q79 15 123.5 59.5t44.5 104.5q0 39 -20 61.5t-58 22.5q-48 0 -86 -41.5t-57 -132.5l-106 -503q-34 -159 -143 -242z" />
<glyph unicode="&#xe0;" horiz-adv-x="523" d="M411 577q-89 68 -128 155l8 13l70 14q19 -73 77 -170zM46 135q0 90 39 174.5t113 140.5t164 56q68 0 126 -22l-42 -174q-46 -204 -46 -310h-73q0 91 25 210q-42 -90 -96 -155t-113 -65q-44 0 -70.5 36.5t-26.5 108.5zM122 151q0 -98 54 -98q38 0 84 60t79 132.5t50 132.5 q5 20 15 64q-35 13 -67 13q-83 0 -149 -97.5t-66 -206.5z" />
<glyph unicode="&#xe1;" horiz-adv-x="523" d="M466 743l1 -13q-79 -89 -193 -156l-21 13q104 104 148 170zM46 135q0 90 39 174.5t113 140.5t164 56q68 0 126 -22l-42 -174q-46 -204 -46 -310h-73q0 91 25 210q-42 -90 -96 -155t-113 -65q-44 0 -70.5 36.5t-26.5 108.5zM122 151q0 -98 54 -98q38 0 84 60t79 132.5 t50 132.5q5 20 15 64q-35 13 -67 13q-83 0 -149 -97.5t-66 -206.5z" />
<glyph unicode="&#xe2;" horiz-adv-x="523" d="M241 573l-19 17q84 89 137 157l61 6q36 -87 78 -163l-27 -17q-36 38 -94 118q-87 -80 -136 -118zM46 135q0 90 39 174.5t113 140.5t164 56q68 0 126 -22l-42 -174q-46 -204 -46 -310h-73q0 91 25 210q-42 -90 -96 -155t-113 -65q-44 0 -70.5 36.5t-26.5 108.5zM122 151 q0 -98 54 -98q38 0 84 60t79 132.5t50 132.5q5 20 15 64q-35 13 -67 13q-83 0 -149 -97.5t-66 -206.5z" />
<glyph unicode="&#xe3;" horiz-adv-x="523" d="M307 722q28 0 66 -28t58 -28q32 0 72 54l23 -4q-15 -44 -45.5 -77.5t-67.5 -33.5q-28 0 -67 28.5t-59 28.5q-31 0 -71 -54l-23 4q15 43 45.5 76.5t68.5 33.5zM46 135q0 90 39 174.5t113 140.5t164 56q68 0 126 -22l-42 -174q-46 -204 -46 -310h-73q0 91 25 210 q-42 -90 -96 -155t-113 -65q-44 0 -70.5 36.5t-26.5 108.5zM122 151q0 -98 54 -98q38 0 84 60t79 132.5t50 132.5q5 20 15 64q-35 13 -67 13q-83 0 -149 -97.5t-66 -206.5z" />
<glyph unicode="&#xe4;" horiz-adv-x="523" d="M312 684q0 -29 -20.5 -52.5t-45.5 -23.5q-17 0 -26.5 10.5t-9.5 27.5q0 28 21 51t47 23q16 0 25 -9.5t9 -26.5zM512 684q0 -29 -20.5 -52.5t-45.5 -23.5q-18 0 -27.5 10.5t-9.5 27.5q0 28 21.5 51t47.5 23q16 0 25 -9.5t9 -26.5zM46 135q0 90 39 174.5t113 140.5t164 56 q68 0 126 -22l-42 -174q-46 -204 -46 -310h-73q0 91 25 210q-42 -90 -96 -155t-113 -65q-44 0 -70.5 36.5t-26.5 108.5zM122 151q0 -98 54 -98q38 0 84 60t79 132.5t50 132.5q5 20 15 64q-35 13 -67 13q-83 0 -149 -97.5t-66 -206.5z" />
<glyph unicode="&#xe5;" horiz-adv-x="523" d="M451 677q0 -40 -35 -72.5t-79 -32.5q-31 0 -50.5 17.5t-19.5 44.5q0 38 36 70.5t80 32.5q31 0 49.5 -16.5t18.5 -43.5zM310 641q0 -16 10 -25.5t27 -9.5q24 0 42 19t18 44q0 34 -35 34q-24 0 -43 -19t-19 -43zM46 135q0 90 39 174.5t113 140.5t164 56q68 0 126 -22 l-42 -174q-46 -204 -46 -310h-73q0 91 25 210q-42 -90 -96 -155t-113 -65q-44 0 -70.5 36.5t-26.5 108.5zM122 151q0 -98 54 -98q38 0 84 60t79 132.5t50 132.5q5 20 15 64q-35 13 -67 13q-83 0 -149 -97.5t-66 -206.5z" />
<glyph unicode="&#xe6;" horiz-adv-x="750" d="M46 139q0 90 38.5 173t115 138.5t172.5 55.5q68 0 135 -27q48 27 97 27q55 0 87.5 -29t32.5 -80q0 -71 -73.5 -121t-232.5 -58q-3 -21 -3 -41q0 -60 27.5 -96.5t76.5 -36.5q72 0 146 81l19 -27q-34 -51 -85 -79.5t-104 -28.5q-70 0 -113 47.5t-43 134.5v11 q-40 -81 -90.5 -137t-104.5 -56q-44 0 -71 38t-27 111zM591 456q-55 0 -101 -62t-65 -143q122 10 175 52t53 92q0 28 -16.5 44.5t-45.5 16.5zM122 151q0 -98 53 -98q47 0 99.5 77.5t91.5 176.5q30 73 79 124q-46 24 -94 24q-64 0 -118 -47t-82.5 -116.5t-28.5 -140.5z" />
<glyph unicode="&#xe7;" horiz-adv-x="454" d="M285 -117q0 -44 -51 -72.5t-121 -33.5l4 31q105 18 105 64q0 28 -58 33l-7 15l38 70q-66 5 -104.5 52t-38.5 129q0 130 84.5 232.5t198.5 102.5q62 0 111 -40l-24 -65q-44 51 -100 51q-75 0 -134 -85t-59 -186q0 -63 26.5 -100t78.5 -37q74 0 147 81l18 -27 q-66 -91 -159 -106l-28 -51q73 -11 73 -58z" />
<glyph unicode="&#xe8;" horiz-adv-x="463" d="M370 577q-87 67 -127 155l7 13l70 14q19 -73 77 -170zM379 125l18 -27q-33 -51 -84 -79.5t-105 -28.5q-70 0 -113 47.5t-43 134.5q0 123 80 228.5t186 105.5q54 0 86.5 -28t32.5 -78q0 -73 -74 -124t-231 -58q-3 -21 -3 -41q0 -60 27 -96.5t76 -36.5q73 0 147 81z M305 456q-55 0 -101.5 -62t-65.5 -143q122 10 175 52t53 92q0 28 -16.5 44.5t-44.5 16.5z" />
<glyph unicode="&#xe9;" horiz-adv-x="463" d="M425 743l1 -13q-79 -89 -193 -156l-21 13q104 104 148 170zM379 125l18 -27q-33 -51 -84 -79.5t-105 -28.5q-70 0 -113 47.5t-43 134.5q0 123 80 228.5t186 105.5q54 0 86.5 -28t32.5 -78q0 -73 -74 -124t-231 -58q-3 -21 -3 -41q0 -60 27 -96.5t76 -36.5q73 0 147 81z M305 456q-55 0 -101.5 -62t-65.5 -143q122 10 175 52t53 92q0 28 -16.5 44.5t-44.5 16.5z" />
<glyph unicode="&#xea;" horiz-adv-x="463" d="M201 573l-20 17q84 89 137 157l61 6q36 -87 78 -163l-26 -17q-40 42 -95 118q-86 -80 -135 -118zM379 125l18 -27q-33 -51 -84 -79.5t-105 -28.5q-70 0 -113 47.5t-43 134.5q0 123 80 228.5t186 105.5q54 0 86.5 -28t32.5 -78q0 -73 -74 -124t-231 -58q-3 -21 -3 -41 q0 -60 27 -96.5t76 -36.5q73 0 147 81zM305 456q-55 0 -101.5 -62t-65.5 -143q122 10 175 52t53 92q0 28 -16.5 44.5t-44.5 16.5z" />
<glyph unicode="&#xeb;" horiz-adv-x="463" d="M272 684q0 -29 -20.5 -52.5t-46.5 -23.5q-17 0 -26.5 10.5t-9.5 27.5q0 28 21.5 51t46.5 23q35 0 35 -36zM471 684q0 -29 -20.5 -52.5t-45.5 -23.5q-17 0 -26.5 10.5t-9.5 27.5q0 28 21.5 51t46.5 23q34 0 34 -36zM379 125l18 -27q-33 -51 -84 -79.5t-105 -28.5 q-70 0 -113 47.5t-43 134.5q0 123 80 228.5t186 105.5q54 0 86.5 -28t32.5 -78q0 -73 -74 -124t-231 -58q-3 -21 -3 -41q0 -60 27 -96.5t76 -36.5q73 0 147 81zM305 456q-55 0 -101.5 -62t-65.5 -143q122 10 175 52t53 92q0 28 -16.5 44.5t-44.5 16.5z" />
<glyph unicode="&#xec;" horiz-adv-x="255" d="M248 577q-88 66 -128 155l8 13l70 14q19 -73 77 -170zM134 0h-73q0 96 37 267l20 92l8 137l82 10q0 -70 -37 -246.5t-37 -259.5z" />
<glyph unicode="&#xed;" horiz-adv-x="255" d="M302 743l2 -13q-79 -89 -193 -156l-22 13q103 104 149 170zM134 0h-73q0 96 37 267l20 92l8 137l82 10q0 -70 -37 -246.5t-37 -259.5z" />
<glyph unicode="&#xee;" horiz-adv-x="255" d="M100 580l-20 13q61 89 101 160l73 6q24 -106 41 -166l-25 -13q-34 51 -65 117q-64 -77 -105 -117zM134 0h-73q0 96 37 267l20 92l8 137l82 10q0 -70 -37 -246.5t-37 -259.5z" />
<glyph unicode="&#xef;" horiz-adv-x="255" d="M173 687q0 -29 -19.5 -53t-44.5 -24q-17 0 -26 11t-9 27q0 28 21 51t45 23q15 0 24 -9.5t9 -25.5zM322 687q0 -29 -19.5 -53t-44.5 -24q-16 0 -25.5 11t-9.5 27q0 28 21 51t45 23q15 0 24 -9.5t9 -25.5zM134 0h-73q0 96 37 267l20 92l8 137l82 10q0 -70 -37 -246.5 t-37 -259.5z" />
<glyph unicode="&#xf0;" horiz-adv-x="530" d="M204 -10q-68 0 -106.5 44.5t-38.5 129.5q0 127 73.5 230t179.5 103q60 0 93 -38q-15 86 -67 155l-145 -76l-17 38l134 71q-37 39 -80 66l34 43q61 -32 107 -77l134 70l18 -37l-124 -65q76 -101 76 -255q0 -168 -78 -285t-193 -117zM307 446q-50 0 -90.5 -43.5 t-61.5 -106.5t-21 -129q0 -126 86 -126q75 0 124 88.5t49 191.5q0 125 -86 125z" />
<glyph unicode="&#xf1;" horiz-adv-x="550" d="M299 722q28 0 66 -28t58 -28q32 0 72 54l22 -4q-14 -44 -44.5 -77.5t-67.5 -33.5q-28 0 -67.5 28.5t-58.5 28.5q-32 0 -72 -54l-22 4q15 43 45 76.5t69 33.5zM134 0h-73q0 51 9 115t18 105.5t30 138.5l8 137l82 10q0 -64 -20 -151h3q36 74 90 112.5t109 38.5 q45 0 70 -25.5t25 -69.5q0 -39 -33 -189q-28 -128 -28 -222h-73q0 71 32 236q22 112 22 143q0 65 -54 65q-85 0 -149 -132.5t-68 -311.5z" />
<glyph unicode="&#xf2;" horiz-adv-x="512" d="M390 577q-88 66 -128 155l8 13l70 14q19 -73 77 -170zM461 332q0 -82 -32.5 -160t-94.5 -130t-137 -52q-68 0 -106.5 44t-38.5 130q0 83 33 161t95 129.5t136 51.5q69 0 107 -44.5t38 -129.5zM129 163q0 -122 83 -122q51 0 92 48t61 113.5t20 130.5q0 122 -83 122 q-52 0 -93 -47.5t-60.5 -113.5t-19.5 -131z" />
<glyph unicode="&#xf3;" horiz-adv-x="512" d="M444 743l2 -13q-80 -90 -194 -156l-21 13q103 104 149 170zM461 332q0 -82 -32.5 -160t-94.5 -130t-137 -52q-68 0 -106.5 44t-38.5 130q0 83 33 161t95 129.5t136 51.5q69 0 107 -44.5t38 -129.5zM129 163q0 -122 83 -122q51 0 92 48t61 113.5t20 130.5q0 122 -83 122 q-52 0 -93 -47.5t-60.5 -113.5t-19.5 -131z" />
<glyph unicode="&#xf4;" horiz-adv-x="512" d="M220 573l-19 17q84 89 137 157l61 6q30 -77 78 -163l-27 -17q-44 46 -94 118q-81 -75 -136 -118zM461 332q0 -82 -32.5 -160t-94.5 -130t-137 -52q-68 0 -106.5 44t-38.5 130q0 83 33 161t95 129.5t136 51.5q69 0 107 -44.5t38 -129.5zM129 163q0 -122 83 -122 q51 0 92 48t61 113.5t20 130.5q0 122 -83 122q-52 0 -93 -47.5t-60.5 -113.5t-19.5 -131z" />
<glyph unicode="&#xf5;" horiz-adv-x="512" d="M286 722q28 0 66 -28t58 -28q32 0 72 54l22 -4q-14 -44 -44.5 -77.5t-67.5 -33.5q-28 0 -67.5 28.5t-58.5 28.5q-31 0 -71 -54l-23 4q15 43 45 76.5t69 33.5zM461 332q0 -82 -32.5 -160t-94.5 -130t-137 -52q-68 0 -106.5 44t-38.5 130q0 83 33 161t95 129.5t136 51.5 q69 0 107 -44.5t38 -129.5zM129 163q0 -122 83 -122q51 0 92 48t61 113.5t20 130.5q0 122 -83 122q-52 0 -93 -47.5t-60.5 -113.5t-19.5 -131z" />
<glyph unicode="&#xf6;" horiz-adv-x="512" d="M291 684q0 -29 -20.5 -52.5t-45.5 -23.5q-18 0 -27.5 10.5t-9.5 27.5q0 28 21.5 51t46.5 23q35 0 35 -36zM491 684q0 -29 -20.5 -52.5t-45.5 -23.5q-18 0 -27.5 10.5t-9.5 27.5q0 28 21.5 51t46.5 23q35 0 35 -36zM461 332q0 -82 -32.5 -160t-94.5 -130t-137 -52 q-68 0 -106.5 44t-38.5 130q0 83 33 161t95 129.5t136 51.5q69 0 107 -44.5t38 -129.5zM129 163q0 -122 83 -122q51 0 92 48t61 113.5t20 130.5q0 122 -83 122q-52 0 -93 -47.5t-60.5 -113.5t-19.5 -131z" />
<glyph unicode="&#xf7;" d="M403 550q0 -26 -21 -47t-48 -21q-17 0 -26.5 10t-9.5 26q0 25 21.5 46.5t47.5 21.5q16 0 26 -10t10 -26zM526 322h-450l9 47q172 5 452 5l3 -6zM325 178q0 -26 -21.5 -47t-47.5 -21q-17 0 -26.5 10t-9.5 26q0 26 22 47t48 21q15 0 25 -10t10 -26z" />
<glyph unicode="&#xf8;" horiz-adv-x="512" d="M461 332q0 -82 -32.5 -160t-94.5 -130t-137 -52q-89 0 -124 71l-76 -66l-25 30l87 76q-7 31 -7 63q0 83 33 161t95 129.5t136 51.5q89 0 125 -72l78 68l26 -30l-90 -78q6 -29 6 -62zM129 163v-2l252 220q-15 74 -79 74q-52 0 -93 -47.5t-60.5 -113.5t-19.5 -131zM212 41 q51 0 92 48t61 113.5t20 130.5l-252 -219q16 -73 79 -73z" />
<glyph unicode="&#xf9;" horiz-adv-x="526" d="M384 577q-88 66 -128 155l7 13l70 14q20 -72 77 -170zM67 146l44 213l8 137l82 10q0 -43 -6.5 -89t-21 -116t-18.5 -92q-17 -74 -10.5 -115t49.5 -41q56 0 102.5 61t73.5 161q23 111 29 170l3 51l75 10q-1 -35 -6.5 -77t-11.5 -72.5t-18.5 -89.5t-18.5 -92 q-20 -105 -20 -175h-73q0 59 13 134q-34 -71 -84 -107.5t-101 -36.5q-57 0 -81 42t-9 114z" />
<glyph unicode="&#xfa;" horiz-adv-x="526" d="M438 743l2 -13q-78 -88 -194 -156l-21 13q103 104 149 170zM67 146l44 213l8 137l82 10q0 -43 -6.5 -89t-21 -116t-18.5 -92q-17 -74 -10.5 -115t49.5 -41q56 0 102.5 61t73.5 161q23 111 29 170l3 51l75 10q-1 -35 -6.5 -77t-11.5 -72.5t-18.5 -89.5t-18.5 -92 q-20 -105 -20 -175h-73q0 59 13 134q-34 -71 -84 -107.5t-101 -36.5q-57 0 -81 42t-9 114z" />
<glyph unicode="&#xfb;" horiz-adv-x="526" d="M214 573l-20 17q91 96 137 157l62 6q34 -86 78 -163l-27 -17q-40 42 -95 118q-75 -71 -135 -118zM67 146l44 213l8 137l82 10q0 -43 -6.5 -89t-21 -116t-18.5 -92q-17 -74 -10.5 -115t49.5 -41q56 0 102.5 61t73.5 161q23 111 29 170l3 51l75 10q-1 -35 -6.5 -77 t-11.5 -72.5t-18.5 -89.5t-18.5 -92q-20 -105 -20 -175h-73q0 59 13 134q-34 -71 -84 -107.5t-101 -36.5q-57 0 -81 42t-9 114z" />
<glyph unicode="&#xfc;" horiz-adv-x="526" d="M285 684q0 -29 -20.5 -52.5t-46.5 -23.5q-17 0 -26.5 10.5t-9.5 27.5q0 28 21.5 51t46.5 23q35 0 35 -36zM485 684q0 -29 -20.5 -52.5t-46.5 -23.5q-17 0 -26.5 10.5t-9.5 27.5q0 28 21 51t47 23q35 0 35 -36zM67 146l44 213l8 137l82 10q0 -43 -6.5 -89t-21 -116 t-18.5 -92q-17 -74 -10.5 -115t49.5 -41q56 0 102.5 61t73.5 161q23 111 29 170l3 51l75 10q-1 -35 -6.5 -77t-11.5 -72.5t-18.5 -89.5t-18.5 -92q-20 -105 -20 -175h-73q0 59 13 134q-34 -71 -84 -107.5t-101 -36.5q-57 0 -81 42t-9 114z" />
<glyph unicode="&#xfd;" horiz-adv-x="427" d="M386 743l2 -13q-78 -88 -194 -156l-21 13q103 104 149 170zM399 506q34 0 34 -27q0 -59 -58.5 -182t-139.5 -245.5t-177 -215t-162 -92.5q-23 0 -36.5 11.5t-13.5 31.5q0 18 11 33q21 -4 46 -4q59 0 123.5 55t113.5 129h-22q-1 274 -53 496l75 10q50 -203 44 -434h1 q164 251 183 429q15 5 31 5z" />
<glyph unicode="&#xfe;" horiz-adv-x="523" d="M75 -244h-73q0 89 61 374l102 479l8 137l82 10q0 -18 -1.5 -38.5t-5 -46t-6.5 -46.5t-9.5 -54t-10.5 -52.5t-12.5 -58.5t-12.5 -56.5t-14.5 -61.5t-13.5 -59q38 93 92 158t117 65q46 0 72.5 -37.5t26.5 -110.5q0 -90 -39 -173.5t-112.5 -139t-163.5 -55.5q-28 0 -55 4 q-32 -164 -32 -238zM119 55l1 1l-1 -2q36 -13 68 -13q82 0 148 98t66 207q0 46 -14 72t-39 26q-59 0 -128.5 -123.5t-100.5 -265.5z" />
<glyph unicode="&#xff;" horiz-adv-x="427" d="M233 684q0 -29 -20.5 -52.5t-45.5 -23.5q-18 0 -27.5 10.5t-9.5 27.5q0 28 21.5 51t46.5 23q35 0 35 -36zM433 684q0 -29 -20.5 -52.5t-46.5 -23.5q-17 0 -26.5 10.5t-9.5 27.5q0 28 21.5 51t46.5 23q35 0 35 -36zM399 506q34 0 34 -27q0 -59 -58.5 -182t-139.5 -245.5 t-177 -215t-162 -92.5q-23 0 -36.5 11.5t-13.5 31.5q0 18 11 33q21 -4 46 -4q59 0 123.5 55t113.5 129h-22q-1 274 -53 496l75 10q50 -203 44 -434h1q164 251 183 429q15 5 31 5z" />
<glyph unicode="&#x100;" horiz-adv-x="613" d="M291 815l11 52h264l-11 -52h-264zM44 0h-72l331 589q29 52 55 103l74 4l9 -10l94 -686h-77l-28 201h-273zM273 406l-83 -148h232l-21 148q-17 145 -17 209h-2q-28 -62 -109 -209z" />
<glyph unicode="&#x101;" horiz-adv-x="523" d="M219 639l10 49h272l-10 -49h-272zM46 135q0 90 39 174.5t113 140.5t164 56q68 0 126 -22l-42 -174q-46 -204 -46 -310h-73q0 91 25 210q-42 -90 -96 -155t-113 -65q-44 0 -70.5 36.5t-26.5 108.5zM122 151q0 -98 54 -98q38 0 84 60t79 132.5t50 132.5q5 20 15 64 q-35 13 -67 13q-83 0 -149 -97.5t-66 -206.5z" />
<glyph unicode="&#x102;" horiz-adv-x="613" d="M524 900h33q-21 -54 -63 -85.5t-94 -31.5q-49 0 -76.5 30t-23.5 83l35 4q3 -28 25.5 -43.5t57.5 -15.5q33 0 61.5 16t44.5 43zM44 0h-72l331 589q29 52 55 103l74 4l9 -10l94 -686h-77l-28 201h-273zM273 406l-83 -148h232l-21 148q-17 145 -17 209h-2q-28 -62 -109 -209 z" />
<glyph unicode="&#x103;" horiz-adv-x="523" d="M462 736h33q-23 -65 -66 -102.5t-95 -37.5q-50 0 -75.5 36t-19.5 99l34 5q2 -38 22.5 -59.5t56.5 -21.5q33 0 62.5 22t47.5 59zM46 135q0 90 39 174.5t113 140.5t164 56q68 0 126 -22l-42 -174q-46 -204 -46 -310h-73q0 91 25 210q-42 -90 -96 -155t-113 -65 q-44 0 -70.5 36.5t-26.5 108.5zM122 151q0 -98 54 -98q38 0 84 60t79 132.5t50 132.5q5 20 15 64q-35 13 -67 13q-83 0 -149 -97.5t-66 -206.5z" />
<glyph unicode="&#x104;" horiz-adv-x="613" d="M44 0h-72l331 589q29 52 55 103l74 4l9 -10l94 -686h-3q-139 -69 -139 -140q0 -35 43 -35q24 0 59 12l5 -30q-43 -32 -97 -32q-38 0 -59.5 16.5t-21.5 46.5q0 43 39.5 85t112.5 77h-16l-28 201h-273zM273 406l-83 -148h232l-21 148q-17 145 -17 209h-2q-28 -62 -109 -209 z" />
<glyph unicode="&#x105;" horiz-adv-x="523" d="M46 135q0 90 39 174.5t113 140.5t164 56q68 0 126 -22l-42 -174q-46 -204 -46 -310q-140 -68 -140 -140q0 -35 43 -35q24 0 59 12l6 -30q-43 -32 -97 -32q-38 0 -59.5 16.5t-21.5 46.5q0 43 39.5 85t111.5 77h-14q0 91 25 210q-42 -90 -96 -155t-113 -65 q-44 0 -70.5 36.5t-26.5 108.5zM122 151q0 -98 54 -98q38 0 84 60t79 132.5t50 132.5q5 20 15 64q-35 13 -67 13q-83 0 -149 -97.5t-66 -206.5z" />
<glyph unicode="&#x106;" horiz-adv-x="580" d="M598 865l-6 -13q-116 -60 -257 -75l-3 23q146 57 227 110zM505 107l-5 -63q-84 -54 -195 -54q-104 0 -160.5 63.5t-56.5 184.5q0 112 45.5 216.5t131.5 173t192 68.5q101 0 162 -44l-30 -68q-57 48 -144 48q-85 0 -150.5 -60.5t-96 -145t-30.5 -172.5q0 -95 40.5 -147.5 t119.5 -52.5q92 0 177 53z" />
<glyph unicode="&#x107;" horiz-adv-x="454" d="M435 743l1 -13q-79 -89 -193 -156l-22 13q103 101 149 170zM381 125l18 -27q-77 -108 -191 -108q-71 0 -113.5 47t-42.5 134q0 130 84.5 232.5t198.5 102.5q62 0 111 -40l-24 -65q-44 51 -100 51q-75 0 -134 -85t-59 -186q0 -63 26.5 -100t78.5 -37q74 0 147 81z" />
<glyph unicode="&#x108;" horiz-adv-x="580" d="M331 770l-16 20q80 61 140 118l62 7q46 -70 97 -125l-25 -20q-58 39 -115 88q-86 -57 -143 -88zM505 107l-5 -63q-84 -54 -195 -54q-104 0 -160.5 63.5t-56.5 184.5q0 112 45.5 216.5t131.5 173t192 68.5q101 0 162 -44l-30 -68q-57 48 -144 48q-85 0 -150.5 -60.5 t-96 -145t-30.5 -172.5q0 -95 40.5 -147.5t119.5 -52.5q92 0 177 53z" />
<glyph unicode="&#x109;" horiz-adv-x="454" d="M210 573l-19 17q84 89 137 157l61 6q36 -87 78 -163l-27 -17q-44 46 -94 118q-87 -80 -136 -118zM381 125l18 -27q-77 -108 -191 -108q-71 0 -113.5 47t-42.5 134q0 130 84.5 232.5t198.5 102.5q62 0 111 -40l-24 -65q-44 51 -100 51q-75 0 -134 -85t-59 -186 q0 -63 26.5 -100t78.5 -37q74 0 147 81z" />
<glyph unicode="&#x10a;" horiz-adv-x="580" d="M522 864q0 -28 -21.5 -49t-49.5 -21q-20 0 -31.5 10.5t-11.5 27.5q0 26 22.5 47t50.5 21q19 0 30 -10t11 -26zM505 107l-5 -63q-84 -54 -195 -54q-104 0 -160.5 63.5t-56.5 184.5q0 112 45.5 216.5t131.5 173t192 68.5q101 0 162 -44l-30 -68q-57 48 -144 48 q-85 0 -150.5 -60.5t-96 -145t-30.5 -172.5q0 -95 40.5 -147.5t119.5 -52.5q92 0 177 53z" />
<glyph unicode="&#x10b;" horiz-adv-x="454" d="M384 685q0 -30 -21 -53.5t-49 -23.5q-18 0 -28.5 11.5t-10.5 28.5q0 29 22 52t49 23q18 0 28 -10.5t10 -27.5zM381 125l18 -27q-77 -108 -191 -108q-71 0 -113.5 47t-42.5 134q0 130 84.5 232.5t198.5 102.5q62 0 111 -40l-24 -65q-44 51 -100 51q-75 0 -134 -85 t-59 -186q0 -63 26.5 -100t78.5 -37q74 0 147 81z" />
<glyph unicode="&#x10c;" horiz-adv-x="580" d="M598 916l17 -20q-72 -54 -141 -118l-61 -7q-44 66 -98 125l25 20q53 -35 115 -88q86 57 143 88zM505 107l-5 -63q-84 -54 -195 -54q-104 0 -160.5 63.5t-56.5 184.5q0 112 45.5 216.5t131.5 173t192 68.5q101 0 162 -44l-30 -68q-57 48 -144 48q-85 0 -150.5 -60.5 t-96 -145t-30.5 -172.5q0 -95 40.5 -147.5t119.5 -52.5q92 0 177 53z" />
<glyph unicode="&#x10d;" horiz-adv-x="454" d="M454 758l20 -18q-83 -86 -137 -156l-62 -6q-34 87 -78 162l27 18q44 -48 95 -118q66 63 135 118zM381 125l18 -27q-77 -108 -191 -108q-71 0 -113.5 47t-42.5 134q0 130 84.5 232.5t198.5 102.5q62 0 111 -40l-24 -65q-44 51 -100 51q-75 0 -134 -85t-59 -186 q0 -63 26.5 -100t78.5 -37q74 0 147 81z" />
<glyph unicode="&#x10e;" horiz-adv-x="697" d="M599 916l17 -20q-80 -61 -140 -118l-62 -7q-47 71 -98 125l26 20q53 -36 114 -88q80 53 143 88zM648 432q0 -82 -29.5 -159.5t-82.5 -138t-133.5 -97.5t-174.5 -37h-161l113 532q21 100 25 154h176q128 0 197.5 -63.5t69.5 -190.5zM359 628h-83l-121 -570h88 q77 0 140.5 32t103 84.5t61 117t21.5 132.5q0 107 -53 155.5t-157 48.5z" />
<glyph unicode="&#x10f;" horiz-adv-x="526" d="M716 759l5 -12q-39 -105 -122 -211l-25 4q56 124 77 214zM402 0h-73q0 72 27 215q-39 -95 -93.5 -160t-119.5 -65q-44 0 -70.5 36.5t-26.5 108.5q0 90 39 174.5t112.5 140.5t162.5 56q31 0 56 -5l23 108l8 137l82 10q0 -94 -63.5 -373t-63.5 -383zM122 151q0 -98 54 -98 q39 0 85.5 60t80 133.5t48.5 132.5v1l14 62q-36 13 -67 13q-83 0 -149 -97.5t-66 -206.5z" />
<glyph unicode="&#x110;" horiz-adv-x="697" d="M648 432q0 -82 -29.5 -159.5t-82.5 -138t-133.5 -97.5t-174.5 -37h-161l69 321h-78l9 44h78l35 167q21 100 25 154h176q128 0 197.5 -63.5t69.5 -190.5zM424 321h-213l-56 -263h88q77 0 140.5 32t103 84.5t61 117t21.5 132.5q0 107 -53 155.5t-157 48.5h-83l-56 -263h213 z" />
<glyph unicode="&#x111;" horiz-adv-x="526" d="M402 0h-73q0 72 27 215q-39 -95 -93.5 -160t-119.5 -65q-44 0 -70.5 36.5t-26.5 108.5q0 90 39 174.5t112.5 140.5t162.5 56q31 0 56 -5l20 92h-198l9 44h194l6 109l82 10q0 -50 -11 -119h95l-9 -44h-94q-12 -63 -42 -193.5t-48 -230.5t-18 -169zM122 151q0 -98 54 -98 q39 0 85.5 60t80 133.5t48.5 132.5v1l14 62q-36 13 -67 13q-83 0 -149 -97.5t-66 -206.5z" />
<glyph unicode="&#x112;" horiz-adv-x="543" d="M288 815l11 52h264l-11 -52h-264zM457 63l-13 -63h-377l113 532q20 89 25 154h367l7 -8l-12 -54l-291 5l-55 -261l248 2l-14 -59l-246 3l-55 -257z" />
<glyph unicode="&#x113;" horiz-adv-x="463" d="M179 639l10 49h272l-10 -49h-272zM379 125l18 -27q-33 -51 -84 -79.5t-105 -28.5q-70 0 -113 47.5t-43 134.5q0 123 80 228.5t186 105.5q54 0 86.5 -28t32.5 -78q0 -73 -74 -124t-231 -58q-3 -21 -3 -41q0 -60 27 -96.5t76 -36.5q73 0 147 81zM305 456q-55 0 -101.5 -62 t-65.5 -143q122 10 175 52t53 92q0 28 -16.5 44.5t-44.5 16.5z" />
<glyph unicode="&#x114;" horiz-adv-x="543" d="M521 900h33q-21 -54 -62.5 -85.5t-93.5 -31.5q-49 0 -76.5 30t-23.5 83l34 4q4 -28 26 -43.5t57 -15.5q33 0 61.5 16t44.5 43zM457 63l-13 -63h-377l113 532q20 89 25 154h367l7 -8l-12 -54l-291 5l-55 -261l248 2l-14 -59l-246 3l-55 -257z" />
<glyph unicode="&#x115;" horiz-adv-x="463" d="M421 736h34q-23 -65 -66.5 -102.5t-95.5 -37.5q-50 0 -75.5 36t-19.5 99l34 5q2 -38 22.5 -59.5t56.5 -21.5q33 0 62.5 22t47.5 59zM379 125l18 -27q-33 -51 -84 -79.5t-105 -28.5q-70 0 -113 47.5t-43 134.5q0 123 80 228.5t186 105.5q54 0 86.5 -28t32.5 -78 q0 -73 -74 -124t-231 -58q-3 -21 -3 -41q0 -60 27 -96.5t76 -36.5q73 0 147 81zM305 456q-55 0 -101.5 -62t-65.5 -143q122 10 175 52t53 92q0 28 -16.5 44.5t-44.5 16.5z" />
<glyph unicode="&#x116;" horiz-adv-x="543" d="M484 864q0 -28 -21.5 -49t-49.5 -21q-20 0 -31.5 10.5t-11.5 27.5q0 26 22.5 47t50.5 21q19 0 30 -10t11 -26zM457 63l-13 -63h-377l113 532q20 89 25 154h367l7 -8l-12 -54l-291 5l-55 -261l248 2l-14 -59l-246 3l-55 -257z" />
<glyph unicode="&#x117;" horiz-adv-x="463" d="M375 685q0 -30 -21.5 -53.5t-49.5 -23.5q-18 0 -28.5 11.5t-10.5 28.5q0 29 22 52t49 23q39 0 39 -38zM379 125l18 -27q-33 -51 -84 -79.5t-105 -28.5q-70 0 -113 47.5t-43 134.5q0 123 80 228.5t186 105.5q54 0 86.5 -28t32.5 -78q0 -73 -74 -124t-231 -58 q-3 -21 -3 -41q0 -60 27 -96.5t76 -36.5q73 0 147 81zM305 456q-55 0 -101.5 -62t-65.5 -143q122 10 175 52t53 92q0 28 -16.5 44.5t-44.5 16.5z" />
<glyph unicode="&#x118;" horiz-adv-x="543" d="M444 0q-140 -69 -140 -140q0 -35 44 -35q25 0 58 12l6 -30q-43 -32 -97 -32q-38 0 -59.5 16.5t-21.5 46.5q0 43 39.5 85t112.5 77h-319l113 532q20 89 25 154h367l7 -8l-12 -54l-291 5l-55 -261l248 2l-14 -59l-246 3l-55 -257l303 6z" />
<glyph unicode="&#x119;" horiz-adv-x="463" d="M338 33q-78 -57 -112.5 -92t-34.5 -73q0 -43 44 -43q25 0 58 12l6 -30q-43 -32 -97 -32q-38 0 -59.5 18.5t-21.5 52.5q0 70 110 145q-7 -1 -23 -1q-70 0 -113 47.5t-43 134.5q0 123 80 228.5t186 105.5q54 0 86.5 -28t32.5 -78q0 -73 -74 -124t-231 -58q-3 -21 -3 -41 q0 -60 27 -96.5t76 -36.5q73 0 147 81l18 -27q-26 -40 -61 -64zM305 456q-55 0 -101.5 -62t-65.5 -143q122 10 175 52t53 92q0 28 -16.5 44.5t-44.5 16.5z" />
<glyph unicode="&#x11a;" horiz-adv-x="543" d="M560 916l16 -20q-80 -61 -140 -118l-62 -7q-46 70 -97 125l25 20q58 -39 115 -88q86 57 143 88zM457 63l-13 -63h-377l113 532q20 89 25 154h367l7 -8l-12 -54l-291 5l-55 -261l248 2l-14 -59l-246 3l-55 -257z" />
<glyph unicode="&#x11b;" horiz-adv-x="463" d="M444 758l20 -18q-75 -78 -137 -156l-62 -6q-34 87 -78 162l27 18q44 -48 95 -118q78 72 135 118zM379 125l18 -27q-33 -51 -84 -79.5t-105 -28.5q-70 0 -113 47.5t-43 134.5q0 123 80 228.5t186 105.5q54 0 86.5 -28t32.5 -78q0 -73 -74 -124t-231 -58q-3 -21 -3 -41 q0 -60 27 -96.5t76 -36.5q73 0 147 81zM305 456q-55 0 -101.5 -62t-65.5 -143q122 10 175 52t53 92q0 28 -16.5 44.5t-44.5 16.5z" />
<glyph unicode="&#x11c;" horiz-adv-x="646" d="M331 770l-17 20q80 61 140 118l62 7q47 -71 98 -125l-26 -20q-53 36 -114 88q-80 -53 -143 -88zM574 298l7 -8l-56 -252q-84 -48 -201 -48q-115 0 -175.5 63t-60.5 188q0 115 48 219t136 170t193 66q100 0 165 -44l-29 -68q-58 49 -146 49q-84 0 -151.5 -57.5 t-101.5 -143t-34 -178.5q0 -202 179 -202q57 0 113 18l11 53q20 93 26 165z" />
<glyph unicode="&#x11d;" horiz-adv-x="443" d="M190 573l-19 17q84 89 137 157l61 6q36 -87 78 -163l-27 -17q-44 46 -94 118q-87 -80 -136 -118zM128 -256q-82 0 -128.5 33t-46.5 86q0 71 89 117l19 -19q-38 -41 -38 -78q0 -41 31.5 -67t87.5 -26q61 0 100.5 28.5t39.5 66.5q0 24 -20.5 43.5t-65.5 41.5q-60 30 -73 45 t-13 31q0 46 96 100v2q-9 -1 -14 -1q-61 1 -94.5 38t-33.5 99q0 92 64 157t152 65q124 0 172 11q8 -10 8 -25q0 -14 -10 -24.5t-33 -10.5q-18 0 -77 16v-2q55 -34 55 -109q0 -52 -22 -96t-53.5 -73t-63 -51.5t-53.5 -41t-22 -32.5q0 -20 51 -44q3 -1 5 -2q60 -28 90 -57 t30 -67q0 -60 -64 -107t-165 -47zM325 367q0 43 -17 68t-48 25q-49 0 -87.5 -56.5t-38.5 -122.5q0 -44 18.5 -68t50.5 -24q51 0 86.5 56t35.5 122z" />
<glyph unicode="&#x11e;" horiz-adv-x="646" d="M559 900h33q-21 -54 -63 -85.5t-94 -31.5q-49 0 -76.5 30t-23.5 83l35 4q3 -28 25.5 -43.5t57.5 -15.5q33 0 61.5 16t44.5 43zM574 298l7 -8l-56 -252q-84 -48 -201 -48q-115 0 -175.5 63t-60.5 188q0 115 48 219t136 170t193 66q100 0 165 -44l-29 -68q-58 49 -146 49 q-84 0 -151.5 -57.5t-101.5 -143t-34 -178.5q0 -202 179 -202q57 0 113 18l11 53q20 93 26 165z" />
<glyph unicode="&#x11f;" horiz-adv-x="443" d="M411 736h33q-23 -65 -66 -102.5t-95 -37.5q-50 0 -75.5 36t-19.5 99l34 5q2 -38 22.5 -59.5t56.5 -21.5q33 0 62.5 22t47.5 59zM128 -256q-82 0 -128.5 33t-46.5 86q0 71 89 117l19 -19q-38 -41 -38 -78q0 -41 31.5 -67t87.5 -26q61 0 100.5 28.5t39.5 66.5 q0 24 -20.5 43.5t-65.5 41.5q-60 30 -73 45t-13 31q0 46 96 100v2q-9 -1 -14 -1q-61 1 -94.5 38t-33.5 99q0 92 64 157t152 65q124 0 172 11q8 -10 8 -25q0 -14 -10 -24.5t-33 -10.5q-18 0 -77 16v-2q55 -34 55 -109q0 -52 -22 -96t-53.5 -73t-63 -51.5t-53.5 -41t-22 -32.5 q0 -20 51 -44q3 -1 5 -2q60 -28 90 -57t30 -67q0 -60 -64 -107t-165 -47zM325 367q0 43 -17 68t-48 25q-49 0 -87.5 -56.5t-38.5 -122.5q0 -44 18.5 -68t50.5 -24q51 0 86.5 56t35.5 122z" />
<glyph unicode="&#x120;" horiz-adv-x="646" d="M521 864q0 -28 -21.5 -49t-49.5 -21q-20 0 -31 10.5t-11 27.5q0 26 22 47t50 21q19 0 30 -10t11 -26zM574 298l7 -8l-56 -252q-84 -48 -201 -48q-115 0 -175.5 63t-60.5 188q0 115 48 219t136 170t193 66q100 0 165 -44l-29 -68q-58 49 -146 49q-84 0 -151.5 -57.5 t-101.5 -143t-34 -178.5q0 -202 179 -202q57 0 113 18l11 53q20 93 26 165z" />
<glyph unicode="&#x121;" horiz-adv-x="443" d="M364 685q0 -30 -21 -53.5t-49 -23.5q-18 0 -28.5 11.5t-10.5 28.5q0 29 22 52t49 23q18 0 28 -10.5t10 -27.5zM128 -256q-82 0 -128.5 33t-46.5 86q0 71 89 117l19 -19q-38 -41 -38 -78q0 -41 31.5 -67t87.5 -26q61 0 100.5 28.5t39.5 66.5q0 24 -20.5 43.5t-65.5 41.5 q-60 30 -73 45t-13 31q0 46 96 100v2q-9 -1 -14 -1q-61 1 -94.5 38t-33.5 99q0 92 64 157t152 65q124 0 172 11q8 -10 8 -25q0 -14 -10 -24.5t-33 -10.5q-18 0 -77 16v-2q55 -34 55 -109q0 -52 -22 -96t-53.5 -73t-63 -51.5t-53.5 -41t-22 -32.5q0 -20 51 -44q3 -1 5 -2 q60 -28 90 -57t30 -67q0 -60 -64 -107t-165 -47zM325 367q0 43 -17 68t-48 25q-49 0 -87.5 -56.5t-38.5 -122.5q0 -44 18.5 -68t50.5 -24q51 0 86.5 56t35.5 122z" />
<glyph unicode="&#x122;" horiz-adv-x="646" d="M574 298l7 -8l-56 -252q-84 -48 -201 -48q-115 0 -175.5 63t-60.5 188q0 115 48 219t136 170t193 66q100 0 165 -44l-29 -68q-58 49 -146 49q-84 0 -151.5 -57.5t-101.5 -143t-34 -178.5q0 -202 179 -202q57 0 113 18l11 53q20 93 26 165zM232 -310q40 52 60 94 q-17 0 -26.5 12t-7.5 30q2 25 20.5 45.5t44.5 20.5q20 0 30.5 -12.5t8.5 -34.5q-6 -75 -108 -174z" />
<glyph unicode="&#x123;" horiz-adv-x="443" d="M432 775q-43 -55 -61 -94q18 0 27 -11.5t7 -30.5q-2 -24 -20.5 -45t-44.5 -21q-19 0 -29.5 12.5t-8.5 34.5q5 72 107 174zM128 -256q-82 0 -128.5 33t-46.5 86q0 71 89 117l19 -19q-38 -41 -38 -78q0 -41 31.5 -67t87.5 -26q61 0 100.5 28.5t39.5 66.5q0 24 -20.5 43.5 t-65.5 41.5q-60 30 -73 45t-13 31q0 46 96 100v2q-9 -1 -14 -1q-61 1 -94.5 38t-33.5 99q0 92 64 157t152 65q124 0 172 11q8 -10 8 -25q0 -14 -10 -24.5t-33 -10.5q-18 0 -77 16v-2q55 -34 55 -109q0 -52 -22 -96t-53.5 -73t-63 -51.5t-53.5 -41t-22 -32.5q0 -20 51 -44 q3 -1 5 -2q60 -28 90 -57t30 -67q0 -60 -64 -107t-165 -47zM325 367q0 43 -17 68t-48 25q-49 0 -87.5 -56.5t-38.5 -122.5q0 -44 18.5 -68t50.5 -24q51 0 86.5 56t35.5 122z" />
<glyph unicode="&#x124;" horiz-adv-x="718" d="M348 770l-16 20q72 55 140 118l61 7q44 -66 98 -125l-25 -20q-58 39 -115 88q-86 -57 -143 -88zM142 0h-75l112 530q21 98 26 156l77 10l7 -8l-68 -318h335l34 160q19 87 26 156l77 10l6 -8l-146 -688h-75l66 312h-335z" />
<glyph unicode="&#x125;" horiz-adv-x="550" d="M152 827l-17 19q80 63 141 119l61 6q47 -71 98 -125l-25 -19q-55 35 -115 88q-81 -55 -143 -88zM134 0h-73q0 96 61 380l49 229l8 137l82 10q0 -48 -12.5 -125t-22 -120.5t-35.5 -155.5h2q36 74 89.5 112.5t107.5 38.5q46 0 70.5 -25.5t24.5 -72.5q0 -25 -5 -52t-33 -154 q-23 -111 -23 -202h-73q0 82 34 242q24 109 24 141q0 61 -56 61q-60 0 -110 -63t-78 -164.5t-31 -216.5z" />
<glyph unicode="&#x126;" horiz-adv-x="718" d="M142 0h-75l105 496h-80l9 44h81q18 94 23 146l77 10l7 -8l-32 -148h335q19 89 24 146l77 10l6 -8l-31 -148h76l-9 -44h-76l-106 -496h-75l66 312h-335zM221 370h335l27 126h-335z" />
<glyph unicode="&#x127;" horiz-adv-x="550" d="M134 0h-73q0 96 61 380l44 204h-79l9 44h76l7 118l82 10q0 -52 -13 -128h214l-9 -44h-212q-15 -78 -50 -229h2q36 74 89.5 112.5t107.5 38.5q46 0 70.5 -25.5t24.5 -72.5q0 -25 -5 -52t-33 -154q-23 -111 -23 -202h-73q0 82 34 242q24 109 24 141q0 61 -56 61 q-60 0 -110 -63t-78 -164.5t-31 -216.5z" />
<glyph unicode="&#x128;" horiz-adv-x="308" d="M225 902q31 0 70.5 -28t62.5 -28q37 0 78 54l22 -4q-13 -42 -45 -74t-72 -32q-30 0 -71.5 28t-63.5 28q-38 0 -77 -53l-22 4q13 40 44.5 72.5t73.5 32.5zM142 0h-75l112 530q20 87 26 156l77 10l7 -8z" />
<glyph unicode="&#x129;" horiz-adv-x="255" d="M162 725q23 0 50 -28t41 -28q27 0 58 54l21 -4q-10 -41 -37.5 -75.5t-59.5 -34.5q-22 0 -50.5 28t-40.5 28q-27 0 -58 -54l-22 4q11 41 38.5 75.5t59.5 34.5zM134 0h-73q0 96 37 267l20 92l8 137l82 10q0 -70 -37 -246.5t-37 -259.5z" />
<glyph unicode="&#x12a;" horiz-adv-x="308" d="M144 815l10 52h265l-11 -52h-264zM142 0h-75l112 530q20 87 26 156l77 10l7 -8z" />
<glyph unicode="&#x12b;" horiz-adv-x="255" d="M78 639l9 49h215l-9 -49h-215zM134 0h-73q0 96 37 267l20 92l8 137l82 10q0 -70 -37 -246.5t-37 -259.5z" />
<glyph unicode="&#x12c;" horiz-adv-x="308" d="M376 900h34q-21 -54 -63 -85.5t-94 -31.5q-49 0 -76.5 30t-23.5 83l34 4q4 -28 26.5 -43.5t57.5 -15.5q33 0 61 16t44 43zM142 0h-75l112 530q20 87 26 156l77 10l7 -8z" />
<glyph unicode="&#x12d;" horiz-adv-x="255" d="M278 735h34q-23 -64 -61.5 -101.5t-84.5 -37.5q-43 0 -65 36.5t-15 98.5l34 5q-1 -38 16 -60t48 -22q27 0 52.5 22t41.5 59zM134 0h-73q0 96 37 267l20 92l8 137l82 10q0 -70 -37 -246.5t-37 -259.5z" />
<glyph unicode="&#x12e;" horiz-adv-x="308" d="M142 0q-88 -71 -88 -133q0 -42 44 -42q23 0 58 12l5 -30q-43 -32 -97 -32q-38 0 -59.5 18.5t-21.5 51.5q0 81 110 155h-26l112 530q20 87 26 156l77 10l7 -8z" />
<glyph unicode="&#x12f;" horiz-adv-x="255" d="M252 685q0 -30 -21.5 -53.5t-48.5 -23.5q-18 0 -28.5 11.5t-10.5 28.5q0 29 22 52t49 23q18 0 28 -10.5t10 -27.5zM134 0q-85 -73 -85 -131q0 -44 45 -44q24 0 57 12l6 -30q-43 -32 -97 -32q-38 0 -59.5 19t-21.5 53q0 77 106 153h-24q0 96 37 267l20 92l8 137l82 10 q0 -70 -37 -246.5t-37 -259.5z" />
<glyph unicode="&#x130;" horiz-adv-x="308" d="M339 864q0 -28 -21.5 -49t-49.5 -21q-20 0 -31.5 10.5t-11.5 27.5q0 26 22.5 47t50.5 21q19 0 30 -10t11 -26zM142 0h-75l112 530q20 87 26 156l77 10l7 -8z" />
<glyph unicode="&#x131;" horiz-adv-x="255" d="M134 0h-73q0 96 37 267l20 92l8 137l82 10q0 -70 -37 -246.5t-37 -259.5z" />
<glyph unicode="&#x132;" horiz-adv-x="592" d="M142 0h-75l112 530q20 87 26 156l77 10l7 -8zM248 -187l-16 35q103 68 134 218l99 464q17 88 23 154l79 12l6 -8l-131 -622q-21 -97 -66 -156.5t-128 -96.5z" />
<glyph unicode="&#x133;" horiz-adv-x="489" d="M252 685q0 -30 -21.5 -53.5t-48.5 -23.5q-18 0 -28.5 11.5t-10.5 28.5q0 29 22 52t49 23q18 0 28 -10.5t10 -27.5zM497 685q0 -30 -21 -53.5t-49 -23.5q-18 0 -28.5 11.5t-10.5 28.5q0 29 22 52t49 23q18 0 28 -10.5t10 -27.5zM134 0h-73q0 96 37 267l20 92l8 137l82 10 q0 -70 -37 -246.5t-37 -259.5zM194 -256l-25 30q88 68 115 198l82 387l8 137l82 10q0 -18 -1.5 -37.5t-6 -47.5t-8.5 -52t-13.5 -70t-17 -81.5l-22.5 -106.5t-27 -126q-19 -86 -56.5 -142.5t-109.5 -98.5z" />
<glyph unicode="&#x134;" horiz-adv-x="284" d="M124 768l-17 19q80 63 141 119l61 6q51 -75 98 -125l-25 -19q-53 35 -115 88q-95 -62 -143 -88zM-59 -187l-17 35q103 67 135 218l98 464q16 73 24 154l78 12l7 -8l-132 -622q-21 -97 -65.5 -156.5t-127.5 -96.5z" />
<glyph unicode="&#x135;" horiz-adv-x="234" d="M90 580l-20 13q53 77 101 160l73 6q24 -106 41 -166l-25 -13q-29 42 -65 117q-68 -82 -105 -117zM-61 -256l-25 30q88 68 115 198l83 387l8 137l81 10q0 -18 -1.5 -37.5t-6 -47.5t-8.5 -52t-13.5 -70t-17 -81.5l-22.5 -106.5t-27 -126q-19 -86 -56.5 -142.5t-109.5 -98.5 z" />
<glyph unicode="&#x136;" horiz-adv-x="615" d="M180 530q19 92 25 156l75 10l7 -8l-68 -323h97q74 86 284 331l59 -12l5 -8l-289 -327l168 -349l-83 -9q-87 175 -154 316h-100l-65 -307h-74zM159 -310q43 56 60 94q-17 0 -26.5 12t-7.5 30q2 25 20.5 45.5t45.5 20.5q19 0 29.5 -12.5t8.5 -34.5q-6 -75 -108 -174z" />
<glyph unicode="&#x137;" horiz-adv-x="500" d="M480 425q0 -59 -54 -116t-129 -95q68 -130 141 -214h-92q-69 89 -124 217q183 108 183 191q0 44 -42 44q-52 0 -104.5 -70t-87 -175.5t-37.5 -206.5h-73q0 96 61 380l49 229l8 137l82 10q0 -32 -4.5 -71t-14.5 -90t-17.5 -88t-22.5 -103t-22 -96h2q39 95 96.5 146.5 t117.5 51.5q41 0 62.5 -22.5t21.5 -58.5zM127 -310q43 55 61 94q-18 0 -27 11.5t-7 30.5q2 24 20.5 45t44.5 21q20 0 30 -12.5t8 -34.5q-5 -72 -107 -174z" />
<glyph unicode="&#x138;" horiz-adv-x="500" d="M346 0q-46 59 -79.5 131.5t-44.5 132.5q-39 -67 -63.5 -139.5t-24.5 -124.5h-73q0 96 37 267l20 92l8 137l82 10q0 -25 -2.5 -53t-8.5 -63t-10.5 -57.5t-14 -67t-13.5 -62.5h3q52 140 125 221.5t150 81.5q47 0 78 -19l-40 -69q-26 18 -63 18q-63 0 -137 -94 q12 -76 56 -169t107 -173h-92z" />
<glyph unicode="&#x139;" horiz-adv-x="510" d="M526 865l-6 -13q-116 -60 -257 -75l-3 23q144 56 227 110zM142 0h-75l113 531q20 91 25 155l77 10l7 -8zM446 63l-13 -63h-291l13 57z" />
<glyph unicode="&#x13a;" horiz-adv-x="254" d="M428 913l-6 -13q-117 -59 -257 -74l-3 22q138 54 227 110zM134 0h-73q0 96 61 380l49 229l8 137l82 10q0 -94 -63.5 -373t-63.5 -383z" />
<glyph unicode="&#x13b;" horiz-adv-x="510" d="M142 0h-75l113 531q20 91 25 155l77 10l7 -8zM446 63l-13 -63h-291l13 57zM107 -310q43 55 61 94q-18 0 -27 11.5t-7 30.5q2 24 20.5 45t44.5 21q19 0 29.5 -12.5t8.5 -34.5q-5 -72 -107 -174z" />
<glyph unicode="&#x13c;" horiz-adv-x="254" d="M134 0h-73q0 96 61 380l49 229l8 137l82 10q0 -94 -63.5 -373t-63.5 -383zM-9 -310q43 55 61 94q-17 0 -26.5 12t-7.5 30q2 24 20.5 45t44.5 21q20 0 30 -12.5t8 -34.5q-5 -72 -107 -174z" />
<glyph unicode="&#x13d;" horiz-adv-x="510" d="M514 741l5 -12q-41 -105 -123 -211l-25 4q56 121 78 214zM142 0h-75l113 531q20 91 25 155l77 10l7 -8zM446 63l-13 -63h-291l13 57z" />
<glyph unicode="&#x13e;" horiz-adv-x="254" d="M448 762l5 -11q-38 -103 -122 -212l-25 5q58 129 78 214zM134 0h-73q0 96 61 380l49 229l8 137l82 10q0 -94 -63.5 -373t-63.5 -383z" />
<glyph unicode="&#x13f;" horiz-adv-x="600" d="M142 0h-75l113 531q20 91 25 155l77 10l7 -8zM446 370q0 -29 -23 -52t-51 -23q-19 0 -31 11.5t-12 29.5q0 28 23.5 51.5t51.5 23.5q19 0 30.5 -11t11.5 -30zM446 63l-13 -63h-291l13 57z" />
<glyph unicode="&#x140;" horiz-adv-x="439" d="M134 0h-73q0 96 61 380l49 229l8 137l82 10q0 -94 -63.5 -373t-63.5 -383zM389 334q0 -28 -23 -51.5t-51 -23.5q-19 0 -31.5 11.5t-12.5 29.5q0 28 23.5 51.5t52.5 23.5q19 0 30.5 -11t11.5 -30z" />
<glyph unicode="&#x141;" horiz-adv-x="510" d="M142 0h-75l64 298l-128 -63l-13 40l152 75l38 181q20 91 25 155l77 10l7 -8l-63 -296l126 62l14 -39l-151 -75zM446 63l-13 -63h-291l13 57z" />
<glyph unicode="&#x142;" horiz-adv-x="254" d="M134 0h-73q0 96 59 371l-128 -63l-13 39l152 76l40 186l8 137l82 10q0 -85 -45 -291l125 62l14 -40l-151 -74q-24 -106 -35 -155.5t-23 -128t-12 -129.5z" />
<glyph unicode="&#x143;" horiz-adv-x="729" d="M616 865l-6 -13q-116 -60 -257 -75l-3 23q146 57 227 110zM406 397q6 -16 26 -65t27 -66.5t20 -53t21 -62.5t15 -57h2q13 87 83 424q21 97 29 169l74 10l7 -9l-146 -687h-76q-23 56 -63 155.5t-57 141.5q-87 217 -108 294h-1q-14 -99 -45 -241l-74 -350h-73l113 532 q19 86 25 154l81 9q12 -29 54.5 -136t65.5 -162z" />
<glyph unicode="&#x144;" horiz-adv-x="550" d="M457 743l2 -13q-78 -88 -194 -156l-21 13q104 104 149 170zM134 0h-73q0 51 9 115t18 105.5t30 138.5l8 137l82 10q0 -64 -20 -151h3q36 74 90 112.5t109 38.5q45 0 70 -25.5t25 -69.5q0 -39 -33 -189q-28 -128 -28 -222h-73q0 71 32 236q22 112 22 143q0 65 -54 65 q-85 0 -149 -132.5t-68 -311.5z" />
<glyph unicode="&#x145;" horiz-adv-x="729" d="M406 397q6 -16 26 -65t27 -66.5t20 -53t21 -62.5t15 -57h2q13 87 83 424q21 97 29 169l74 10l7 -9l-146 -687h-76q-23 56 -63 155.5t-57 141.5q-87 217 -108 294h-1q-14 -99 -45 -241l-74 -350h-73l113 532q19 86 25 154l81 9q12 -29 54.5 -136t65.5 -162zM211 -310 q40 50 61 94q-17 0 -26.5 12t-7.5 30q2 24 20.5 45t44.5 21q20 0 30.5 -12.5t7.5 -34.5q-5 -72 -107 -174z" />
<glyph unicode="&#x146;" horiz-adv-x="550" d="M134 0h-73q0 51 9 115t18 105.5t30 138.5l8 137l82 10q0 -64 -20 -151h3q36 74 90 112.5t109 38.5q45 0 70 -25.5t25 -69.5q0 -39 -33 -189q-28 -128 -28 -222h-73q0 71 32 236q22 112 22 143q0 65 -54 65q-85 0 -149 -132.5t-68 -311.5zM139 -310q43 55 61 94 q-17 0 -26.5 12t-7.5 30q2 24 20.5 45t44.5 21q20 0 30 -12.5t8 -34.5q-5 -72 -107 -174z" />
<glyph unicode="&#x147;" horiz-adv-x="729" d="M616 916l17 -20q-78 -59 -141 -118l-61 -7q-47 71 -98 125l25 20q53 -35 115 -88q86 57 143 88zM406 397q6 -16 26 -65t27 -66.5t20 -53t21 -62.5t15 -57h2q13 87 83 424q21 97 29 169l74 10l7 -9l-146 -687h-76q-23 56 -63 155.5t-57 141.5q-87 217 -108 294h-1 q-14 -99 -45 -241l-74 -350h-73l113 532q19 86 25 154l81 9q12 -29 54.5 -136t65.5 -162z" />
<glyph unicode="&#x148;" horiz-adv-x="550" d="M477 758l19 -18q-75 -78 -137 -156l-61 -6q-31 79 -78 162l27 18q47 -51 94 -118q72 66 136 118zM134 0h-73q0 51 9 115t18 105.5t30 138.5l8 137l82 10q0 -64 -20 -151h3q36 74 90 112.5t109 38.5q45 0 70 -25.5t25 -69.5q0 -39 -33 -189q-28 -128 -28 -222h-73 q0 71 32 236q22 112 22 143q0 65 -54 65q-85 0 -149 -132.5t-68 -311.5z" />
<glyph unicode="&#x149;" horiz-adv-x="651" d="M96 481q66 92 92 161q-17 2 -27.5 13t-10.5 28q0 29 23 52t51 23q42 0 42 -44q0 -45 -47.5 -121.5t-100.5 -130.5zM236 0h-73q0 51 9 115t18 105.5t30 138.5l8 137l82 10q0 -56 -20 -151h3q36 74 90 112.5t109 38.5q45 0 70 -25.5t25 -69.5q0 -39 -33 -189 q-28 -128 -28 -222h-73q0 79 32 236q22 112 22 143q0 65 -54 65q-85 0 -149 -132.5t-68 -311.5z" />
<glyph unicode="&#x14a;" horiz-adv-x="728" d="M384 -187l-16 35q91 57 119 154q-19 48 -59 147t-60 148q-82 199 -108 291h-1q-15 -97 -45 -238l-74 -350h-73l113 532q20 97 25 154l81 9q19 -50 61 -153.5t58 -144.5q7 -18 23 -57t22.5 -55t18.5 -47t18.5 -49.5t14 -43.5t13.5 -49h2q18 114 83 420q18 88 29 170l74 10 l7 -9l-133 -621q-21 -100 -66.5 -158.5t-126.5 -94.5z" />
<glyph unicode="&#x14b;" horiz-adv-x="531" d="M134 0h-73q1 111 57 359l8 137l82 10q0 -64 -20 -151h3q36 74 90 112.5t108 38.5q57 0 81 -42t9 -114l-42 -199q-38 -178 -66 -240.5t-104 -124.5l-25 30q69 88 92 198l61 283q16 75 7 111t-50 36q-59 0 -109 -64t-78 -165.5t-31 -214.5z" />
<glyph unicode="&#x14c;" horiz-adv-x="693" d="M338 815l11 52h264l-11 -52h-264zM645 445q0 -111 -44 -215t-126.5 -172t-182.5 -68q-96 0 -150.5 63.5t-54.5 182.5q0 112 45 217t128 174t181 69q96 0 150 -65.5t54 -185.5zM166 242q0 -91 36 -141t105 -50q77 0 138 61.5t91 150t30 180.5t-34.5 142.5t-102.5 50.5 q-76 0 -138 -62t-93.5 -151.5t-31.5 -180.5z" />
<glyph unicode="&#x14d;" horiz-adv-x="512" d="M198 639l10 49h272l-10 -49h-272zM461 332q0 -82 -32.5 -160t-94.5 -130t-137 -52q-68 0 -106.5 44t-38.5 130q0 83 33 161t95 129.5t136 51.5q69 0 107 -44.5t38 -129.5zM129 163q0 -122 83 -122q51 0 92 48t61 113.5t20 130.5q0 122 -83 122q-52 0 -93 -47.5 t-60.5 -113.5t-19.5 -131z" />
<glyph unicode="&#x14e;" horiz-adv-x="693" d="M571 900h33q-21 -54 -62.5 -85.5t-93.5 -31.5q-49 0 -76.5 30t-23.5 83l34 4q4 -28 26 -43.5t57 -15.5q33 0 61.5 16t44.5 43zM645 445q0 -111 -44 -215t-126.5 -172t-182.5 -68q-96 0 -150.5 63.5t-54.5 182.5q0 112 45 217t128 174t181 69q96 0 150 -65.5t54 -185.5z M166 242q0 -91 36 -141t105 -50q77 0 138 61.5t91 150t30 180.5t-34.5 142.5t-102.5 50.5q-76 0 -138 -62t-93.5 -151.5t-31.5 -180.5z" />
<glyph unicode="&#x14f;" horiz-adv-x="512" d="M441 736h33q-22 -64 -66 -102t-95 -38q-50 0 -76 36t-20 99l35 5q2 -38 22.5 -59.5t55.5 -21.5q33 0 63 22t48 59zM461 332q0 -82 -32.5 -160t-94.5 -130t-137 -52q-68 0 -106.5 44t-38.5 130q0 83 33 161t95 129.5t136 51.5q69 0 107 -44.5t38 -129.5zM129 163 q0 -122 83 -122q51 0 92 48t61 113.5t20 130.5q0 122 -83 122q-52 0 -93 -47.5t-60.5 -113.5t-19.5 -131z" />
<glyph unicode="&#x150;" horiz-adv-x="693" d="M484 865l-6 -13q-93 -59 -205 -75l-3 23q118 58 181 110zM683 865l-6 -13q-95 -59 -205 -75l-3 23q115 57 181 110zM645 445q0 -111 -44 -215t-126.5 -172t-182.5 -68q-96 0 -150.5 63.5t-54.5 182.5q0 112 45 217t128 174t181 69q96 0 150 -65.5t54 -185.5zM166 242 q0 -91 36 -141t105 -50q77 0 138 61.5t91 150t30 180.5t-34.5 142.5t-102.5 50.5q-76 0 -138 -62t-93.5 -151.5t-31.5 -180.5z" />
<glyph unicode="&#x151;" horiz-adv-x="512" d="M389 748l2 -14q-79 -91 -183 -157l-21 12q97 93 149 170zM521 748l2 -14q-78 -91 -182 -157l-21 12q94 91 148 170zM461 332q0 -82 -32.5 -160t-94.5 -130t-137 -52q-68 0 -106.5 44t-38.5 130q0 83 33 161t95 129.5t136 51.5q69 0 107 -44.5t38 -129.5zM129 163 q0 -122 83 -122q51 0 92 48t61 113.5t20 130.5q0 122 -83 122q-52 0 -93 -47.5t-60.5 -113.5t-19.5 -131z" />
<glyph unicode="&#x152;" horiz-adv-x="936" d="M660 458q0 -49 -7 -90l208 2l-14 -59l-206 3q-43 -163 -161 -256l369 5l-13 -63h-470q-34 -10 -74 -10q-95 0 -151 61.5t-56 172.5q0 122 51.5 231t137.5 175t182 66q39 0 68 -10h441l7 -8l-13 -54l-349 4q50 -64 50 -170zM165 234q0 -86 38 -134.5t108 -48.5 q71 0 134 55.5t100 149t37 199.5q0 84 -36 132.5t-104 48.5q-109 0 -193 -122t-84 -280z" />
<glyph unicode="&#x153;" horiz-adv-x="779" d="M694 125l18 -27q-33 -51 -84 -79.5t-104 -28.5q-51 0 -89 26.5t-55 75.5q-77 -102 -183 -102q-68 0 -106.5 44t-38.5 130q0 83 33 161t95 129.5t136 51.5q107 0 134 -101q81 101 183 101q54 0 87 -29.5t33 -79.5q0 -71 -73.5 -121t-232.5 -58q-3 -21 -3 -41 q0 -60 27.5 -96.5t76.5 -36.5q72 0 146 81zM620 456q-55 0 -101 -61.5t-66 -143.5q123 10 176 52t53 92q0 28 -16.5 44.5t-45.5 16.5zM129 163q0 -122 83 -122q51 0 92 48t61 113.5t20 130.5q0 122 -83 122q-52 0 -93 -47.5t-60.5 -113.5t-19.5 -131z" />
<glyph unicode="&#x154;" horiz-adv-x="589" d="M566 865l-6 -13q-116 -60 -257 -75l-3 23q146 57 227 110zM142 0h-75l113 532q20 89 25 154h162q98 0 152.5 -43t54.5 -119q0 -82 -51 -144t-138 -87l124 -293l-82 -10q-59 145 -113 283h-114zM351 630h-74l-65 -302h71q96 0 153.5 50.5t57.5 135.5q0 116 -143 116z" />
<glyph unicode="&#x155;" horiz-adv-x="382" d="M389 743l1 -13q-79 -89 -193 -156l-22 13q103 101 149 170zM134 0h-73q0 96 37 267l20 92l8 137l82 10q0 -66 -25 -180h2q35 93 81 136.5t96 43.5q39 0 64 -23l-39 -65q-25 13 -51 13q-54 0 -101 -65.5t-73 -164t-28 -201.5z" />
<glyph unicode="&#x156;" horiz-adv-x="589" d="M142 0h-75l113 532q20 89 25 154h162q98 0 152.5 -43t54.5 -119q0 -82 -51 -144t-138 -87l124 -293l-82 -10q-59 145 -113 283h-114zM351 630h-74l-65 -302h71q96 0 153.5 50.5t57.5 135.5q0 116 -143 116zM141 -310q40 50 61 94q-17 0 -26.5 12t-7.5 30q2 24 20.5 45 t44.5 21q20 0 30.5 -12.5t7.5 -34.5q-5 -72 -107 -174z" />
<glyph unicode="&#x157;" horiz-adv-x="382" d="M134 0h-73q0 96 37 267l20 92l8 137l82 10q0 -66 -25 -180h2q35 93 81 136.5t96 43.5q39 0 64 -23l-39 -65q-25 13 -51 13q-54 0 -101 -65.5t-73 -164t-28 -201.5zM-11 -310q40 50 61 94q-17 0 -26.5 12t-7.5 30q2 24 20.5 45t44.5 21q20 0 30.5 -12.5t7.5 -34.5 q-5 -72 -107 -174z" />
<glyph unicode="&#x158;" horiz-adv-x="589" d="M566 916l17 -20q-78 -59 -141 -118l-61 -7q-47 71 -98 125l25 20q53 -35 115 -88q86 57 143 88zM142 0h-75l113 532q20 89 25 154h162q98 0 152.5 -43t54.5 -119q0 -82 -51 -144t-138 -87l124 -293l-82 -10q-59 145 -113 283h-114zM351 630h-74l-65 -302h71 q96 0 153.5 50.5t57.5 135.5q0 116 -143 116z" />
<glyph unicode="&#x159;" horiz-adv-x="382" d="M408 758l20 -18q-83 -86 -137 -156l-62 -6q-34 87 -78 162l27 18q44 -48 95 -118q66 63 135 118zM134 0h-73q0 96 37 267l20 92l8 137l82 10q0 -66 -25 -180h2q35 93 81 136.5t96 43.5q39 0 64 -23l-39 -65q-25 13 -51 13q-54 0 -101 -65.5t-73 -164t-28 -201.5z" />
<glyph unicode="&#x15a;" horiz-adv-x="508" d="M514 865l-6 -13q-116 -60 -257 -75l-3 23q146 57 227 110zM438 197q0 -90 -73.5 -148.5t-188.5 -58.5q-102 0 -167 36l23 68q64 -42 157 -42q74 0 122 38.5t48 96.5q0 25 -9.5 45.5t-27.5 36.5t-34.5 27t-40.5 25q-6 3 -9 5q-28 16 -45.5 28t-37.5 32t-30 45.5t-10 57.5 q0 88 74.5 147.5t188.5 59.5q94 0 149 -31l-26 -69q-54 38 -136 38q-74 0 -122 -37.5t-48 -93.5q0 -13 3.5 -25t7 -20.5t13.5 -19t15 -16t20 -16t20 -13.5t24 -14.5t23 -13.5q25 -15 42 -28t36 -33.5t29 -47.5t10 -59z" />
<glyph unicode="&#x15b;" horiz-adv-x="430" d="M376 743l2 -13q-78 -88 -194 -156l-21 13q104 104 149 170zM393 480l-22 -62q-54 34 -110 34q-48 0 -78 -24t-30 -61q0 -27 20.5 -48t50 -35.5t58.5 -31t49.5 -44t20.5 -64.5q0 -66 -57 -110t-141 -44q-82 0 -136 34l22 61q56 -41 128 -41q47 0 78.5 25t31.5 62 q0 27 -20.5 47.5t-50 34.5t-59 30t-50 43.5t-20.5 64.5q0 68 58.5 111.5t140.5 43.5q64 0 116 -26z" />
<glyph unicode="&#x15c;" horiz-adv-x="508" d="M247 770l-16 20q80 61 140 118l62 7q46 -70 97 -125l-25 -20q-58 39 -115 88q-76 -51 -143 -88zM438 197q0 -90 -73.5 -148.5t-188.5 -58.5q-102 0 -167 36l23 68q64 -42 157 -42q74 0 122 38.5t48 96.5q0 25 -9.5 45.5t-27.5 36.5t-34.5 27t-40.5 25q-6 3 -9 5 q-28 16 -45.5 28t-37.5 32t-30 45.5t-10 57.5q0 88 74.5 147.5t188.5 59.5q94 0 149 -31l-26 -69q-54 38 -136 38q-74 0 -122 -37.5t-48 -93.5q0 -13 3.5 -25t7 -20.5t13.5 -19t15 -16t20 -16t20 -13.5t24 -14.5t23 -13.5q25 -15 42 -28t36 -33.5t29 -47.5t10 -59z" />
<glyph unicode="&#x15d;" horiz-adv-x="430" d="M152 573l-20 17q91 96 137 157l62 6q34 -86 78 -163l-27 -17q-40 42 -95 118q-75 -71 -135 -118zM393 480l-22 -62q-54 34 -110 34q-48 0 -78 -24t-30 -61q0 -27 20.5 -48t50 -35.5t58.5 -31t49.5 -44t20.5 -64.5q0 -66 -57 -110t-141 -44q-82 0 -136 34l22 61 q56 -41 128 -41q47 0 78.5 25t31.5 62q0 27 -20.5 47.5t-50 34.5t-59 30t-50 43.5t-20.5 64.5q0 68 58.5 111.5t140.5 43.5q64 0 116 -26z" />
<glyph unicode="&#x15e;" horiz-adv-x="508" d="M270 -117q0 -44 -51 -72.5t-121 -33.5l4 31q105 18 105 64q0 28 -58 33l-7 15l37 70h-3q-102 0 -167 36l23 68q64 -42 157 -42q74 0 122 38.5t48 96.5q0 25 -9.5 45.5t-27.5 36.5t-34.5 27t-40.5 25q-6 3 -9 5q-28 16 -45.5 28t-37.5 32t-30 45.5t-10 57.5 q0 88 74.5 147.5t188.5 59.5q94 0 149 -31l-26 -69q-54 38 -136 38q-74 0 -122 -37.5t-48 -93.5q0 -13 3.5 -25t7 -20.5t13.5 -19t15 -16t20 -16t20 -13.5t24 -14.5t23 -13.5q25 -15 42 -28t36 -33.5t29 -47.5t10 -59q0 -79 -58.5 -135t-154.5 -69l-28 -52q73 -11 73 -58z " />
<glyph unicode="&#x15f;" horiz-adv-x="430" d="M244 -117q0 -44 -51 -72.5t-121 -33.5l4 31q105 18 105 64q0 28 -58 33l-7 15l37 70q-81 0 -135 34l22 61q56 -41 128 -41q47 0 78.5 25t31.5 62q0 27 -20.5 47.5t-50 34.5t-59 30t-50 43.5t-20.5 64.5q0 68 58.5 111.5t140.5 43.5q64 0 116 -26l-22 -62q-54 34 -110 34 q-48 0 -78 -24t-30 -61q0 -27 20.5 -48t50 -35.5t58.5 -31t49.5 -44t20.5 -64.5q0 -56 -42.5 -97.5t-110.5 -52.5l-28 -53q73 -11 73 -58z" />
<glyph unicode="&#x160;" horiz-adv-x="508" d="M514 916l17 -20q-78 -59 -141 -118l-61 -7q-47 71 -98 125l25 20q53 -35 115 -88q86 57 143 88zM438 197q0 -90 -73.5 -148.5t-188.5 -58.5q-102 0 -167 36l23 68q64 -42 157 -42q74 0 122 38.5t48 96.5q0 25 -9.5 45.5t-27.5 36.5t-34.5 27t-40.5 25q-6 3 -9 5 q-28 16 -45.5 28t-37.5 32t-30 45.5t-10 57.5q0 88 74.5 147.5t188.5 59.5q94 0 149 -31l-26 -69q-54 38 -136 38q-74 0 -122 -37.5t-48 -93.5q0 -13 3.5 -25t7 -20.5t13.5 -19t15 -16t20 -16t20 -13.5t24 -14.5t23 -13.5q25 -15 42 -28t36 -33.5t29 -47.5t10 -59z" />
<glyph unicode="&#x161;" horiz-adv-x="430" d="M396 758l19 -18q-75 -78 -137 -156l-61 -6q-36 88 -78 162l27 18q47 -51 94 -118q79 74 136 118zM393 480l-22 -62q-54 34 -110 34q-48 0 -78 -24t-30 -61q0 -27 20.5 -48t50 -35.5t58.5 -31t49.5 -44t20.5 -64.5q0 -66 -57 -110t-141 -44q-82 0 -136 34l22 61 q56 -41 128 -41q47 0 78.5 25t31.5 62q0 27 -20.5 47.5t-50 34.5t-59 30t-50 43.5t-20.5 64.5q0 68 58.5 111.5t140.5 43.5q64 0 116 -26z" />
<glyph unicode="&#x162;" horiz-adv-x="511" d="M240 0h-15l-31 -59q72 -11 72 -58q0 -44 -50.5 -72.5t-120.5 -33.5l3 31q106 18 106 64q0 27 -59 33l-6 15l42 80h-16l134 628q-105 -2 -211 -6l18 64h484l-9 -64q-103 4 -207 6z" />
<glyph unicode="&#x163;" horiz-adv-x="352" d="M222 -117q0 -44 -50.5 -72.5t-120.5 -33.5l3 31q106 18 106 64q0 27 -58 33l-7 15l39 74q-66 15 -66 96q0 30 45 240q5 24 8 38t8 38t10 46h-73l7 34l76 10l43 117l49 5l7 -9l-27 -113h135l5 -8l-11 -38l-139 1q-9 -42 -18 -85t-14.5 -69t-11.5 -53t-9 -42t-6 -30.5 t-4.5 -23t-2.5 -16t-1.5 -13.5t-0.5 -10q0 -62 60 -62q40 0 85 25l-2 -51q-54 -30 -110 -31l-26 -49q72 -11 72 -58z" />
<glyph unicode="&#x164;" horiz-adv-x="511" d="M515 916l17 -20q-78 -59 -141 -118l-61 -7q-47 71 -98 125l25 20q53 -35 115 -88q80 53 143 88zM240 0h-75l134 628q-105 -2 -211 -6l18 64h484l-9 -64q-103 4 -207 6z" />
<glyph unicode="&#x165;" horiz-adv-x="352" d="M463 754l5 -12q-39 -105 -122 -211l-26 4q56 121 78 214zM350 450l-139 1q-9 -42 -18 -85t-14.5 -69t-11.5 -53t-9 -42t-6 -30.5t-4.5 -23t-2.5 -16t-1.5 -13.5t-0.5 -10q0 -62 60 -62q40 0 85 25l-2 -51q-55 -31 -116 -31q-102 0 -102 100q0 30 45 240q5 24 8 38t8 38 t10 46h-73l7 34l76 10l43 117l49 5l7 -9l-27 -113h135l5 -8z" />
<glyph unicode="&#x166;" horiz-adv-x="511" d="M240 0h-75l68 321h-145l9 44h146l56 263q-105 -2 -211 -6l18 64h484l-9 -64q-103 4 -207 6l-56 -263h145l-9 -44h-145z" />
<glyph unicode="&#x167;" horiz-adv-x="352" d="M316 283h-141q-32 -153 -32 -174q0 -62 60 -62q40 0 85 25l-2 -51q-55 -31 -116 -31q-102 0 -102 100q0 30 35 193h-70l7 43h72l27 126h-73l7 34l76 10l43 117l49 5l7 -9l-27 -113h135l5 -8l-11 -38l-139 1q-5 -24 -13.5 -65.5t-12.5 -59.5h138z" />
<glyph unicode="&#x168;" horiz-adv-x="652" d="M401 902q30 0 69.5 -28t62.5 -28q37 0 78 54l22 -4q-13 -43 -45 -74.5t-72 -31.5q-30 0 -71 28t-63 28q-39 0 -78 -53l-22 4q13 41 44.5 73t74.5 32zM82 160q0 43 44.5 242.5t50.5 285.5l83 8l4 -5q-102 -476 -104 -494q-1 -9 -1 -19q0 -61 36 -93t96 -32q72 0 127 45 t72 128q78 367 84 415q2 20 4 47l85 8l-100 -471q-25 -113 -105.5 -174t-185.5 -61q-86 0 -138 44.5t-52 125.5z" />
<glyph unicode="&#x169;" horiz-adv-x="526" d="M279 722q28 0 66 -28t59 -28q33 0 71 54l23 -4q-14 -44 -44.5 -77.5t-67.5 -33.5q-28 0 -67.5 28.5t-58.5 28.5q-32 0 -72 -54l-22 4q15 43 45 76.5t68 33.5zM67 146l44 213l8 137l82 10q0 -43 -6.5 -89t-21 -116t-18.5 -92q-17 -74 -10.5 -115t49.5 -41q56 0 102.5 61 t73.5 161q23 111 29 170l3 51l75 10q-1 -35 -6.5 -77t-11.5 -72.5t-18.5 -89.5t-18.5 -92q-20 -105 -20 -175h-73q0 59 13 134q-34 -71 -84 -107.5t-101 -36.5q-57 0 -81 42t-9 114z" />
<glyph unicode="&#x16a;" horiz-adv-x="652" d="M319 815l11 52h264l-11 -52h-264zM82 160q0 43 44.5 242.5t50.5 285.5l83 8l4 -5q-102 -476 -104 -494q-1 -9 -1 -19q0 -61 36 -93t96 -32q72 0 127 45t72 128q78 367 84 415q2 20 4 47l85 8l-100 -471q-25 -113 -105.5 -174t-185.5 -61q-86 0 -138 44.5t-52 125.5z" />
<glyph unicode="&#x16b;" horiz-adv-x="526" d="M192 639l10 49h272l-10 -49h-272zM67 146l44 213l8 137l82 10q0 -43 -6.5 -89t-21 -116t-18.5 -92q-17 -74 -10.5 -115t49.5 -41q56 0 102.5 61t73.5 161q23 111 29 170l3 51l75 10q-1 -35 -6.5 -77t-11.5 -72.5t-18.5 -89.5t-18.5 -92q-20 -105 -20 -175h-73 q0 59 13 134q-34 -71 -84 -107.5t-101 -36.5q-57 0 -81 42t-9 114z" />
<glyph unicode="&#x16c;" horiz-adv-x="652" d="M552 900h33q-21 -54 -63 -85.5t-94 -31.5q-49 0 -76.5 30t-23.5 83l35 4q3 -28 25.5 -43.5t57.5 -15.5q33 0 61.5 16t44.5 43zM82 160q0 43 44.5 242.5t50.5 285.5l83 8l4 -5q-102 -476 -104 -494q-1 -9 -1 -19q0 -61 36 -93t96 -32q72 0 127 45t72 128q78 367 84 415 q2 20 4 47l85 8l-100 -471q-25 -113 -105.5 -174t-185.5 -61q-86 0 -138 44.5t-52 125.5z" />
<glyph unicode="&#x16d;" horiz-adv-x="526" d="M434 736h34q-23 -65 -66.5 -102.5t-94.5 -37.5q-50 0 -76 36t-20 99l34 5q2 -38 23 -59.5t56 -21.5q33 0 62.5 22t47.5 59zM67 146l44 213l8 137l82 10q0 -43 -6.5 -89t-21 -116t-18.5 -92q-17 -74 -10.5 -115t49.5 -41q56 0 102.5 61t73.5 161q23 111 29 170l3 51l75 10 q-1 -35 -6.5 -77t-11.5 -72.5t-18.5 -89.5t-18.5 -92q-20 -105 -20 -175h-73q0 59 13 134q-34 -71 -84 -107.5t-101 -36.5q-57 0 -81 42t-9 114z" />
<glyph unicode="&#x16e;" horiz-adv-x="652" d="M549 863q0 -40 -35.5 -72.5t-79.5 -32.5q-30 0 -50 17.5t-20 44.5q0 38 36 70.5t80 32.5q31 0 50 -16.5t19 -43.5zM408 827q0 -16 10 -25.5t26 -9.5q24 0 42.5 19t18.5 44q0 15 -9.5 24.5t-26.5 9.5q-24 0 -42.5 -19t-18.5 -43zM82 160q0 43 44.5 242.5t50.5 285.5l83 8 l4 -5q-102 -476 -104 -494q-1 -9 -1 -19q0 -61 36 -93t96 -32q72 0 127 45t72 128q78 367 84 415q2 20 4 47l85 8l-100 -471q-25 -113 -105.5 -174t-185.5 -61q-86 0 -138 44.5t-52 125.5z" />
<glyph unicode="&#x16f;" horiz-adv-x="526" d="M424 677q0 -40 -35.5 -72.5t-79.5 -32.5q-30 0 -50 17.5t-20 44.5q0 39 36 71t81 32q31 0 49.5 -17t18.5 -43zM283 641q0 -16 10 -25.5t26 -9.5q24 0 42.5 19t18.5 44q0 15 -9.5 24.5t-26.5 9.5q-24 0 -42.5 -19t-18.5 -43zM67 146l44 213l8 137l82 10q0 -43 -6.5 -89 t-21 -116t-18.5 -92q-17 -74 -10.5 -115t49.5 -41q56 0 102.5 61t73.5 161q23 111 29 170l3 51l75 10q-1 -35 -6.5 -77t-11.5 -72.5t-18.5 -89.5t-18.5 -92q-20 -105 -20 -175h-73q0 59 13 134q-34 -71 -84 -107.5t-101 -36.5q-57 0 -81 42t-9 114z" />
<glyph unicode="&#x170;" horiz-adv-x="652" d="M465 865l-6 -13q-95 -59 -205 -75l-3 23q115 57 181 110zM664 865l-6 -13q-95 -60 -206 -75l-3 23q115 56 182 110zM82 160q0 43 44.5 242.5t50.5 285.5l83 8l4 -5q-102 -476 -104 -494q-1 -9 -1 -19q0 -61 36 -93t96 -32q72 0 127 45t72 128q78 367 84 415q2 20 4 47 l85 8l-100 -471q-25 -113 -105.5 -174t-185.5 -61q-86 0 -138 44.5t-52 125.5z" />
<glyph unicode="&#x171;" horiz-adv-x="526" d="M383 748l1 -14q-77 -91 -182 -157l-21 12q97 93 149 170zM515 748l2 -14q-81 -93 -182 -157l-22 12q97 93 149 170zM67 146l44 213l8 137l82 10q0 -43 -6.5 -89t-21 -116t-18.5 -92q-17 -74 -10.5 -115t49.5 -41q56 0 102.5 61t73.5 161q23 111 29 170l3 51l75 10 q-1 -35 -6.5 -77t-11.5 -72.5t-18.5 -89.5t-18.5 -92q-20 -105 -20 -175h-73q0 59 13 134q-34 -71 -84 -107.5t-101 -36.5q-57 0 -81 42t-9 114z" />
<glyph unicode="&#x172;" horiz-adv-x="652" d="M82 160q0 43 44.5 242.5t50.5 285.5l83 8l4 -5q-102 -476 -104 -494q-1 -9 -1 -19q0 -61 36 -93t96 -32q72 0 127 45t72 128q78 367 84 415q2 20 4 47l85 8l-100 -471q-17 -77 -61.5 -131t-107.5 -80q-143 -77 -143 -151q0 -38 43 -38q24 0 59 12l6 -30q-43 -32 -97 -32 q-38 0 -59.5 17.5t-21.5 48.5q0 80 119 150q-9 -1 -28 -1q-86 0 -138 44.5t-52 125.5z" />
<glyph unicode="&#x173;" horiz-adv-x="526" d="M67 146l44 213l8 137l82 10q0 -43 -6.5 -89t-21 -116t-18.5 -92q-17 -74 -10.5 -115t49.5 -41q56 0 102.5 61t73.5 161q23 111 29 170l3 51l75 10q-1 -35 -6.5 -77t-11.5 -72.5t-18.5 -89.5t-18.5 -92q-20 -105 -20 -175q-140 -69 -140 -140q0 -35 44 -35q25 0 58 12 l6 -30q-43 -32 -97 -32q-38 0 -59.5 16.5t-21.5 46.5q0 43 39.5 85t112.5 77h-15q0 59 13 134q-34 -71 -84 -107.5t-101 -36.5q-57 0 -81 42t-9 114z" />
<glyph unicode="&#x174;" horiz-adv-x="958" d="M472 770l-17 20q78 59 141 118l61 7q47 -71 98 -125l-25 -20q-53 35 -115 88q-86 -57 -143 -88zM180 -4l-66 692l78 8l36 -408q13 -126 9 -207q21 54 106 222l200 388l72 5l36 -408q13 -130 11 -207q23 63 104 220l202 395l57 -6l5 -8l-356 -686h-67l-44 429 q-8 103 -9 167h-2q-23 -53 -81 -167l-224 -429h-67z" />
<glyph unicode="&#x175;" horiz-adv-x="667" d="M279 573l-20 17q84 89 137 157l62 6q34 -86 78 -163l-27 -17q-40 42 -95 118q-75 -71 -135 -118zM639 506q35 0 35 -27q0 -69 -66 -214t-156 -265h-79q7 206 -5 395h-1q-23 -91 -74.5 -197.5t-116.5 -197.5h-78q3 279 -33 496l76 8q32 -194 24 -436h1q146 235 167 428h85 q32 -195 22 -428h2q66 107 111 222t55 211q16 5 31 5z" />
<glyph unicode="&#x176;" horiz-adv-x="539" d="M267 770l-16 20q80 61 140 118l62 7q47 -71 98 -125l-26 -20q-61 41 -114 88q-81 -54 -144 -88zM232 247l-118 442l80 7l62 -246l10.5 -45.5t12.5 -58.5t6 -47h2q17 33 96 152l164 245l59 -6l5 -8l-305 -438l-52 -244h-75z" />
<glyph unicode="&#x177;" horiz-adv-x="427" d="M162 573l-20 17q91 96 137 157l62 6q34 -86 78 -163l-27 -17q-44 46 -94 118q-81 -75 -136 -118zM399 506q34 0 34 -27q0 -59 -58.5 -182t-139.5 -245.5t-177 -215t-162 -92.5q-23 0 -36.5 11.5t-13.5 31.5q0 18 11 33q21 -4 46 -4q59 0 123.5 55t113.5 129h-22 q-1 274 -53 496l75 10q50 -203 44 -434h1q164 251 183 429q15 5 31 5z" />
<glyph unicode="&#x178;" horiz-adv-x="539" d="M554 857q0 -26 -20.5 -47t-46.5 -21q-18 0 -28 10t-10 26q0 25 21 45.5t47 20.5q17 0 27 -9.5t10 -24.5zM352 857q0 -26 -20.5 -47t-46.5 -21q-18 0 -28 10t-10 26q0 25 21 45.5t47 20.5q17 0 27 -9.5t10 -24.5zM232 247l-118 442l80 7l62 -246l10.5 -45.5t12.5 -58.5 t6 -47h2q17 33 96 152l164 245l59 -6l5 -8l-305 -438l-52 -244h-75z" />
<glyph unicode="&#x179;" horiz-adv-x="514" d="M517 865l-6 -13q-116 -60 -257 -75l-3 23q144 56 227 110zM-15 0l-2 47l492 577l-359 -4l19 66h424l8 -47l-491 -577l373 5l-18 -67h-446z" />
<glyph unicode="&#x17a;" horiz-adv-x="416" d="M360 743l1 -13q-79 -89 -193 -156l-21 13q104 104 148 170zM10 -10l-27 37q244 267 332 388q-76 31 -138 31q-65 0 -105 -58l-27 14q25 60 56.5 82t77.5 22q71 0 166 -49q15 22 32 49q37 0 37 -26q0 -33 -96.5 -154t-233.5 -260q10 3 25 3q22 0 69 -9t65 -9q58 0 103 62 l29 -14q-28 -63 -60 -86t-81 -23q-34 0 -91 11.5t-79 11.5q-30 0 -54 -23z" />
<glyph unicode="&#x17b;" horiz-adv-x="514" d="M441 864q0 -28 -21.5 -49t-49.5 -21q-20 0 -31 10.5t-11 27.5q0 26 22 47t50 21q19 0 30 -10t11 -26zM-15 0l-2 47l492 577l-359 -4l19 66h424l8 -47l-491 -577l373 5l-18 -67h-446z" />
<glyph unicode="&#x17c;" horiz-adv-x="416" d="M310 685q0 -30 -21.5 -53.5t-49.5 -23.5q-18 0 -28.5 11.5t-10.5 28.5q0 29 22 52t49 23q39 0 39 -38zM10 -10l-27 37q244 267 332 388q-76 31 -138 31q-65 0 -105 -58l-27 14q25 60 56.5 82t77.5 22q71 0 166 -49q15 22 32 49q37 0 37 -26q0 -33 -96.5 -154t-233.5 -260 q10 3 25 3q22 0 69 -9t65 -9q58 0 103 62l29 -14q-28 -63 -60 -86t-81 -23q-34 0 -91 11.5t-79 11.5q-30 0 -54 -23z" />
<glyph unicode="&#x17d;" horiz-adv-x="514" d="M517 916l17 -20q-78 -59 -141 -118l-61 -7q-47 71 -98 125l25 20q53 -35 115 -88q86 57 143 88zM-15 0l-2 47l492 577l-359 -4l19 66h424l8 -47l-491 -577l373 5l-18 -67h-446z" />
<glyph unicode="&#x17e;" horiz-adv-x="416" d="M379 758l20 -18q-75 -78 -137 -156l-62 -6q-34 87 -78 162l27 18q44 -48 95 -118q78 72 135 118zM10 -10l-27 37q244 267 332 388q-76 31 -138 31q-65 0 -105 -58l-27 14q25 60 56.5 82t77.5 22q71 0 166 -49q15 22 32 49q37 0 37 -26q0 -33 -96.5 -154t-233.5 -260 q10 3 25 3q22 0 69 -9t65 -9q58 0 103 62l29 -14q-28 -63 -60 -86t-81 -23q-34 0 -91 11.5t-79 11.5q-30 0 -54 -23z" />
<glyph unicode="&#x18f;" horiz-adv-x="662" d="M113 370l22 20h394v27q0 218 -167 218q-82 0 -173 -51l9 61q83 51 192 51q106 0 164 -65.5t58 -195.5q0 -183 -103 -314t-249 -131q-89 0 -137.5 52t-48.5 148q0 84 39 180zM152 201q0 -74 32.5 -113t93.5 -39q92 0 160.5 84t85.5 211l-346 -11q-26 -64 -26 -132z" />
<glyph unicode="&#x192;" horiz-adv-x="460" d="M176 297l-113 3l11 34l112 10h1l20 87q29 127 83.5 196t148.5 69q65 0 107 -28l-35 -62q-40 32 -81 32q-57 0 -90.5 -48.5t-60.5 -166.5l-18 -79h178l4 -8l-16 -39h-177l-76 -328q-8 -32 -14 -53t-23 -57t-37.5 -58t-56 -39.5t-79.5 -17.5q-54 0 -96 24l28 62 q35 -28 81 -28q23 0 41.5 9.5t30.5 22.5t21.5 35.5t15 40t11.5 44.5z" />
<glyph unicode="&#x19d;" horiz-adv-x="705" d="M-60 -187l-16 35q101 66 134 218l99 466q17 73 25 154l81 9q108 -270 119 -298q7 -16 23 -55t22 -55t18.5 -47t18.5 -50t14 -44.5t14 -49.5h2q17 106 83 419q21 97 29 171l74 10l7 -9l-147 -687h-75q-24 59 -65.5 162.5t-54.5 135.5q-84 201 -108 290h-1 q-15 -99 -45 -238l-60 -284q-22 -101 -67 -159t-124 -94z" />
<glyph unicode="&#x1cd;" horiz-adv-x="613" d="M562 916l17 -20q-80 -61 -140 -118l-62 -7q-47 71 -98 125l26 20q61 -41 114 -88q80 53 143 88zM44 0h-72l331 589q29 52 55 103l74 4l9 -10l94 -686h-77l-28 201h-273zM273 406l-83 -148h232l-21 148q-17 145 -17 209h-2q-28 -62 -109 -209z" />
<glyph unicode="&#x1ce;" horiz-adv-x="523" d="M485 758l20 -18q-83 -86 -137 -156l-62 -6q-34 87 -78 162l27 18q44 -48 95 -118q66 63 135 118zM46 135q0 90 39 174.5t113 140.5t164 56q68 0 126 -22l-42 -174q-46 -204 -46 -310h-73q0 91 25 210q-42 -90 -96 -155t-113 -65q-44 0 -70.5 36.5t-26.5 108.5zM122 151 q0 -98 54 -98q38 0 84 60t79 132.5t50 132.5q5 20 15 64q-35 13 -67 13q-83 0 -149 -97.5t-66 -206.5z" />
<glyph unicode="&#x1cf;" horiz-adv-x="308" d="M415 916l17 -20q-78 -59 -141 -118l-61 -7q-47 71 -98 125l25 20q53 -35 115 -88q86 57 143 88zM142 0h-75l112 530q20 87 26 156l77 10l7 -8z" />
<glyph unicode="&#x1d0;" horiz-adv-x="255" d="M296 760l20 -13q-58 -85 -101 -159l-73 -7q-24 106 -41 166l25 13q29 -42 65 -117q68 82 105 117zM134 0h-73q0 96 37 267l20 92l8 137l82 10q0 -70 -37 -246.5t-37 -259.5z" />
<glyph unicode="&#x1d1;" horiz-adv-x="693" d="M610 916l16 -20q-80 -61 -140 -118l-62 -7q-46 70 -97 125l25 20q58 -39 115 -88q76 51 143 88zM645 445q0 -111 -44 -215t-126.5 -172t-182.5 -68q-96 0 -150.5 63.5t-54.5 182.5q0 112 45 217t128 174t181 69q96 0 150 -65.5t54 -185.5zM166 242q0 -91 36 -141t105 -50 q77 0 138 61.5t91 150t30 180.5t-34.5 142.5t-102.5 50.5q-76 0 -138 -62t-93.5 -151.5t-31.5 -180.5z" />
<glyph unicode="&#x1d2;" horiz-adv-x="512" d="M464 758l19 -18q-75 -78 -137 -156l-61 -6q-31 79 -78 162l27 18q47 -51 94 -118q72 66 136 118zM461 332q0 -82 -32.5 -160t-94.5 -130t-137 -52q-68 0 -106.5 44t-38.5 130q0 83 33 161t95 129.5t136 51.5q69 0 107 -44.5t38 -129.5zM129 163q0 -122 83 -122 q51 0 92 48t61 113.5t20 130.5q0 122 -83 122q-52 0 -93 -47.5t-60.5 -113.5t-19.5 -131z" />
<glyph unicode="&#x1d3;" horiz-adv-x="652" d="M590 916l17 -20q-80 -61 -140 -118l-62 -7q-47 71 -98 125l26 20q53 -36 114 -88q80 53 143 88zM82 160q0 43 44.5 242.5t50.5 285.5l83 8l4 -5q-102 -476 -104 -494q-1 -9 -1 -19q0 -61 36 -93t96 -32q72 0 127 45t72 128q78 367 84 415q2 20 4 47l85 8l-100 -471 q-25 -113 -105.5 -174t-185.5 -61q-86 0 -138 44.5t-52 125.5z" />
<glyph unicode="&#x1d4;" horiz-adv-x="526" d="M457 758l20 -18q-75 -78 -137 -156l-61 -6q-36 88 -78 162l27 18q39 -43 94 -118q78 72 135 118zM67 146l44 213l8 137l82 10q0 -43 -6.5 -89t-21 -116t-18.5 -92q-17 -74 -10.5 -115t49.5 -41q56 0 102.5 61t73.5 161q23 111 29 170l3 51l75 10q-1 -35 -6.5 -77 t-11.5 -72.5t-18.5 -89.5t-18.5 -92q-20 -105 -20 -175h-73q0 59 13 134q-34 -71 -84 -107.5t-101 -36.5q-57 0 -81 42t-9 114z" />
<glyph unicode="&#x1d5;" horiz-adv-x="652" d="M362 1018l11 52h264l-11 -52h-264zM610 857q0 -26 -20.5 -47t-46.5 -21q-18 0 -28 10t-10 26q0 25 21 45.5t47 20.5q17 0 27 -9.5t10 -24.5zM408 857q0 -26 -20.5 -47t-45.5 -21q-19 0 -29 10t-10 26q0 25 21 45.5t47 20.5q17 0 27 -9.5t10 -24.5zM82 160 q0 43 44.5 242.5t50.5 285.5l83 8l4 -5q-102 -476 -104 -494q-1 -9 -1 -19q0 -61 36 -93t96 -32q72 0 127 45t72 128q78 367 84 415q2 20 4 47l85 8l-100 -471q-25 -113 -105.5 -174t-185.5 -61q-86 0 -138 44.5t-52 125.5z" />
<glyph unicode="&#x1d6;" horiz-adv-x="526" d="M240 863l10 49h272l-10 -49h-272zM285 684q0 -29 -20.5 -52.5t-46.5 -23.5q-17 0 -26.5 10.5t-9.5 27.5q0 28 21.5 51t46.5 23q35 0 35 -36zM485 684q0 -29 -20.5 -52.5t-46.5 -23.5q-17 0 -26.5 10.5t-9.5 27.5q0 28 21 51t47 23q35 0 35 -36zM67 146l44 213l8 137 l82 10q0 -43 -6.5 -89t-21 -116t-18.5 -92q-17 -74 -10.5 -115t49.5 -41q56 0 102.5 61t73.5 161q23 111 29 170l3 51l75 10q-1 -35 -6.5 -77t-11.5 -72.5t-18.5 -89.5t-18.5 -92q-20 -105 -20 -175h-73q0 59 13 134q-34 -71 -84 -107.5t-101 -36.5q-57 0 -81 42t-9 114z " />
<glyph unicode="&#x1d7;" horiz-adv-x="652" d="M633 1067l-6 -12q-115 -60 -257 -75l-3 23q145 56 228 109zM610 857q0 -26 -20.5 -47t-46.5 -21q-18 0 -28 10t-10 26q0 25 21 45.5t47 20.5q17 0 27 -9.5t10 -24.5zM408 857q0 -26 -20.5 -47t-45.5 -21q-19 0 -29 10t-10 26q0 25 21 45.5t47 20.5q17 0 27 -9.5t10 -24.5 zM82 160q0 43 44.5 242.5t50.5 285.5l83 8l4 -5q-102 -476 -104 -494q-1 -9 -1 -19q0 -61 36 -93t96 -32q72 0 127 45t72 128q78 367 84 415q2 20 4 47l85 8l-100 -471q-25 -113 -105.5 -174t-185.5 -61q-86 0 -138 44.5t-52 125.5z" />
<glyph unicode="&#x1d8;" horiz-adv-x="526" d="M486 967l2 -13q-76 -87 -194 -156l-21 12q108 110 149 171zM285 684q0 -29 -20.5 -52.5t-46.5 -23.5q-17 0 -26.5 10.5t-9.5 27.5q0 28 21.5 51t46.5 23q35 0 35 -36zM485 684q0 -29 -20.5 -52.5t-46.5 -23.5q-17 0 -26.5 10.5t-9.5 27.5q0 28 21 51t47 23q35 0 35 -36z M67 146l44 213l8 137l82 10q0 -43 -6.5 -89t-21 -116t-18.5 -92q-17 -74 -10.5 -115t49.5 -41q56 0 102.5 61t73.5 161q23 111 29 170l3 51l75 10q-1 -35 -6.5 -77t-11.5 -72.5t-18.5 -89.5t-18.5 -92q-20 -105 -20 -175h-73q0 59 13 134q-34 -71 -84 -107.5t-101 -36.5 q-57 0 -81 42t-9 114z" />
<glyph unicode="&#x1d9;" horiz-adv-x="652" d="M627 1153l20 -18q-81 -84 -137 -156l-61 -6q-36 88 -78 162l26 18q40 -42 95 -118q86 80 135 118zM610 857q0 -26 -20.5 -47t-46.5 -21q-18 0 -28 10t-10 26q0 25 21 45.5t47 20.5q17 0 27 -9.5t10 -24.5zM408 857q0 -26 -20.5 -47t-45.5 -21q-19 0 -29 10t-10 26 q0 25 21 45.5t47 20.5q17 0 27 -9.5t10 -24.5zM82 160q0 43 44.5 242.5t50.5 285.5l83 8l4 -5q-102 -476 -104 -494q-1 -9 -1 -19q0 -61 36 -93t96 -32q72 0 127 45t72 128q78 367 84 415q2 20 4 47l85 8l-100 -471q-25 -113 -105.5 -174t-185.5 -61q-86 0 -138 44.5 t-52 125.5z" />
<glyph unicode="&#x1da;" horiz-adv-x="526" d="M506 982l19 -18q-83 -88 -137 -156l-61 -7q-31 79 -78 163l27 18q47 -51 94 -118q79 74 136 118zM285 684q0 -29 -20.5 -52.5t-46.5 -23.5q-17 0 -26.5 10.5t-9.5 27.5q0 28 21.5 51t46.5 23q35 0 35 -36zM485 684q0 -29 -20.5 -52.5t-46.5 -23.5q-17 0 -26.5 10.5 t-9.5 27.5q0 28 21 51t47 23q35 0 35 -36zM67 146l44 213l8 137l82 10q0 -43 -6.5 -89t-21 -116t-18.5 -92q-17 -74 -10.5 -115t49.5 -41q56 0 102.5 61t73.5 161q23 111 29 170l3 51l75 10q-1 -35 -6.5 -77t-11.5 -72.5t-18.5 -89.5t-18.5 -92q-20 -105 -20 -175h-73 q0 59 13 134q-34 -71 -84 -107.5t-101 -36.5q-57 0 -81 42t-9 114z" />
<glyph unicode="&#x1db;" horiz-adv-x="652" d="M606 980q-135 16 -224 75l-1 12l57 45q71 -60 181 -109zM610 857q0 -26 -20.5 -47t-46.5 -21q-18 0 -28 10t-10 26q0 25 21 45.5t47 20.5q17 0 27 -9.5t10 -24.5zM408 857q0 -26 -20.5 -47t-45.5 -21q-19 0 -29 10t-10 26q0 25 21 45.5t47 20.5q17 0 27 -9.5t10 -24.5z M82 160q0 43 44.5 242.5t50.5 285.5l83 8l4 -5q-102 -476 -104 -494q-1 -9 -1 -19q0 -61 36 -93t96 -32q72 0 127 45t72 128q78 367 84 415q2 20 4 47l85 8l-100 -471q-25 -113 -105.5 -174t-185.5 -61q-86 0 -138 44.5t-52 125.5z" />
<glyph unicode="&#x1dc;" horiz-adv-x="526" d="M432 800q-88 68 -128 156l8 13l70 14q18 -71 76 -170zM285 684q0 -29 -20.5 -52.5t-46.5 -23.5q-17 0 -26.5 10.5t-9.5 27.5q0 28 21.5 51t46.5 23q35 0 35 -36zM485 684q0 -29 -20.5 -52.5t-46.5 -23.5q-17 0 -26.5 10.5t-9.5 27.5q0 28 21 51t47 23q35 0 35 -36z M67 146l44 213l8 137l82 10q0 -43 -6.5 -89t-21 -116t-18.5 -92q-17 -74 -10.5 -115t49.5 -41q56 0 102.5 61t73.5 161q23 111 29 170l3 51l75 10q-1 -35 -6.5 -77t-11.5 -72.5t-18.5 -89.5t-18.5 -92q-20 -105 -20 -175h-73q0 59 13 134q-34 -71 -84 -107.5t-101 -36.5 q-57 0 -81 42t-9 114z" />
<glyph unicode="&#x1e6;" horiz-adv-x="646" d="M597 916l17 -20q-80 -61 -140 -118l-62 -7q-47 71 -98 125l26 20q61 -41 114 -88q80 53 143 88zM574 298l7 -8l-56 -252q-84 -48 -201 -48q-115 0 -175.5 63t-60.5 188q0 115 48 219t136 170t193 66q100 0 165 -44l-29 -68q-58 49 -146 49q-84 0 -151.5 -57.5 t-101.5 -143t-34 -178.5q0 -202 179 -202q57 0 113 18l11 53q20 93 26 165z" />
<glyph unicode="&#x1e7;" horiz-adv-x="443" d="M434 758l20 -18q-83 -86 -137 -156l-62 -6q-34 87 -78 162l27 18q44 -48 95 -118q66 63 135 118zM128 -256q-82 0 -128.5 33t-46.5 86q0 71 89 117l19 -19q-38 -41 -38 -78q0 -41 31.5 -67t87.5 -26q61 0 100.5 28.5t39.5 66.5q0 24 -20.5 43.5t-65.5 41.5q-60 30 -73 45 t-13 31q0 46 96 100v2q-9 -1 -14 -1q-61 1 -94.5 38t-33.5 99q0 92 64 157t152 65q124 0 172 11q8 -10 8 -25q0 -14 -10 -24.5t-33 -10.5q-18 0 -77 16v-2q55 -34 55 -109q0 -52 -22 -96t-53.5 -73t-63 -51.5t-53.5 -41t-22 -32.5q0 -20 51 -44q3 -1 5 -2q60 -28 90 -57 t30 -67q0 -60 -64 -107t-165 -47zM325 367q0 43 -17 68t-48 25q-49 0 -87.5 -56.5t-38.5 -122.5q0 -44 18.5 -68t50.5 -24q51 0 86.5 56t35.5 122z" />
<glyph unicode="&#x1ea;" horiz-adv-x="693" d="M427 26q-152 -82 -152 -161q0 -40 44 -40q25 0 58 12l6 -30q-43 -32 -100 -32q-36 0 -57 18t-21 52q0 75 110 146q-8 -1 -23 -1q-96 0 -150.5 63.5t-54.5 182.5q0 112 45 217t128 174t181 69q96 0 150 -65.5t54 -185.5q0 -128 -60 -246t-158 -173zM166 242q0 -91 36 -141 t105 -50q77 0 138 61.5t91 150t30 180.5t-34.5 142.5t-102.5 50.5q-76 0 -138 -62t-93.5 -151.5t-31.5 -180.5z" />
<glyph unicode="&#x1eb;" horiz-adv-x="512" d="M313 25q-142 -107 -142 -163q0 -37 43 -37q24 0 59 12l6 -30q-45 -32 -98 -32q-37 0 -58.5 17.5t-21.5 46.5q0 70 114 152q-6 -1 -18 -1q-68 0 -106.5 44t-38.5 130q0 83 33 161t95 129.5t136 51.5q69 0 107 -44.5t38 -129.5q0 -91 -41 -176.5t-109 -130.5h2zM129 163 q0 -122 83 -122q51 0 92 48t61 113.5t20 130.5q0 122 -83 122q-52 0 -93 -47.5t-60.5 -113.5t-19.5 -131z" />
<glyph unicode="&#x1f4;" horiz-adv-x="646" d="M597 865l-6 -13q-116 -60 -257 -75l-3 23q144 56 227 110zM574 298l7 -8l-56 -252q-84 -48 -201 -48q-115 0 -175.5 63t-60.5 188q0 115 48 219t136 170t193 66q100 0 165 -44l-29 -68q-58 49 -146 49q-84 0 -151.5 -57.5t-101.5 -143t-34 -178.5q0 -202 179 -202 q57 0 113 18l11 53q20 93 26 165z" />
<glyph unicode="&#x1f5;" horiz-adv-x="443" d="M415 743l1 -13q-79 -89 -193 -156l-21 13q104 104 148 170zM128 -256q-82 0 -128.5 33t-46.5 86q0 71 89 117l19 -19q-38 -41 -38 -78q0 -41 31.5 -67t87.5 -26q61 0 100.5 28.5t39.5 66.5q0 24 -20.5 43.5t-65.5 41.5q-60 30 -73 45t-13 31q0 46 96 100v2q-9 -1 -14 -1 q-61 1 -94.5 38t-33.5 99q0 92 64 157t152 65q124 0 172 11q8 -10 8 -25q0 -14 -10 -24.5t-33 -10.5q-18 0 -77 16v-2q55 -34 55 -109q0 -52 -22 -96t-53.5 -73t-63 -51.5t-53.5 -41t-22 -32.5q0 -20 51 -44q3 -1 5 -2q60 -28 90 -57t30 -67q0 -60 -64 -107t-165 -47z M325 367q0 43 -17 68t-48 25q-49 0 -87.5 -56.5t-38.5 -122.5q0 -44 18.5 -68t50.5 -24q51 0 86.5 56t35.5 122z" />
<glyph unicode="&#x1fa;" horiz-adv-x="613" d="M612 1099l-6 -13q-116 -60 -257 -75l-3 23q146 57 227 110zM521 863q0 -40 -35.5 -72.5t-79.5 -32.5q-30 0 -50 17.5t-20 44.5q0 39 36 71t81 32q31 0 49.5 -17t18.5 -43zM380 827q0 -16 10 -25.5t26 -9.5q24 0 42.5 19t18.5 44q0 15 -9.5 24.5t-26.5 9.5 q-24 0 -42.5 -19t-18.5 -43zM44 0h-72l331 589q29 52 55 103l74 4l9 -10l94 -686h-77l-28 201h-273zM273 406l-83 -148h232l-21 148q-17 145 -17 209h-2q-28 -62 -109 -209z" />
<glyph unicode="&#x1fb;" horiz-adv-x="523" d="M517 984l2 -14q-79 -89 -194 -155l-21 12q108 110 148 171zM451 677q0 -40 -35 -72.5t-79 -32.5q-31 0 -50.5 17.5t-19.5 44.5q0 38 36 70.5t80 32.5q31 0 49.5 -16.5t18.5 -43.5zM310 641q0 -16 10 -25.5t27 -9.5q24 0 42 19t18 44q0 34 -35 34q-24 0 -43 -19t-19 -43z M46 135q0 90 39 174.5t113 140.5t164 56q68 0 126 -22l-42 -174q-46 -204 -46 -310h-73q0 91 25 210q-42 -90 -96 -155t-113 -65q-44 0 -70.5 36.5t-26.5 108.5zM122 151q0 -98 54 -98q38 0 84 60t79 132.5t50 132.5q5 20 15 64q-35 13 -67 13q-83 0 -149 -97.5t-66 -206.5z " />
<glyph unicode="&#x1fc;" horiz-adv-x="858" d="M695 865l-6 -13q-117 -60 -257 -75l-3 23q147 57 227 110zM44 0h-72l425 589q49 71 67 97h352l7 -8l-13 -54l-266 4l-26 -260l230 2l-14 -59l-221 3l-25 -256l283 5l-13 -63h-352l23 201h-240zM337 406l-106 -148h204l17 148q17 147 28 209h-2q-42 -70 -141 -209z" />
<glyph unicode="&#x1fd;" horiz-adv-x="750" d="M578 743l1 -13q-79 -89 -193 -156l-21 13q104 104 148 170zM46 139q0 90 38.5 173t115 138.5t172.5 55.5q68 0 135 -27q48 27 97 27q55 0 87.5 -29t32.5 -80q0 -71 -73.5 -121t-232.5 -58q-3 -21 -3 -41q0 -60 27.5 -96.5t76.5 -36.5q72 0 146 81l19 -27 q-34 -51 -85 -79.5t-104 -28.5q-70 0 -113 47.5t-43 134.5v11q-40 -81 -90.5 -137t-104.5 -56q-44 0 -71 38t-27 111zM591 456q-55 0 -101 -62t-65 -143q122 10 175 52t53 92q0 28 -16.5 44.5t-45.5 16.5zM122 151q0 -98 53 -98q47 0 99.5 77.5t91.5 176.5q30 73 79 124 q-46 24 -94 24q-64 0 -118 -47t-82.5 -116.5t-28.5 -140.5z" />
<glyph unicode="&#x1fe;" horiz-adv-x="693" d="M609 865l-6 -13q-115 -60 -257 -75l-3 23q147 57 227 110zM645 445q0 -111 -44 -215t-126.5 -172t-182.5 -68q-121 0 -172 95l-96 -88l-28 29l107 99q-16 47 -16 111q0 112 45 217t128 174t181 69q120 0 172 -99l101 93l30 -28l-114 -106q15 -48 15 -111zM166 242 q0 -32 4 -55l383 354q-32 95 -124 95q-76 0 -138 -62t-93.5 -151.5t-31.5 -180.5zM566 443q0 28 -3 52l-382 -354q33 -90 126 -90q77 0 138 61.5t91 150t30 180.5z" />
<glyph unicode="&#x1ff;" horiz-adv-x="512" d="M444 743l2 -13q-80 -90 -194 -156l-21 13q103 104 149 170zM461 332q0 -82 -32.5 -160t-94.5 -130t-137 -52q-89 0 -124 71l-76 -66l-25 30l87 76q-7 31 -7 63q0 83 33 161t95 129.5t136 51.5q89 0 125 -72l78 68l26 -30l-90 -78q6 -29 6 -62zM129 163v-2l252 220 q-15 74 -79 74q-52 0 -93 -47.5t-60.5 -113.5t-19.5 -131zM212 41q51 0 92 48t61 113.5t20 130.5l-252 -219q16 -73 79 -73z" />
<glyph unicode="&#x218;" horiz-adv-x="508" d="M438 197q0 -90 -73.5 -148.5t-188.5 -58.5q-102 0 -167 36l23 68q64 -42 157 -42q74 0 122 38.5t48 96.5q0 25 -9.5 45.5t-27.5 36.5t-34.5 27t-40.5 25q-6 3 -9 5q-28 16 -45.5 28t-37.5 32t-30 45.5t-10 57.5q0 88 74.5 147.5t188.5 59.5q94 0 149 -31l-26 -69 q-54 38 -136 38q-74 0 -122 -37.5t-48 -93.5q0 -13 3.5 -25t7 -20.5t13.5 -19t15 -16t20 -16t20 -13.5t24 -14.5t23 -13.5q25 -15 42 -28t36 -33.5t29 -47.5t10 -59zM94 -310q43 55 61 94q-17 0 -26.5 12t-7.5 30q2 24 20.5 45t44.5 21q20 0 30 -12.5t8 -34.5 q-5 -72 -107 -174z" />
<glyph unicode="&#x219;" horiz-adv-x="430" d="M393 480l-22 -62q-54 34 -110 34q-48 0 -78 -24t-30 -61q0 -27 20.5 -48t50 -35.5t58.5 -31t49.5 -44t20.5 -64.5q0 -66 -57 -110t-141 -44q-82 0 -136 34l22 61q56 -41 128 -41q47 0 78.5 25t31.5 62q0 27 -20.5 47.5t-50 34.5t-59 30t-50 43.5t-20.5 64.5 q0 68 58.5 111.5t140.5 43.5q64 0 116 -26zM68 -310q43 55 61 94q-17 0 -26.5 12t-7.5 30q2 24 20.5 45t44.5 21q20 0 30 -12.5t8 -34.5q-5 -72 -107 -174z" />
<glyph unicode="&#x21a;" horiz-adv-x="511" d="M240 0h-75l134 628q-105 -2 -211 -6l18 64h484l-9 -64q-103 4 -207 6zM91 -310q43 56 60 94q-17 0 -26.5 12t-7.5 30q2 25 20.5 45.5t45.5 20.5q19 0 29.5 -12.5t8.5 -34.5q-6 -75 -108 -174z" />
<glyph unicode="&#x21b;" horiz-adv-x="352" d="M350 450l-139 1q-9 -42 -18 -85t-14.5 -69t-11.5 -53t-9 -42t-6 -30.5t-4.5 -23t-2.5 -16t-1.5 -13.5t-0.5 -10q0 -62 60 -62q40 0 85 25l-2 -51q-55 -31 -116 -31q-102 0 -102 100q0 30 45 240q5 24 8 38t8 38t10 46h-73l7 34l76 10l43 117l49 5l7 -9l-27 -113h135l5 -8 zM47 -310q43 56 60 94q-17 0 -26 12t-7 30q2 25 20 45.5t45 20.5q19 0 29.5 -12.5t8.5 -34.5q-5 -72 -107 -174z" />
<glyph unicode="&#x232;" horiz-adv-x="539" d="M263 815l11 52h264l-11 -52h-264zM232 247l-118 442l80 7l62 -246l10.5 -45.5t12.5 -58.5t6 -47h2q17 33 96 152l164 245l59 -6l5 -8l-305 -438l-52 -244h-75z" />
<glyph unicode="&#x233;" horiz-adv-x="427" d="M140 639l10 49h272l-10 -49h-272zM399 506q34 0 34 -27q0 -59 -58.5 -182t-139.5 -245.5t-177 -215t-162 -92.5q-23 0 -36.5 11.5t-13.5 31.5q0 18 11 33q21 -4 46 -4q59 0 123.5 55t113.5 129h-22q-1 274 -53 496l75 10q50 -203 44 -434h1q164 251 183 429q15 5 31 5z " />
<glyph unicode="&#x237;" horiz-adv-x="234" d="M-61 -256l-25 30q88 68 115 198l83 387l8 137l81 10q0 -18 -1.5 -37.5t-6 -47.5t-8.5 -52t-13.5 -70t-17 -81.5l-22.5 -106.5t-27 -126q-19 -86 -56.5 -142.5t-109.5 -98.5z" />
<glyph unicode="&#x259;" horiz-adv-x="453" d="M78 403l5 58q69 45 154 45q76 0 120 -47t44 -133q0 -124 -82.5 -230t-186.5 -106q-51 0 -83.5 28.5t-32.5 77.5q0 72 73 123.5t233 59.5q3 21 3 41q0 60 -27.5 96t-80.5 36q-61 0 -139 -49zM87 101q0 -28 16.5 -44.5t45.5 -16.5q55 0 101 61.5t66 143.5 q-123 -10 -176 -51.5t-53 -92.5z" />
<glyph unicode="&#x272;" horiz-adv-x="579" d="M6 -214l-25 30q69 88 93 198l73 345l8 137l82 10q0 -61 -19 -151h2q37 74 90.5 112.5t108.5 38.5q57 0 80.5 -41.5t8.5 -114.5l-42 -199q-13 -59 -13 -151h-73q0 80 42 287q18 80 10 118.5t-51 38.5q-68 0 -122.5 -83t-79.5 -210q-3 -16 -12 -57t-14 -66 q-31 -157 -147 -242z" />
<glyph unicode="&#x2c6;" horiz-adv-x="374" d="M141 573l-19 18q81 84 137 156l61 6q36 -88 78 -162l-27 -18q-47 51 -94 118q-79 -74 -136 -118z" />
<glyph unicode="&#x2c7;" horiz-adv-x="374" d="M412 766l20 -18q-83 -86 -137 -156l-62 -6q-34 87 -78 162l27 18q44 -48 95 -118q66 63 135 118z" />
<glyph unicode="&#x2d8;" horiz-adv-x="354" d="M376 738h33q-23 -64 -66.5 -102t-94.5 -38q-50 0 -76 36.5t-20 99.5l35 4q2 -38 22.5 -59.5t55.5 -21.5q33 0 63 22.5t48 58.5z" />
<glyph unicode="&#x2d9;" horiz-adv-x="202" d="M244 683q0 -30 -21.5 -53.5t-49.5 -23.5q-18 0 -28.5 11.5t-10.5 28.5q0 28 22.5 52t48.5 24q18 0 28.5 -10.5t10.5 -28.5z" />
<glyph unicode="&#x2da;" horiz-adv-x="277" d="M319 686q0 -40 -35 -72t-79 -32q-31 0 -51 17t-20 44q0 39 36.5 71t80.5 32q31 0 49.5 -17t18.5 -43zM178 651q0 -17 10 -26.5t27 -9.5q24 0 42 19.5t18 43.5q0 34 -35 34q-24 0 -43 -19t-19 -42z" />
<glyph unicode="&#x2db;" horiz-adv-x="365" d="M224 0q-139 -69 -139 -140q0 -35 43 -35q24 0 59 12l5 -30q-43 -32 -97 -32q-38 0 -59.5 16.5t-21.5 46.5q0 47 47 93t132 81z" />
<glyph unicode="&#x2dc;" horiz-adv-x="408" d="M239 722q28 0 66 -28t59 -28q33 0 71 54l23 -4q-14 -44 -44.5 -77.5t-67.5 -33.5q-28 0 -67.5 28.5t-59.5 28.5q-31 0 -71 -54l-22 4q15 43 45 76.5t68 33.5z" />
<glyph unicode="&#x2dd;" horiz-adv-x="382" d="M322 748l2 -14q-75 -88 -182 -157l-21 12q94 91 148 170zM455 748l2 -14q-82 -94 -183 -157l-21 12q97 93 149 170z" />
<glyph unicode="&#x394;" horiz-adv-x="598" d="M356 690h76l93 -670l-6 -20h-544l2 20zM65 57h376l-75 533z" />
<glyph unicode="&#x3a9;" horiz-adv-x="751" d="M257 0h-254l3 57l10 8l203 -26q-48 39 -77 110.5t-29 155.5q0 164 102.5 277.5t246.5 113.5q106 0 167.5 -66t61.5 -172q0 -118 -71.5 -237t-174.5 -182l212 26l6 -8l-22 -57h-253v36q97 73 159.5 186.5t62.5 221.5q0 87 -43 139.5t-118 52.5q-108 0 -184 -100.5 t-76 -247.5q0 -76 22 -142.5t60 -109.5z" />
<glyph unicode="&#x3bc;" horiz-adv-x="526" d="M329 0q0 59 13 134q-34 -71 -84 -107.5t-101 -36.5q-40 0 -65 27q1 -48 -8 -136t-9 -123l-73 -2q0 91 61 374l49 229l8 137l81 10q0 -43 -6.5 -89t-21 -116t-18.5 -92q-17 -74 -10.5 -115t49.5 -41q56 0 102.5 61t73.5 161q23 111 29 170l3 51l75 10q-1 -35 -6.5 -77 t-11.5 -72.5t-18.5 -89.5t-18.5 -92q-20 -105 -20 -175h-73z" />
<glyph unicode="&#x3c0;" horiz-adv-x="624" d="M65 447l24 54l566 5l4 -8l-21 -45l-103 -1q-63 -261 -71 -362q-1 -19 3.5 -28t21.5 -9t43 7l-16 -60q-32 -10 -62 -10q-70 0 -67 78q3 61 73 383l-203 -2q-5 -23 -21 -93t-22.5 -102.5t-17 -86.5t-14.5 -93.5t-4 -73.5h-72q0 100 61 380l15 69z" />
<glyph unicode="&#x1e0c;" horiz-adv-x="697" d="M648 432q0 -82 -29.5 -159.5t-82.5 -138t-133.5 -97.5t-174.5 -37h-161l113 532q21 100 25 154h176q128 0 197.5 -63.5t69.5 -190.5zM359 628h-83l-121 -570h88q77 0 140.5 32t103 84.5t61 117t21.5 132.5q0 107 -53 155.5t-157 48.5zM316 -142q0 -30 -21.5 -53.5 t-49.5 -23.5q-18 0 -28.5 11.5t-10.5 28.5q0 28 22.5 51.5t48.5 23.5q39 0 39 -38z" />
<glyph unicode="&#x1e0d;" horiz-adv-x="526" d="M402 0h-73q0 72 27 215q-39 -95 -93.5 -160t-119.5 -65q-44 0 -70.5 36.5t-26.5 108.5q0 90 39 174.5t112.5 140.5t162.5 56q31 0 56 -5l23 108l8 137l82 10q0 -94 -63.5 -373t-63.5 -383zM122 151q0 -98 54 -98q39 0 85.5 60t80 133.5t48.5 132.5v1l14 62q-36 13 -67 13 q-83 0 -149 -97.5t-66 -206.5zM238 -142q0 -30 -21.5 -53.5t-49.5 -23.5q-18 0 -28.5 11.5t-10.5 28.5q0 29 22 52t49 23q39 0 39 -38z" />
<glyph unicode="&#x1e24;" horiz-adv-x="718" d="M142 0h-75l112 530q21 98 26 156l77 10l7 -8l-68 -318h335l34 160q19 87 26 156l77 10l6 -8l-146 -688h-75l66 312h-335zM327 -142q0 -30 -21.5 -53.5t-48.5 -23.5q-18 0 -28.5 11.5t-10.5 28.5q0 29 22 52t49 23q18 0 28 -10.5t10 -27.5z" />
<glyph unicode="&#x1e25;" horiz-adv-x="550" d="M134 0h-73q0 96 61 380l49 229l8 137l82 10q0 -48 -12.5 -125t-22 -120.5t-35.5 -155.5h2q36 74 89.5 112.5t107.5 38.5q46 0 70.5 -25.5t24.5 -72.5q0 -25 -5 -52t-33 -154q-23 -111 -23 -202h-73q0 82 34 242q24 109 24 141q0 61 -56 61q-60 0 -110 -63t-78 -164.5 t-31 -216.5zM279 -142q0 -30 -21.5 -53.5t-48.5 -23.5q-19 0 -29 11.5t-10 28.5q0 28 22 51.5t48 23.5q39 0 39 -38z" />
<glyph unicode="&#x1e44;" horiz-adv-x="729" d="M540 864q0 -28 -21.5 -49t-49.5 -21q-20 0 -31 10.5t-11 27.5q0 26 22 47t50 21q19 0 30 -10t11 -26zM406 397q6 -16 26 -65t27 -66.5t20 -53t21 -62.5t15 -57h2q13 87 83 424q21 97 29 169l74 10l7 -9l-146 -687h-76q-23 56 -63 155.5t-57 141.5q-87 217 -108 294h-1 q-14 -99 -45 -241l-74 -350h-73l113 532q19 86 25 154l81 9q12 -29 54.5 -136t65.5 -162z" />
<glyph unicode="&#x1e45;" horiz-adv-x="550" d="M407 685q0 -30 -21.5 -53.5t-48.5 -23.5q-18 0 -28.5 11.5t-10.5 28.5q0 29 22 52t49 23q18 0 28 -10.5t10 -27.5zM134 0h-73q0 51 9 115t18 105.5t30 138.5l8 137l82 10q0 -64 -20 -151h3q36 74 90 112.5t109 38.5q45 0 70 -25.5t25 -69.5q0 -39 -33 -189 q-28 -128 -28 -222h-73q0 71 32 236q22 112 22 143q0 65 -54 65q-85 0 -149 -132.5t-68 -311.5z" />
<glyph unicode="&#x1e5a;" horiz-adv-x="589" d="M142 0h-75l113 532q20 89 25 154h162q98 0 152.5 -43t54.5 -119q0 -82 -51 -144t-138 -87l124 -293l-82 -10q-59 145 -113 283h-114zM351 630h-74l-65 -302h71q96 0 153.5 50.5t57.5 135.5q0 116 -143 116zM274 -142q0 -30 -21.5 -53.5t-48.5 -23.5q-18 0 -28.5 11.5 t-10.5 28.5q0 29 22 52t49 23q18 0 28 -10.5t10 -27.5z" />
<glyph unicode="&#x1e5b;" horiz-adv-x="382" d="M134 0h-73q0 96 37 267l20 92l8 137l82 10q0 -66 -25 -180h2q35 93 81 136.5t96 43.5q39 0 64 -23l-39 -65q-25 13 -51 13q-54 0 -101 -65.5t-73 -164t-28 -201.5zM122 -142q0 -30 -21.5 -53.5t-48.5 -23.5q-18 0 -28.5 11.5t-10.5 28.5q0 29 22 52t49 23q18 0 28 -10.5 t10 -27.5z" />
<glyph unicode="&#x1e62;" horiz-adv-x="508" d="M438 197q0 -90 -73.5 -148.5t-188.5 -58.5q-102 0 -167 36l23 68q64 -42 157 -42q74 0 122 38.5t48 96.5q0 25 -9.5 45.5t-27.5 36.5t-34.5 27t-40.5 25q-6 3 -9 5q-28 16 -45.5 28t-37.5 32t-30 45.5t-10 57.5q0 88 74.5 147.5t188.5 59.5q94 0 149 -31l-26 -69 q-54 38 -136 38q-74 0 -122 -37.5t-48 -93.5q0 -13 3.5 -25t7 -20.5t13.5 -19t15 -16t20 -16t20 -13.5t24 -14.5t23 -13.5q25 -15 42 -28t36 -33.5t29 -47.5t10 -59zM227 -142q0 -30 -21.5 -53.5t-48.5 -23.5q-19 0 -29 11.5t-10 28.5q0 28 22 51.5t48 23.5q39 0 39 -38z " />
<glyph unicode="&#x1e63;" horiz-adv-x="430" d="M393 480l-22 -62q-54 34 -110 34q-48 0 -78 -24t-30 -61q0 -27 20.5 -48t50 -35.5t58.5 -31t49.5 -44t20.5 -64.5q0 -66 -57 -110t-141 -44q-82 0 -136 34l22 61q56 -41 128 -41q47 0 78.5 25t31.5 62q0 27 -20.5 47.5t-50 34.5t-59 30t-50 43.5t-20.5 64.5 q0 68 58.5 111.5t140.5 43.5q64 0 116 -26zM201 -142q0 -30 -21.5 -53.5t-48.5 -23.5q-19 0 -29.5 11.5t-10.5 28.5q0 28 22.5 51.5t48.5 23.5q39 0 39 -38z" />
<glyph unicode="&#x1e6c;" horiz-adv-x="511" d="M240 0h-75l134 628q-105 -2 -211 -6l18 64h484l-9 -64q-103 4 -207 6zM223 -142q0 -30 -21 -53.5t-49 -23.5q-18 0 -28.5 11.5t-10.5 28.5q0 29 22 52t49 23q18 0 28 -10.5t10 -27.5z" />
<glyph unicode="&#x1e6d;" horiz-adv-x="352" d="M350 450l-139 1q-9 -42 -18 -85t-14.5 -69t-11.5 -53t-9 -42t-6 -30.5t-4.5 -23t-2.5 -16t-1.5 -13.5t-0.5 -10q0 -62 60 -62q40 0 85 25l-2 -51q-55 -31 -116 -31q-102 0 -102 100q0 30 45 240q5 24 8 38t8 38t10 46h-73l7 34l76 10l43 117l49 5l7 -9l-27 -113h135l5 -8 zM179 -142q0 -30 -21 -53.5t-49 -23.5q-18 0 -28.5 11.5t-10.5 28.5q0 29 22 52t49 23q38 0 38 -38z" />
<glyph unicode="&#x1e80;" horiz-adv-x="958" d="M711 777q-135 16 -224 75l-1 13l57 45q70 -60 181 -110zM180 -4l-66 692l78 8l36 -408q13 -126 9 -207q21 54 106 222l200 388l72 5l36 -408q13 -130 11 -207q23 63 104 220l202 395l57 -6l5 -8l-356 -686h-67l-44 429q-8 103 -9 167h-2q-23 -53 -81 -167l-224 -429h-67z " />
<glyph unicode="&#x1e81;" horiz-adv-x="667" d="M448 577q-87 67 -127 155l7 13l70 14q21 -77 77 -170zM639 506q35 0 35 -27q0 -69 -66 -214t-156 -265h-79q7 206 -5 395h-1q-23 -91 -74.5 -197.5t-116.5 -197.5h-78q3 279 -33 496l76 8q32 -194 24 -436h1q146 235 167 428h85q32 -195 22 -428h2q66 107 111 222t55 211 q16 5 31 5z" />
<glyph unicode="&#x1e82;" horiz-adv-x="958" d="M738 865l-6 -13q-115 -60 -257 -75l-3 23q146 57 228 110zM180 -4l-66 692l78 8l36 -408q13 -126 9 -207q21 54 106 222l200 388l72 5l36 -408q13 -130 11 -207q23 63 104 220l202 395l57 -6l5 -8l-356 -686h-67l-44 429q-8 103 -9 167h-2q-23 -53 -81 -167l-224 -429 h-67z" />
<glyph unicode="&#x1e83;" horiz-adv-x="667" d="M503 743l2 -13q-78 -88 -194 -156l-21 13q104 104 148 170zM639 506q35 0 35 -27q0 -69 -66 -214t-156 -265h-79q7 206 -5 395h-1q-23 -91 -74.5 -197.5t-116.5 -197.5h-78q3 279 -33 496l76 8q32 -194 24 -436h1q146 235 167 428h85q32 -195 22 -428h2q66 107 111 222 t55 211q16 5 31 5z" />
<glyph unicode="&#x1e84;" horiz-adv-x="958" d="M758 857q0 -26 -20.5 -47t-45.5 -21q-18 0 -28.5 10t-10.5 26q0 25 21 45.5t47 20.5q17 0 27 -9.5t10 -24.5zM556 857q0 -26 -20.5 -47t-45.5 -21q-18 0 -28.5 10t-10.5 26q0 25 21.5 45.5t46.5 20.5q17 0 27 -9.5t10 -24.5zM180 -4l-66 692l78 8l36 -408q13 -126 9 -207 q21 54 106 222l200 388l72 5l36 -408q13 -130 11 -207q23 63 104 220l202 395l57 -6l5 -8l-356 -686h-67l-44 429q-8 103 -9 167h-2q-23 -53 -81 -167l-224 -429h-67z" />
<glyph unicode="&#x1e85;" horiz-adv-x="667" d="M350 684q0 -29 -20.5 -52.5t-46.5 -23.5q-17 0 -26.5 10.5t-9.5 27.5q0 28 21.5 51t46.5 23q35 0 35 -36zM550 684q0 -29 -20.5 -52.5t-46.5 -23.5q-17 0 -26.5 10.5t-9.5 27.5q0 28 21.5 51t46.5 23q35 0 35 -36zM639 506q35 0 35 -27q0 -69 -66 -214t-156 -265h-79 q7 206 -5 395h-1q-23 -91 -74.5 -197.5t-116.5 -197.5h-78q3 279 -33 496l76 8q32 -194 24 -436h1q146 235 167 428h85q32 -195 22 -428h2q66 107 111 222t55 211q16 5 31 5z" />
<glyph unicode="&#x1e92;" horiz-adv-x="514" d="M-15 0l-2 47l492 577l-359 -4l19 66h424l8 -47l-491 -577l373 5l-18 -67h-446zM219 -142q0 -30 -21.5 -53.5t-48.5 -23.5q-18 0 -28.5 11.5t-10.5 28.5q0 29 22 52t49 23q18 0 28 -10.5t10 -27.5z" />
<glyph unicode="&#x1e93;" horiz-adv-x="416" d="M10 -10l-27 37q244 267 332 388q-76 31 -138 31q-65 0 -105 -58l-27 14q25 60 56.5 82t77.5 22q71 0 166 -49q15 22 32 49q37 0 37 -26q0 -33 -96.5 -154t-233.5 -260q10 3 25 3q22 0 69 -9t65 -9q58 0 103 62l29 -14q-28 -63 -60 -86t-81 -23q-34 0 -91 11.5t-79 11.5 q-30 0 -54 -23zM166 -142q0 -30 -21.5 -53.5t-48.5 -23.5q-18 0 -28.5 11.5t-10.5 28.5q0 29 22 52t49 23q18 0 28 -10.5t10 -27.5z" />
<glyph unicode="&#x1e9e;" horiz-adv-x="633" d="M67 103l77 359q24 112 102 173t182 61q69 0 116.5 -29t62.5 -82l-211 -198q79 -36 122 -80.5t43 -116.5q0 -84 -63 -142t-166 -58q-75 0 -126 26l15 68q48 -32 115 -32q70 0 108 37t38 94t-41.5 95t-129.5 74l5 27l203 197q-26 59 -101 59q-74 0 -128 -47.5t-71 -127.5 l-79 -373q-15 -66 -41 -97l-68 10q24 47 36 103z" />
<glyph unicode="&#x1ea0;" horiz-adv-x="613" d="M44 0h-72l331 589q29 52 55 103l74 4l9 -10l94 -686h-77l-28 201h-273zM273 406l-83 -148h232l-21 148q-17 145 -17 209h-2q-28 -62 -109 -209zM284 -142q0 -30 -21 -53.5t-49 -23.5q-18 0 -28.5 11.5t-10.5 28.5q0 29 22 52t49 23q38 0 38 -38z" />
<glyph unicode="&#x1ea1;" horiz-adv-x="523" d="M46 135q0 90 39 174.5t113 140.5t164 56q68 0 126 -22l-42 -174q-46 -204 -46 -310h-73q0 91 25 210q-42 -90 -96 -155t-113 -65q-44 0 -70.5 36.5t-26.5 108.5zM122 151q0 -98 54 -98q38 0 84 60t79 132.5t50 132.5q5 20 15 64q-35 13 -67 13q-83 0 -149 -97.5 t-66 -206.5zM255 -142q0 -30 -21.5 -53.5t-48.5 -23.5q-18 0 -28.5 11.5t-10.5 28.5q0 29 22 52t49 23q18 0 28 -10.5t10 -27.5z" />
<glyph unicode="&#x1eb8;" horiz-adv-x="543" d="M457 63l-13 -63h-377l113 532q20 89 25 154h367l7 -8l-12 -54l-291 5l-55 -261l248 2l-14 -59l-246 3l-55 -257zM278 -142q0 -30 -21.5 -53.5t-48.5 -23.5q-18 0 -28.5 11.5t-10.5 28.5q0 29 22 52t49 23q18 0 28 -10.5t10 -27.5z" />
<glyph unicode="&#x1eb9;" horiz-adv-x="463" d="M379 125l18 -27q-33 -51 -84 -79.5t-105 -28.5q-70 0 -113 47.5t-43 134.5q0 123 80 228.5t186 105.5q54 0 86.5 -28t32.5 -78q0 -73 -74 -124t-231 -58q-3 -21 -3 -41q0 -60 27 -96.5t76 -36.5q73 0 147 81zM305 456q-55 0 -101.5 -62t-65.5 -143q122 10 175 52t53 92 q0 28 -16.5 44.5t-44.5 16.5zM222 -142q0 -30 -21.5 -53.5t-48.5 -23.5q-18 0 -28.5 11.5t-10.5 28.5q0 29 22 52t49 23q18 0 28 -10.5t10 -27.5z" />
<glyph unicode="&#x1ebc;" horiz-adv-x="543" d="M370 902q30 0 69.5 -28t62.5 -28q36 0 79 54l21 -4q-13 -43 -44.5 -74.5t-71.5 -31.5q-30 0 -71.5 28t-63.5 28q-37 0 -78 -53l-21 4q13 41 44.5 73t73.5 32zM457 63l-13 -63h-377l113 532q20 89 25 154h367l7 -8l-12 -54l-291 5l-55 -261l248 2l-14 -59l-246 3l-55 -257 z" />
<glyph unicode="&#x1ebd;" horiz-adv-x="463" d="M266 722q28 0 66 -28t58 -28q32 0 72 54l23 -4q-15 -44 -45.5 -77.5t-66.5 -33.5q-28 0 -67.5 28.5t-59.5 28.5q-31 0 -71 -54l-23 4q15 43 45.5 76.5t68.5 33.5zM379 125l18 -27q-33 -51 -84 -79.5t-105 -28.5q-70 0 -113 47.5t-43 134.5q0 123 80 228.5t186 105.5 q54 0 86.5 -28t32.5 -78q0 -73 -74 -124t-231 -58q-3 -21 -3 -41q0 -60 27 -96.5t76 -36.5q73 0 147 81zM305 456q-55 0 -101.5 -62t-65.5 -143q122 10 175 52t53 92q0 28 -16.5 44.5t-44.5 16.5z" />
<glyph unicode="&#x1eca;" horiz-adv-x="308" d="M142 0h-75l112 530q20 87 26 156l77 10l7 -8zM121 -142q0 -30 -21 -53.5t-49 -23.5q-18 0 -28.5 11.5t-10.5 28.5q0 29 22 52t49 23q18 0 28 -10.5t10 -27.5z" />
<glyph unicode="&#x1ecb;" horiz-adv-x="255" d="M252 685q0 -30 -21.5 -53.5t-48.5 -23.5q-18 0 -28.5 11.5t-10.5 28.5q0 29 22 52t49 23q18 0 28 -10.5t10 -27.5zM134 0h-73q0 96 37 267l20 92l8 137l82 10q0 -70 -37 -246.5t-37 -259.5zM128 -142q0 -30 -21.5 -53.5t-48.5 -23.5q-18 0 -28.5 11.5t-10.5 28.5 q0 29 22 52t49 23q18 0 28 -10.5t10 -27.5z" />
<glyph unicode="&#x1ecc;" horiz-adv-x="693" d="M645 445q0 -111 -44 -215t-126.5 -172t-182.5 -68q-96 0 -150.5 63.5t-54.5 182.5q0 112 45 217t128 174t181 69q96 0 150 -65.5t54 -185.5zM166 242q0 -91 36 -141t105 -50q77 0 138 61.5t91 150t30 180.5t-34.5 142.5t-102.5 50.5q-76 0 -138 -62t-93.5 -151.5 t-31.5 -180.5zM315 -142q0 -30 -21.5 -53.5t-48.5 -23.5q-19 0 -29.5 11.5t-10.5 28.5q0 28 22.5 51.5t48.5 23.5q39 0 39 -38z" />
<glyph unicode="&#x1ecd;" horiz-adv-x="512" d="M461 332q0 -82 -32.5 -160t-94.5 -130t-137 -52q-68 0 -106.5 44t-38.5 130q0 83 33 161t95 129.5t136 51.5q69 0 107 -44.5t38 -129.5zM129 163q0 -122 83 -122q51 0 92 48t61 113.5t20 130.5q0 122 -83 122q-52 0 -93 -47.5t-60.5 -113.5t-19.5 -131zM232 -142 q0 -30 -21.5 -53.5t-48.5 -23.5q-19 0 -29 11.5t-10 28.5q0 28 22 51.5t48 23.5q39 0 39 -38z" />
<glyph unicode="&#x1ee4;" horiz-adv-x="652" d="M82 160q0 43 44.5 242.5t50.5 285.5l83 8l4 -5q-102 -476 -104 -494q-1 -9 -1 -19q0 -61 36 -93t96 -32q72 0 127 45t72 128q78 367 84 415q2 20 4 47l85 8l-100 -471q-25 -113 -105.5 -174t-185.5 -61q-86 0 -138 44.5t-52 125.5zM299 -142q0 -30 -21.5 -53.5 t-49.5 -23.5q-18 0 -28.5 11.5t-10.5 28.5q0 28 22.5 51.5t48.5 23.5q39 0 39 -38z" />
<glyph unicode="&#x1ee5;" horiz-adv-x="526" d="M67 146l44 213l8 137l82 10q0 -43 -6.5 -89t-21 -116t-18.5 -92q-17 -74 -10.5 -115t49.5 -41q56 0 102.5 61t73.5 161q23 111 29 170l3 51l75 10q-1 -35 -6.5 -77t-11.5 -72.5t-18.5 -89.5t-18.5 -92q-20 -105 -20 -175h-73q0 59 13 134q-34 -71 -84 -107.5t-101 -36.5 q-57 0 -81 42t-9 114zM273 -142q0 -30 -21 -53.5t-49 -23.5q-18 0 -28.5 11.5t-10.5 28.5q0 29 22 52t49 23q18 0 28 -10.5t10 -27.5z" />
<glyph unicode="&#x1ef2;" horiz-adv-x="539" d="M507 777q-135 16 -225 75v13l57 45q67 -59 181 -110zM232 247l-118 442l80 7l62 -246l10.5 -45.5t12.5 -58.5t6 -47h2q17 33 96 152l164 245l59 -6l5 -8l-305 -438l-52 -244h-75z" />
<glyph unicode="&#x1ef3;" horiz-adv-x="427" d="M332 577q-88 66 -128 155l8 13l70 14q18 -71 76 -170zM399 506q34 0 34 -27q0 -59 -58.5 -182t-139.5 -245.5t-177 -215t-162 -92.5q-23 0 -36.5 11.5t-13.5 31.5q0 18 11 33q21 -4 46 -4q59 0 123.5 55t113.5 129h-22q-1 274 -53 496l75 10q50 -203 44 -434h1 q164 251 183 429q15 5 31 5z" />
<glyph unicode="&#x1ef8;" horiz-adv-x="539" d="M345 902q30 0 69.5 -28t62.5 -28q37 0 78 54l22 -4q-13 -43 -45 -74.5t-72 -31.5q-30 0 -71 28t-63 28q-39 0 -78 -53l-22 4q13 41 44.5 73t74.5 32zM232 247l-118 442l80 7l62 -246l10.5 -45.5t12.5 -58.5t6 -47h2q17 33 96 152l164 245l59 -6l5 -8l-305 -438l-52 -244 h-75z" />
<glyph unicode="&#x1ef9;" horiz-adv-x="427" d="M227 722q28 0 66.5 -28t58.5 -28q33 0 71 54l23 -4q-14 -44 -44.5 -77.5t-67.5 -33.5q-28 0 -67.5 28.5t-58.5 28.5q-32 0 -72 -54l-22 4q15 43 45 76.5t68 33.5zM399 506q34 0 34 -27q0 -59 -58.5 -182t-139.5 -245.5t-177 -215t-162 -92.5q-23 0 -36.5 11.5t-13.5 31.5 q0 18 11 33q21 -4 46 -4q59 0 123.5 55t113.5 129h-22q-1 274 -53 496l75 10q50 -203 44 -434h1q164 251 183 429q15 5 31 5z" />
<glyph unicode="&#x2007;" />
<glyph unicode="&#x2013;" horiz-adv-x="517" d="M39 272l4 39h454l-5 -39h-453z" />
<glyph unicode="&#x2014;" horiz-adv-x="791" d="M36 272l7 39h732l-8 -39h-731z" />
<glyph unicode="&#x2018;" horiz-adv-x="228" d="M287 741q-65 -88 -92 -161q17 -1 27.5 -12.5t10.5 -28.5q0 -29 -23 -52t-51 -23q-42 0 -42 44q0 45 47.5 121.5t100.5 130.5z" />
<glyph unicode="&#x2019;" horiz-adv-x="228" d="M96 481q66 92 92 161q-17 2 -27.5 13t-10.5 28q0 29 23 52t51 23q42 0 42 -44q0 -45 -47.5 -121.5t-100.5 -130.5z" />
<glyph unicode="&#x201a;" horiz-adv-x="228" d="M-42 -170q64 86 91 160q-17 1 -27 13t-10 29q0 28 23 51t51 23q41 0 41 -43q0 -45 -47.5 -121.5t-100.5 -130.5z" />
<glyph unicode="&#x201c;" horiz-adv-x="412" d="M287 741q-65 -88 -92 -161q17 -1 27.5 -12.5t10.5 -28.5q0 -29 -23 -52t-51 -23q-42 0 -42 44q0 45 47.5 121.5t100.5 130.5zM470 741q-63 -85 -91 -161q17 -1 27 -12t10 -29q0 -29 -23 -52t-51 -23q-42 0 -42 44t47.5 121t100.5 131z" />
<glyph unicode="&#x201d;" horiz-adv-x="412" d="M280 482q64 86 91 160q-17 1 -27 13t-10 29q0 28 23 51t51 23q41 0 41 -43q0 -45 -47.5 -121.5t-100.5 -130.5zM96 482q66 89 92 160q-17 1 -27.5 13t-10.5 29q0 28 23 51t51 23q42 0 42 -43q0 -45 -47.5 -121.5t-100.5 -130.5z" />
<glyph unicode="&#x201e;" horiz-adv-x="410" d="M-42 -170q64 86 91 160q-17 1 -27 13t-10 29q0 28 23 51t51 23q41 0 41 -43q0 -45 -47.5 -121.5t-100.5 -130.5zM140 -170q64 86 91 160q-17 1 -27 13t-10 29q0 28 23 51t51 23q41 0 41 -43q0 -45 -47.5 -121.5t-100.5 -130.5z" />
<glyph unicode="&#x2020;" horiz-adv-x="505" d="M218 0l-35 -2l-6 8l18 160l82 298l-168 -9l-2 3q2 28 7 48l9 7l162 -9l25 185l4 3q27 4 62 4l6 -7l-55 -185l168 9l3 -3q0 -16 -6 -48l-11 -7l-163 9l-43 -298l-51 -160z" />
<glyph unicode="&#x2021;" horiz-adv-x="505" d="M167 -5l-7 8l60 187l-168 -14l-7 7q6 33 16 56l4 3l162 -16q10 104 14 124q8 31 38 116l-170 -15l-2 3q0 25 8 57l10 7l162 -16l20 187l4 3q29 4 68 4l6 -7l-58 -187l169 16l3 -3q-2 -22 -8 -56l-10 -8l-162 15q-7 -87 -13 -116q-5 -26 -38 -124l169 16l6 -7 q-6 -33 -16 -56l-3 -3l-164 14l-21 -187l-4 -4q-8 0 -31.5 -1.5t-36.5 -2.5z" />
<glyph unicode="&#x2022;" horiz-adv-x="425" d="M191 166q-40 0 -64 24t-24 61q0 58 47 105t105 47q38 0 60 -22.5t22 -59.5q0 -60 -44.5 -107.5t-101.5 -47.5z" />
<glyph unicode="&#x2026;" horiz-adv-x="622" d="M133 66q0 -28 -23 -52t-51 -24q-20 0 -32 11.5t-12 30.5q0 28 23.5 51t52.5 23q19 0 30.5 -11t11.5 -29zM328 66q0 -28 -23 -52t-51 -24q-20 0 -32 11.5t-12 30.5q0 28 24 51t52 23q19 0 30.5 -11t11.5 -29zM523 66q0 -28 -23 -52t-51 -24q-20 0 -32 11.5t-12 30.5 q0 28 23.5 51t52.5 23q19 0 30.5 -11t11.5 -29z" />
<glyph unicode="&#x2030;" horiz-adv-x="1371" d="M453 555q0 -100 -63 -180.5t-157 -80.5q-59 0 -92.5 36.5t-33.5 105.5q0 100 63.5 180.5t156.5 80.5q60 0 93 -37t33 -105zM748 696l-423 -706h-46l422 706h47zM173 436q0 -99 72 -99q63 0 103 71t40 150q0 97 -73 97q-63 0 -102.5 -70.5t-39.5 -148.5zM878 183 q0 -100 -63 -180.5t-157 -80.5q-59 0 -92 36.5t-33 105.5q0 100 63.5 180.5t156.5 80.5q60 0 92.5 -36.5t32.5 -105.5zM1290 183q0 -100 -63 -180.5t-157 -80.5q-59 0 -92 36.5t-33 105.5q0 100 63.5 180.5t156.5 80.5q60 0 92.5 -36.5t32.5 -105.5zM598 64q0 -99 72 -99 q63 0 103 71t40 150q0 97 -72 97q-64 0 -103.5 -70.5t-39.5 -148.5zM1010 64q0 -99 72 -99q64 0 103.5 71t39.5 150q0 97 -72 97q-63 0 -103 -70.5t-40 -148.5z" />
<glyph unicode="&#x2039;" horiz-adv-x="284" d="M62 282l5 20q90 68 209 194l18 -10q-62 -97 -155 -194q51 -94 73 -193l-22 -11q-75 138 -128 194z" />
<glyph unicode="&#x203a;" horiz-adv-x="284" d="M240 302l-5 -20q-87 -68 -209 -194l-18 11q71 108 156 193q-52 93 -73 194l22 10q72 -133 127 -194z" />
<glyph unicode="&#x2044;" horiz-adv-x="510" d="M625 700l-576 -710h-50l575 710h51z" />
<glyph unicode="&#x2070;" horiz-adv-x="466" d="M530 615q0 -108 -68 -189.5t-161 -81.5q-60 0 -94.5 37.5t-34.5 110.5q0 108 69 191t161 83q60 0 94 -39t34 -112zM234 490q0 -108 76 -108q64 0 111 74t47 163q0 108 -76 108q-64 0 -111 -73.5t-47 -163.5z" />
<glyph unicode="&#x2074;" horiz-adv-x="402" d="M145 498l237 262l66 6l5 -6l-55 -258q34 2 66 6l-18 -50h-57l-23 -106h-57l23 106h-188zM197 502v-1q18 0 59.5 0.5t71.5 0.5h13l24 111q4 19 11.5 51.5t11.5 50.5h-1z" />
<glyph unicode="&#x2075;" horiz-adv-x="377" d="M132 358l15 43q40 -15 90 -15q55 0 93.5 28t38.5 70q0 35 -24.5 53t-63.5 18q-51 0 -84 -14l-9 7l45 210h139q64 0 105 6l-15 -53h-188l-26 -121q30 6 64 6q53 0 87 -26t34 -75q0 -65 -57.5 -108t-143.5 -43q-52 0 -100 14z" />
<glyph unicode="&#x2076;" horiz-adv-x="409" d="M295 344q-60 0 -93.5 33t-33.5 101q0 112 82.5 200t191.5 88q37 0 53 -8l-15 -44q-16 8 -47 8q-61 0 -114 -42.5t-76 -123.5h2q43 33 103 33q54 0 85.5 -26.5t31.5 -72.5q0 -60 -49.5 -103t-120.5 -43zM330 551q-25 0 -53 -11.5t-42 -30.5q-5 -17 -5 -41q0 -84 72 -84 q42 0 71 29.5t29 70.5q0 31 -18.5 49t-53.5 18z" />
<glyph unicode="&#x2077;" horiz-adv-x="351" d="M187 703l19 55h269l6 -7l-7 -33q-91 -78 -160.5 -174.5t-94.5 -191.5h-63q26 92 102 192t156 166v1h-108q-70 0 -119 -8z" />
<glyph unicode="&#x2078;" horiz-adv-x="398" d="M275 344q-62 0 -98.5 24t-36.5 63q0 38 35 71.5t97 54.5v1q-70 42 -70 95q0 48 46.5 80.5t110.5 32.5q54 0 87 -24.5t33 -61.5q0 -35 -31.5 -67.5t-82.5 -52.5v-2q83 -40 83 -102q0 -47 -49.5 -79.5t-123.5 -32.5zM349 729q-36 0 -62 -19.5t-26 -50.5q0 -48 66 -79 q42 17 68 43t26 52q0 24 -20.5 39t-51.5 15zM305 534q-42 -15 -73.5 -41t-31.5 -56q0 -25 22 -41t62 -16q46 0 75 20.5t29 49.5q0 44 -83 84z" />
<glyph unicode="&#x2079;" horiz-adv-x="409" d="M290 510q-52 0 -82 26t-30 72q0 64 49.5 111t119.5 47q58 0 94.5 -37t36.5 -109q0 -111 -80.5 -193.5t-189.5 -82.5q-35 0 -52 5l9 42q26 -4 46 -4q68 0 123 47.5t69 117.5q-43 -42 -113 -42zM343 725q-42 0 -71 -33t-29 -76q0 -32 17.5 -50t51.5 -18q62 0 97 41 q5 28 5 46q0 41 -18.5 65.5t-52.5 24.5zM427 619l-7 -14q3 4 7 14z" />
<glyph unicode="&#x207f;" horiz-adv-x="458" d="M207 568q27 54 72 85.5t92 31.5q40 0 62.5 -22.5t22.5 -61.5q0 -22 -29 -149q-20 -90 -17 -162h-62q-1 68 22 179q18 87 18 111q0 52 -49 52q-71 0 -123 -100.5t-53 -241.5h-62q-1 78 44 280l4 107l69 8q1 -49 -14 -117h3z" />
<glyph unicode="&#x2080;" horiz-adv-x="466" d="M440 191q0 -108 -68 -189.5t-161 -81.5q-60 0 -94.5 37.5t-34.5 110.5q0 108 69 191t161 83q60 0 94 -39t34 -112zM144 66q0 -108 76 -108q64 0 111 74t47 163q0 108 -76 108q-64 0 -111 -73.5t-47 -163.5z" />
<glyph unicode="&#x2081;" horiz-adv-x="245" d="M162 282h-1l-76 -14l-2 35l145 41l5 -6l-87 -408h-60l57 267q6 31 19 85z" />
<glyph unicode="&#x2082;" horiz-adv-x="366" d="M28 -70l3 45q59 35 99 61.5t83 61t64.5 69t21.5 67.5q0 31 -20 48.5t-55 17.5q-62 0 -127 -44l4 47q63 41 146 41q53 0 85.5 -26t32.5 -71q0 -124 -273 -271h119q54 0 105 6l-17 -52h-271z" />
<glyph unicode="&#x2083;" horiz-adv-x="356" d="M114 309q60 33 132 33q47 0 76.5 -20t29.5 -53q0 -41 -40.5 -77t-100.5 -52q54 -2 85 -24t31 -61q0 -56 -57.5 -95.5t-140.5 -39.5q-59 0 -103 14l14 41q44 -14 91 -14q56 0 94 24.5t38 60.5q0 60 -103 60q-27 0 -51 -4l10 41q76 13 121.5 43t45.5 67q0 21 -17 33t-49 12 q-53 0 -111 -30z" />
<glyph unicode="&#x2084;" horiz-adv-x="402" d="M55 76l237 262l66 6l5 -6l-55 -258q34 2 66 6l-18 -50h-57l-23 -106h-57l23 106h-188zM107 80v-1q18 0 59.5 0.5t71.5 0.5h13l24 111q4 19 11.5 51.5t11.5 50.5h-1z" />
<glyph unicode="&#x2085;" horiz-adv-x="377" d="M42 -66l15 43q40 -15 90 -15q55 0 93.5 28t38.5 70q0 35 -24.5 53t-63.5 18q-51 0 -84 -14l-9 7l45 210h139q64 0 105 6l-15 -53h-188l-26 -121q30 6 64 6q53 0 87 -26t34 -75q0 -65 -57.5 -108t-143.5 -43q-52 0 -100 14z" />
<glyph unicode="&#x2086;" horiz-adv-x="409" d="M205 -80q-60 0 -93.5 33t-33.5 101q0 112 82.5 200t191.5 88q37 0 53 -8l-15 -44q-16 8 -47 8q-61 0 -114 -42.5t-76 -123.5h2q43 33 103 33q54 0 85.5 -26.5t31.5 -72.5q0 -60 -49.5 -103t-120.5 -43zM240 127q-25 0 -53 -11.5t-42 -30.5q-5 -18 -5 -41q0 -84 72 -84 q42 0 71 29.5t29 70.5q0 31 -18.5 49t-53.5 18z" />
<glyph unicode="&#x2087;" horiz-adv-x="351" d="M97 281l19 55h269l6 -7l-7 -33q-91 -78 -160.5 -174.5t-94.5 -191.5h-63q26 92 102 192t156 166v1h-108q-70 0 -119 -8z" />
<glyph unicode="&#x2088;" horiz-adv-x="398" d="M185 -80q-62 0 -98.5 24t-36.5 63q0 38 35 71.5t97 54.5v1q-70 42 -70 95q0 48 46.5 80.5t110.5 32.5q54 0 87 -24.5t33 -61.5q0 -35 -31.5 -67.5t-82.5 -52.5v-2q83 -40 83 -102q0 -47 -49.5 -79.5t-123.5 -32.5zM259 305q-36 0 -62 -19.5t-26 -50.5q0 -48 66 -79 q42 17 68 43t26 52q0 24 -20.5 39t-51.5 15zM215 110q-42 -15 -73.5 -41t-31.5 -56q0 -25 22 -41t62 -16q46 0 75 20.5t29 49.5q0 44 -83 84z" />
<glyph unicode="&#x2089;" horiz-adv-x="409" d="M200 86q-52 0 -82 26t-30 72q0 64 49.5 111t119.5 47q58 0 94.5 -37t36.5 -109q0 -111 -80.5 -193.5t-189.5 -82.5q-35 0 -52 5l9 42q26 -4 46 -4q68 0 123 47.5t69 117.5q-43 -42 -113 -42zM253 301q-42 0 -71 -33t-29 -76q0 -32 17.5 -50t51.5 -18q62 0 97 41 q5 28 5 46q0 41 -18.5 65.5t-52.5 24.5zM337 195l-7 -14q3 4 7 14z" />
<glyph unicode="&#x20ac;" horiz-adv-x="605" d="M59 249l12 37h76q6 51 21 99h-66l13 37h66q46 120 135.5 197t192.5 77q89 0 141 -44l-29 -68q-51 48 -125 48q-72 0 -136 -58.5t-101 -151.5h231l-11 -37h-233q-15 -51 -19 -99h219l-11 -37h-210v-5q0 -93 36.5 -141.5t105.5 -48.5q84 0 161 53l-5 -63q-78 -54 -180 -54 q-95 0 -147.5 60t-52.5 177q0 15 1 22h-85z" />
<glyph unicode="&#x2122;" horiz-adv-x="590" d="M584 689l4 -4l-22 -225h-38l9 85q8 76 12 100h-1q-37 -78 -49 -101l-44 -84h-44l-7 84q-6 52 -6 102h-1q-20 -65 -32 -102l-28 -84h-33l75 227l52 2l10 -97q5 -41 2 -95h1q29 67 43 95l51 95zM212 460h-40l42 197q-36 -1 -69 -3l9 32h172l-4 -32q-44 2 -68 3z" />
<glyph unicode="&#x2202;" horiz-adv-x="625" d="M406 756q207 0 207 -272q0 -132 -44.5 -244t-128.5 -181t-190 -69q-86 0 -131 44.5t-45 122.5q0 118 91 203.5t221 85.5q81 0 144 -39q3 31 3 64q0 112 -37.5 169t-107.5 57q-83 0 -153 -50l-18 51q86 58 189 58zM153 170q0 -121 115 -121q96 0 162 84t91 211 q-58 43 -136 43q-102 0 -167 -62t-65 -155z" />
<glyph unicode="&#x220f;" horiz-adv-x="741" d="M826 678l-15 -54h-117l-162 -764h-73l163 764h-241l-162 -764h-73l163 764h-116l11 58l615 4z" />
<glyph unicode="&#x2211;" horiz-adv-x="567" d="M43 -71l329 355l-178 355l25 47h454l7 -8l-15 -54l-393 6l172 -335l-5 -22l-314 -336l397 6l-15 -62h-459z" />
<glyph unicode="&#x2212;" d="M526 322h-450l9 47q172 5 452 5l3 -6z" />
<glyph unicode="&#x221a;" horiz-adv-x="601" d="M733 742l-382 -742h-83l-72 440h-86l12 56h138l64 -437l347 697l57 -6z" />
<glyph unicode="&#x221e;" horiz-adv-x="813" d="M776 382q0 -83 -60.5 -145t-143.5 -62q-61 0 -96 32.5t-59 86.5q-97 -119 -204 -119q-61 0 -97.5 36.5t-36.5 98.5q0 83 58 144t138 61q60 0 97 -33.5t63 -89.5q99 123 207 123q60 0 97 -36t37 -97zM627 467q-88 0 -174 -118q14 -32 23 -49.5t24 -38t34.5 -29.5t45.5 -9 q56 0 98.5 44.5t42.5 103.5q0 44 -26 70t-68 26zM134 323q0 -45 26.5 -72t69.5 -27q86 0 170 111q-13 30 -23 49t-26.5 40.5t-38 32t-48.5 10.5q-56 0 -93 -43t-37 -101z" />
<glyph unicode="&#x222b;" horiz-adv-x="495" d="M121 -256q-63 0 -118 30l22 62q50 -38 103 -38q30 0 51.5 13.5t34 35t19.5 56t9.5 68.5t3.5 82q1 9 5 265q1 57 2 93t4.5 83t9.5 76t16 62.5t25 53t35.5 37.5t49 25.5t63.5 7.5q63 0 118 -30l-22 -62q-51 38 -104 38q-27 0 -47.5 -10t-33.5 -32.5t-21 -46.5t-12.5 -65 t-6 -75t-2.5 -88q-2 -43 -3 -131t-2 -137q-2 -75 -7.5 -127t-18.5 -102t-34.5 -79.5t-56 -47t-82.5 -17.5z" />
<glyph unicode="&#x2248;" d="M453 364q-25 0 -128.5 35t-114.5 35q-16 0 -80 -69q-8 -9 -12 -13l-28 22q88 113 133 113q25 0 128.5 -35t114.5 -35q4 0 8.5 2t11 7t11.5 9t14.5 13t14.5 14.5t17 17.5t17 18l26 -21q-88 -113 -133 -113zM410 164q-26 0 -129 34.5t-115 34.5q-15 0 -79 -68 q-9 -8 -13 -13l-27 22q88 113 133 113q25 0 128 -35t115 -35q4 0 8.5 2t11 7t11.5 9t14 13l14 14t16.5 17t17.5 18l27 -21q-25 -32 -42 -51.5t-44 -40t-47 -20.5z" />
<glyph unicode="&#x2260;" d="M117 123l78 112h-138l9 47q45 1 163 3l96 138h-228l10 47q191 3 253 4l88 127l8 3l34 -20l-76 -110q30 0 79 0.5t65 0.5l4 -6l-15 -46h-168l-96 -137q49 0 130.5 0.5t104.5 0.5l3 -6l-14 -46h-258l-90 -129l-9 -2z" />
<glyph unicode="&#x2264;" d="M174 419l341 -139l-11 -51l-414 172l6 33l7 7q215 77 479 158l-11 -52zM476 79h-450l9 47q172 5 452 5l4 -6z" />
<glyph unicode="&#x2265;" d="M61 228l12 52l403 139l-345 128l10 52q266 -97 413 -158l3 -7l-8 -38zM475 79h-450l10 47q172 5 451 5l4 -6z" />
<glyph unicode="&#x25ca;" horiz-adv-x="600" d="M69 327l6 30l286 333l61 10l149 -343l-7 -31l-287 -326l-60 -10zM380 649l-255 -308l128 -299l6 1l258 299l-130 307h-7z" />
<glyph unicode="&#x25fc;" horiz-adv-x="505" d="M0 505h505v-505h-505v505z" />
<glyph unicode="&#xfb00;" horiz-adv-x="606" d="M241 564q-3 -12 -7.5 -38.5t-5.5 -33.5h198l5.5 33t6 35.5t4.5 22.5q8 37 23 66q-43 33 -98 33q-103 0 -126 -118zM-12 -214l-25 30q69 88 92 198l92 432l-74 3l7 32l77 11q9 61 12 74q19 87 76 128.5t134 41.5q71 0 126 -32q52 52 137 52q64 0 108 -28l-30 -61 q-40 31 -92 31q-89 0 -114 -114q-2 -11 -8.5 -45.5t-8.5 -46.5h133l5 -9l-12 -40l-134 3l-89 -421q-34 -158 -143 -241l-25 30q69 89 92 198l92 434h-196l-89 -418q-34 -159 -143 -242z" />
<glyph unicode="&#xfb01;" horiz-adv-x="529" d="M-12 -214l-25 30q69 88 92 198l92 432l-74 3l7 32l77 11q15 87 16 90q17 82 72.5 128t138.5 46q93 0 149 -51l-47 -51q-50 44 -115 44q-101 0 -126 -115q-10 -45 -17 -91h172l82 14q0 -70 -37 -246.5t-37 -259.5h-73q0 96 37 267l20 92l6 84l-178 3l-89 -418 q-34 -159 -143 -242z" />
<glyph unicode="&#xfb02;" horiz-adv-x="534" d="M245 583q-10 -45 -17 -91h198l25 117l4 67q-37 22 -84 22q-101 0 -126 -115zM-12 -214l-25 30q69 88 92 198l92 432l-74 3l7 32l77 11q15 87 16 90q17 82 72.5 128t138.5 46q40 0 75 -11v1l82 10q0 -94 -63.5 -373t-63.5 -383h-73q0 96 61 380l14 63l-196 3l-89 -418 q-34 -159 -143 -242z" />
<glyph unicode="&#xfb03;" horiz-adv-x="794" d="M241 564q-3 -12 -7.5 -38.5t-5.5 -33.5h193q10 50 16 90q10 43 26 71q-43 29 -95 29q-104 0 -127 -118zM-12 -214l-25 30q69 88 92 198l92 432l-74 3l7 32l77 11q7 50 12 74q20 88 76 129t134 41q70 0 126 -30q56 50 143 50q94 0 150 -51l-47 -51q-50 44 -116 44 q-101 0 -125 -115q-1 -6 -4.5 -23t-7.5 -38t-6 -30h173l82 14q0 -70 -37 -246.5t-37 -259.5h-73q0 96 37 267l20 92l5 84l-178 3l-89 -418q-17 -84 -51.5 -141.5t-91.5 -100.5l-24 30q69 91 92 198l92 432h-192l-89 -418q-34 -159 -143 -242z" />
<glyph unicode="&#xfb04;" horiz-adv-x="803" d="M514 583q-10 -45 -17 -91h198l26 117l4 67q-39 22 -85 22q-101 0 -126 -115zM241 564q-3 -12 -7.5 -38.5t-5.5 -33.5h198q15 87 16 90q7 35 23 67q-42 33 -97 33q-101 0 -127 -118zM-12 -214l-25 30q69 88 92 198l92 432l-74 3l7 32l77 11q7 50 12 74q21 88 76.5 129 t133.5 41q71 0 127 -33q58 53 147 53q40 0 76 -11v1l81 10q0 -94 -63.5 -373t-63.5 -383h-72q0 96 61 380l13 63l-196 3l-89 -418q-34 -159 -143 -242l-25 30q68 87 93 198l91 432h-196l-89 -418q-34 -159 -143 -242z" />
<glyph unicode="&#xfb06;" horiz-adv-x="753" d="M393 480l-22 -62q-54 34 -110 34q-48 0 -78 -24t-30 -61q0 -27 20.5 -48t50 -35.5t58.5 -31t49.5 -44t20.5 -64.5q0 -66 -57 -110t-141 -44q-82 0 -136 34l22 61q56 -41 128 -41q47 0 78.5 25t31.5 62q0 27 -20.5 47.5t-50 34.5t-59 30t-50 43.5t-20.5 64.5 q0 68 58.5 111.5t140.5 43.5q28 0 55 -6q-11 28 -11 58q0 79 61 133.5t145 54.5q63 0 99.5 -32t36.5 -82q0 -38 -21 -75t-58 -61h173l5 -8l-11 -38l-139 1q-9 -42 -18 -85t-14.5 -69t-11.5 -53t-9 -42t-6 -30.5t-4.5 -23t-2.5 -15.5t-1.5 -12.5t-0.5 -9.5q0 -64 60 -64 q40 0 85 25l-2 -51q-55 -31 -116 -31q-102 0 -102 101q0 29 47 248q15 70 24 113h-71l7 32q52 16 83 54.5t31 81.5q0 35 -23 54.5t-60 19.5q-56 0 -96 -41t-40 -101q0 -37 22 -72z" />
<glyph horiz-adv-x="284" d="M390 862l-6 -13q-116 -59 -257 -74l-3 22q141 55 228 110zM-59 -187l-17 35q103 67 135 218l98 464q16 73 24 154l78 12l7 -8l-132 -622q-21 -97 -65.5 -156.5t-127.5 -96.5z" />
<glyph horiz-adv-x="234" d="M293 743l1 -13q-79 -89 -193 -156l-22 13q103 101 149 170zM-61 -256l-25 30q88 68 115 198l83 387l8 137l81 10q0 -18 -1.5 -37.5t-6 -47.5t-8.5 -52t-13.5 -70t-17 -81.5l-22.5 -106.5t-27 -126q-19 -86 -56.5 -142.5t-109.5 -98.5z" />
<glyph horiz-adv-x="435" d="M13 41q0 108 74 196t185 88q60 0 106 -17l-32 -137q-37 -164 -36 -242h-62q0 73 18 159q-33 -68 -77.5 -117t-92.5 -49q-37 0 -60 30.5t-23 88.5zM78 52q0 -78 45 -78q31 0 68.5 45t64 101.5t40.5 104.5q2 8 11 48q-28 11 -53 11q-69 0 -122.5 -73.5t-53.5 -158.5z" />
<glyph horiz-adv-x="441" d="M107 405l4 107l70 8q1 -83 -64 -357q76 162 173 162q39 0 63 -30t24 -88q0 -108 -74.5 -196.5t-188.5 -88.5q-63 0 -107 19q5 26 12 58.5t21.5 97t28.5 129.5zM81 -1l1 11q-2 -6 -4.5 -18t-3.5 -18q28 -10 53 -10q75 0 130 72t55 157q0 37 -12.5 59t-35.5 22 q-51 0 -109.5 -96t-73.5 -179z" />
<glyph horiz-adv-x="381" d="M283 29l15 -24q-28 -37 -72 -60t-88 -23q-57 0 -91 38.5t-34 104.5q0 102 70.5 181t164.5 79q50 0 88 -19l-18 -53q-37 27 -76 27q-66 0 -115 -66t-49 -144q0 -47 20.5 -74.5t60.5 -27.5q65 0 124 61z" />
<glyph horiz-adv-x="440" d="M315 -70h-62q-3 54 19 165q-32 -72 -79 -122.5t-100 -50.5q-37 0 -60.5 31t-23.5 90q0 108 78 195t193 87q25 0 39 -2l18 82l4 107l70 8q1 -72 -48.5 -290t-47.5 -300zM74 55q0 -81 47 -81q34 0 74 48t67.5 107t37.5 104v-3l9 44q-24 10 -46 10q-77 0 -133 -72t-56 -157z " />
<glyph horiz-adv-x="391" d="M292 29l16 -24q-27 -39 -71 -61t-90 -22q-61 0 -97 39.5t-36 107.5q0 99 69.5 177.5t157.5 78.5q45 0 71 -21.5t26 -58.5q0 -56 -65 -99t-193 -49q-1 -8 -1 -25q0 -47 23 -75.5t64 -28.5q63 0 126 61zM231 284q-47 0 -88.5 -48t-57.5 -112q103 10 148 44t45 74 q0 42 -47 42z" />
<glyph horiz-adv-x="276" d="M-35 -238l-22 25q59 75 76 157l71 332l-63 2l5 27l66 8q1 7 6 33.5t7 37.5q13 64 56 100t110 36q56 0 93 -21l-25 -51q-35 23 -78 23q-76 0 -95 -85q-1 -5 -5.5 -29.5t-7.5 -43.5h112l5 -7l-9 -33l-116 3l-67 -319q-29 -131 -119 -195z" />
<glyph horiz-adv-x="378" d="M92 -268q-71 0 -111.5 26.5t-40.5 67.5q0 53 74 89l17 -16q-31 -28 -31 -57q0 -31 27.5 -51t75.5 -20q49 0 83 20.5t34 50.5q0 18 -17 32t-59 33q-38 16 -55.5 29t-17.5 31q0 37 80 76v2q-10 -1 -21 0q-44 2 -72.5 31t-28.5 78q0 71 53 121t128 50q105 0 145 9 q7 -9 7 -20q0 -29 -35 -29q-14 0 -66 13l-1 -1q49 -25 49 -90q0 -48 -27.5 -88t-61 -61t-61 -41t-27.5 -32q0 -16 49 -36q103 -43 103 -99q0 -46 -53.5 -82t-138.5 -36zM250 213q0 35 -15.5 55t-42.5 20q-40 0 -72 -43t-32 -93q0 -34 16.5 -53.5t43.5 -19.5q43 0 72.5 42.5 t29.5 91.5z" />
<glyph horiz-adv-x="458" d="M86 -70h-61q-2 71 46 296l38 179l5 107l70 8q0 -80 -54 -312h1q30 56 75 86.5t93 30.5q38 0 59 -22t21 -60q0 -22 -30 -157q-16 -82 -15 -156h-63q-1 68 29 209q11 47 11 77t-10.5 43t-34.5 13q-74 0 -126.5 -103t-53.5 -239z" />
<glyph horiz-adv-x="214" d="M172 490q0 -23 -17 -42.5t-41 -19.5q-15 0 -24 9t-9 24q0 23 18.5 42.5t40.5 19.5q15 0 23.5 -9t8.5 -24zM87 -70h-62q-2 70 28 208l16 72l4 107l69 8q1 -56 -27.5 -193.5t-27.5 -201.5z" />
<glyph horiz-adv-x="202" d="M172 490q0 -23 -17 -42.5t-41 -19.5q-15 0 -24 9.5t-9 23.5q0 23 18.5 42.5t40.5 19.5q15 0 23.5 -9t8.5 -24zM-50 -270l-22 25q57 75 76 157l64 298l5 107l70 8q0 -15 -1 -30.5t-4.5 -38t-6.5 -40t-11 -54t-13.5 -61.5t-17.5 -81t-21 -95q-14 -68 -42 -114t-76 -81z" />
<glyph horiz-adv-x="422" d="M375 259q0 -44 -44.5 -87.5t-108.5 -73.5q61 -101 123 -168h-78q-62 75 -109 168q153 85 153 147q0 35 -36 35q-44 0 -88 -54t-72 -136t-29 -160h-61q-2 71 46 296l38 179l5 107l70 8q0 -21 -3 -49t-6 -49.5t-11.5 -61.5t-12 -57t-15 -66.5t-14.5 -61.5h1q31 70 80 110 t100 40q35 0 53.5 -18t18.5 -48z" />
<glyph horiz-adv-x="212" d="M86 -70h-61q-2 71 46 296l38 179l5 107l70 8q1 -73 -49 -291t-49 -299z" />
<glyph horiz-adv-x="692" d="M130 208q28 54 72.5 85.5t89.5 31.5q39 0 60 -22.5t21 -61.5q0 -12 -3 -30q28 54 72 84t88 30q40 0 61.5 -22t21.5 -61q0 -31 -25 -138q-21 -90 -21 -174h-61q-2 67 21 176q18 85 18 115q0 51 -45 51q-68 0 -121 -96.5t-52 -245.5h-62q0 74 22 179q18 86 18 108 q0 55 -46 55q-67 0 -119 -101.5t-53 -240.5h-62q-1 77 43 280l5 107l69 8q1 -49 -14 -117h2z" />
<glyph horiz-adv-x="458" d="M130 208q28 54 73 85.5t92 31.5q40 0 62 -22.5t22 -61.5q0 -26 -28 -149q-19 -88 -18 -162h-61q-1 68 22 179q18 87 18 111q0 52 -49 52q-71 0 -123 -100.5t-53 -241.5h-62q-1 77 43 280l5 107l69 8q1 -49 -14 -117h2z" />
<glyph horiz-adv-x="425" d="M359 183q0 -100 -63 -180.5t-157 -80.5q-59 0 -92 36.5t-33 105.5q0 100 63 180.5t156 80.5q60 0 93 -36.5t33 -105.5zM79 64q0 -99 72 -99q63 0 103 71t40 150q0 97 -72 97q-64 0 -103.5 -70.5t-39.5 -148.5z" />
<glyph horiz-adv-x="447" d="M117 -78q-13 0 -47 4q-24 -118 -24 -186h-61q-1 70 46 291l38 179l5 107l70 8q0 -57 -20 -157q32 67 76 112t94 45q39 0 63 -30t24 -88q0 -109 -75.5 -197t-188.5 -88zM269 274q-49 0 -102 -84t-75 -168q-8 -32 -11 -48q27 -10 51 -10q74 0 129 73.5t55 157.5 q0 37 -12.5 58t-34.5 21z" />
<glyph horiz-adv-x="436" d="M100 -78q-39 0 -63 31t-24 90q0 109 76.5 195.5t192.5 86.5q52 0 102 -18l-78 -340q-34 -158 -33 -227h-62q-1 82 49 300l9 38q-33 -65 -77 -110.5t-92 -45.5zM78 53q0 -36 12.5 -57.5t34.5 -21.5q48 0 101 80.5t75 163.5l12 56q-25 10 -50 10q-75 0 -130 -73.5 t-55 -157.5z" />
<glyph horiz-adv-x="323" d="M87 -70h-62q-1 79 27 208l16 72l5 107l69 8q1 -52 -18 -140h2q55 140 147 140q33 0 55 -18l-32 -56q-23 10 -43 10q-46 0 -85 -50.5t-59.5 -126t-21.5 -154.5z" />
<glyph horiz-adv-x="369" d="M306 306l-17 -53q-47 27 -97 27q-40 0 -64 -17.5t-24 -44.5q0 -26 27 -45.5t59 -31t59 -37.5t27 -62q0 -52 -47.5 -86t-118.5 -34q-67 0 -115 27l17 52q50 -33 110 -33q39 0 65.5 18t26.5 45q0 25 -27 44t-60 31t-60 38t-27 62q0 52 47.5 85.5t116.5 33.5q59 0 102 -19z " />
<glyph horiz-adv-x="307" d="M270 279l-118 1q-52 -242 -52 -259q0 -51 52 -51q33 0 71 19v-42q-50 -25 -99 -25q-89 0 -89 84q0 4 0.5 8.5t1.5 11.5t2 13.5t3.5 19.5t5 25t7.5 34t9.5 42.5t12 54.5t14.5 66l-63 1l6 27l65 8l35 92l41 4l6 -7l-21 -89h115l5 -6z" />
<glyph horiz-adv-x="445" d="M29 9q0 17 38 201l6 107l68 8q1 -21 -0.5 -41.5t-5 -43t-6 -35.5t-8 -39t-7.5 -33q-17 -79 -17 -108q0 -49 46 -49q49 0 90 53.5t61.5 132t17.5 155.5l64 8q0 -26 -4 -58.5t-8.5 -56.5t-14.5 -71t-15 -74q-15 -83 -14 -135h-62q0 53 9 104h-1q-27 -55 -69 -83.5 t-85 -28.5q-39 0 -61 23t-22 64z" />
<glyph horiz-adv-x="366" d="M79 -70q-6 218 -53 387l65 8q44 -157 43 -337h2q134 195 148 330q10 7 27 7q30 0 30 -27q0 -50 -59 -162t-137 -206h-66z" />
<glyph horiz-adv-x="572" d="M516 325q29 0 29 -27q0 -52 -54 -164.5t-128 -203.5h-67q3 166 -10 305h-1q-38 -148 -156 -305h-67q-1 217 -36 387l66 7q30 -157 26 -338h1q119 178 136 331h73q28 -149 25 -331h1q55 83 91 171.5t43 160.5q10 7 28 7z" />
<glyph horiz-adv-x="335" d="M-43 -70q50 122 153 203q-42 127 -84 184l63 8q38 -51 75 -163q73 68 91 156q11 7 28 7q29 0 29 -24q0 -29 -40.5 -83.5t-94.5 -95.5q39 -128 80 -192h-67q-33 51 -67 160q-69 -59 -106 -160h-60z" />
<glyph horiz-adv-x="367" d="M312 325q29 0 29 -25q0 -63 -77 -199t-186 -252.5t-182 -116.5q-21 0 -32.5 10.5t-11.5 27.5q0 15 9 27q17 -4 40 -4q49 0 103 41t95 96h-20q-6 222 -52 387l65 8q44 -157 43 -337h1q136 196 148 330q10 7 28 7z" />
<glyph horiz-adv-x="383" d="M-12 -78l-23 32q219 205 304 306q-26 2 -77.5 8.5t-68.5 6.5q-50 0 -88 -39l-23 12q20 44 47 60.5t70 16.5q29 0 92 -9.5t84 -11.5q6 7 16 21q30 0 30 -20q0 -26 -88.5 -121t-209.5 -198q14 2 21 2q19 0 70 -6.5t68 -6.5q48 0 86 48l25 -12q-22 -51 -49.5 -70t-69.5 -19 q-30 0 -90 9.5t-80 9.5q-26 0 -46 -19z" />
<glyph horiz-adv-x="435" d="M89 401q0 108 74 196t185 88q60 0 106 -17l-32 -137q-37 -164 -36 -242h-62q0 73 18 159q-33 -68 -77.5 -117t-92.5 -49q-37 0 -60 30.5t-23 88.5zM154 412q0 -78 45 -78q31 0 68.5 45t64 101.5t40.5 104.5q2 8 11 48q-28 11 -53 11q-69 0 -122.5 -73.5t-53.5 -158.5z " />
<glyph horiz-adv-x="442" d="M366 685q40 0 63.5 -30t23.5 -88q0 -107 -74.5 -196t-187.5 -89q-63 0 -108 19q4 18 13 59t21 96.5l28 129.5l38 179l5 107l69 8q2 -83 -63 -357q33 73 78 117.5t94 44.5zM158 359v11q-1 -6 -3.5 -18t-3.5 -18q28 -10 53 -10q75 0 129.5 72t54.5 157q0 37 -12.5 59 t-34.5 22q-51 0 -109.5 -96t-73.5 -179z" />
<glyph horiz-adv-x="382" d="M360 389l15 -24q-28 -37 -72 -60t-88 -23q-57 0 -91 38.5t-34 104.5q0 102 70.5 181t164.5 79q50 0 88 -19l-18 -53q-37 27 -76 27q-66 0 -115 -66t-49 -144q0 -47 20.5 -74.5t60.5 -27.5q65 0 124 61z" />
<glyph horiz-adv-x="440" d="M391 290h-62q-3 54 19 165q-32 -72 -79 -122.5t-100 -50.5q-37 0 -60.5 31t-23.5 90q0 108 78 195t193 87q25 0 39 -2l18 82l4 107l70 8q1 -72 -48.5 -290t-47.5 -300zM150 415q0 -81 47 -81q34 0 74 48t67.5 107t37.5 104v-3l9 44q-24 10 -46 10q-77 0 -133 -72 t-56 -157z" />
<glyph horiz-adv-x="392" d="M369 389l16 -24q-27 -39 -71 -61t-90 -22q-61 0 -97 39.5t-36 107.5q0 99 69.5 177.5t157.5 78.5q45 0 71 -21.5t26 -58.5q0 -56 -65 -99t-193 -49q-1 -8 -1 -25q0 -47 23 -75.5t64 -28.5q63 0 126 61zM308 644q-47 0 -88.5 -48t-57.5 -112q103 10 148 44t45 74 q0 42 -47 42z" />
<glyph horiz-adv-x="276" d="M42 122l-22 25q57 73 76 157l70 332l-62 2l5 27l66 8q5 29 12 71q14 64 57 100t110 36q54 0 93 -21l-25 -51q-35 23 -78 23q-76 0 -95 -85q-5 -24 -13 -73h112l5 -7l-9 -33l-116 3l-68 -319q-28 -130 -118 -195z" />
<glyph horiz-adv-x="378" d="M169 92q-71 0 -111.5 26.5t-40.5 67.5q0 53 74 89l17 -16q-31 -28 -31 -57q0 -31 27.5 -51t75.5 -20q49 0 83 20.5t34 50.5q0 18 -17 32t-59 33q-38 16 -55.5 29t-17.5 31q0 37 80 76v2q-10 -1 -21 0q-44 2 -72.5 31t-28.5 78q0 71 53 121t128 50q105 0 145 9q7 -9 7 -20 q0 -29 -35 -29q-14 0 -66 13l-1 -1q49 -25 49 -90q0 -48 -27.5 -88t-61 -61t-61 -41t-27.5 -32q0 -16 49 -36q103 -43 103 -99q0 -46 -53.5 -82t-138.5 -36zM327 573q0 35 -15.5 55t-42.5 20q-40 0 -72 -43t-32 -93q0 -34 16.5 -53.5t43.5 -19.5q43 0 72.5 42.5t29.5 91.5z " />
<glyph horiz-adv-x="459" d="M163 290h-62q-1 72 47 296l38 179l5 107l69 8q0 -15 -1 -33t-2.5 -32.5t-6 -39t-6.5 -37.5t-8.5 -43t-9 -40t-10 -44.5t-9.5 -42.5h1q30 56 75 86.5t93 30.5q38 0 59 -22t21 -60q0 -11 -2.5 -26t-5.5 -28.5t-10 -45.5t-12 -57q-16 -80 -16 -156h-62q-1 68 29 209 q11 53 11 77q0 56 -45 56q-74 0 -126.5 -103t-53.5 -239z" />
<glyph horiz-adv-x="214" d="M249 850q0 -23 -17 -42.5t-41 -19.5q-15 0 -24 9t-9 24q0 23 18.5 42.5t40.5 19.5q15 0 23.5 -9t8.5 -24zM164 290h-62q-2 74 27 208l16 72l5 107l69 8q1 -56 -27.5 -193.5t-27.5 -201.5z" />
<glyph horiz-adv-x="201" d="M248 850q0 -23 -17 -42.5t-41 -19.5q-15 0 -24 9.5t-9 23.5q0 23 18.5 42.5t40.5 19.5q15 0 23.5 -9t8.5 -24zM26 90l-22 25q57 75 76 157l64 298l5 107l70 8q0 -15 -1 -30.5t-4.5 -38t-6.5 -40t-11 -54t-13.5 -61.5t-17.5 -81t-21 -95q-14 -68 -42 -114t-76 -81z" />
<glyph horiz-adv-x="422" d="M452 619q0 -44 -44.5 -87.5t-108.5 -73.5q64 -105 123 -168h-79q-66 82 -108 168q153 85 153 147q0 35 -37 35q-44 0 -87.5 -54t-71.5 -136t-29 -160h-62q-1 72 47 296l38 179l5 107l69 8q1 -25 -2 -55t-11 -70t-13.5 -67t-17.5 -79.5t-17 -73.5h1q30 70 79.5 110 t100.5 40q34 0 53 -18.5t19 -47.5z" />
<glyph horiz-adv-x="213" d="M163 290h-62q-1 72 47 296l38 179l5 107l69 8q1 -73 -49 -291t-48 -299z" />
<glyph horiz-adv-x="692" d="M207 568q27 54 71.5 85.5t89.5 31.5q39 0 60 -22.5t21 -61.5q0 -18 -2 -30q27 54 71 84t88 30q40 0 61.5 -22t21.5 -61q0 -31 -25 -138q-21 -92 -20 -174h-62q-2 67 21 176q19 89 19 115q0 51 -46 51q-68 0 -121 -96.5t-52 -245.5h-61q-1 68 22 179q17 81 17 108 q0 55 -46 55q-67 0 -119 -101.5t-53 -240.5h-62q-1 78 44 280l4 107l69 8q1 -49 -14 -117h3z" />
<glyph horiz-adv-x="425" d="M436 543q0 -100 -63 -180.5t-157 -80.5q-59 0 -92 36.5t-33 105.5q0 100 63 180.5t156 80.5q60 0 93 -36.5t33 -105.5zM156 424q0 -99 72 -99q63 0 103 71t40 150q0 97 -72 97q-64 0 -103.5 -70.5t-39.5 -148.5z" />
<glyph horiz-adv-x="446" d="M123 100h-62q-1 70 46 291l38 179l5 107l70 8q1 -51 -20 -157q32 67 76 112t94 45q39 0 63 -30t24 -88q0 -109 -75.5 -197t-188.5 -88q-14 0 -46 4q-25 -117 -24 -186zM345 634q-48 0 -101.5 -84t-75.5 -168q-2 -8 -5.5 -24t-5.5 -24q27 -10 51 -10q74 0 129 73.5 t55 157.5q0 37 -12.5 58t-34.5 21z" />
<glyph horiz-adv-x="436" d="M176 282q-39 0 -63 31t-24 90q0 108 76.5 195t192.5 87q52 0 102 -18l-77 -340q-34 -149 -34 -227h-61q-3 80 48 300l9 38q-32 -64 -76 -110t-93 -46zM154 413q0 -36 12.5 -57.5t34.5 -21.5q48 0 101 80.5t75 163.5l13 56q-27 10 -51 10q-75 0 -130 -73.5t-55 -157.5z " />
<glyph horiz-adv-x="322" d="M163 290h-62q0 80 28 208l16 72l4 107l69 8q1 -52 -18 -140h3q54 140 147 140q33 0 55 -18l-33 -56q-22 10 -43 10q-46 0 -85 -50.5t-59.5 -126t-21.5 -154.5z" />
<glyph horiz-adv-x="369" d="M383 666l-17 -53q-47 27 -97 27q-40 0 -64 -17.5t-24 -44.5q0 -26 27 -45.5t59 -31t59 -37.5t27 -62q0 -52 -47.5 -86t-118.5 -34q-67 0 -115 27l17 52q49 -33 110 -33q39 0 65.5 18t26.5 45q0 25 -27 44t-60 31t-60 38t-27 62q0 52 47.5 85.5t116.5 33.5q59 0 102 -19z " />
<glyph horiz-adv-x="306" d="M346 639l-118 1q-52 -242 -52 -259q0 -51 52 -51q33 0 71 19v-42q-50 -25 -99 -25q-89 0 -89 84q0 4 0.5 8.5t1.5 11.5t2 13.5t3.5 19.5t5 25t7.5 34t9.5 42.5t12 54.5t14.5 66l-63 1l6 27l65 8l35 92l41 4l6 -7l-21 -89h115l5 -6z" />
<glyph horiz-adv-x="445" d="M105 369q0 20 39 201l5 107l69 8q0 -26 -3 -55t-6 -46t-9.5 -49.5t-8.5 -41.5q-18 -83 -18 -108q0 -49 46 -49q50 0 90.5 53.5t61 131.5t17.5 156l64 8q0 -26 -4 -58t-8.5 -57t-14 -70.5t-14.5 -74.5q-16 -79 -15 -135h-62q0 53 9 104q-27 -54 -69.5 -83t-85.5 -29 q-39 0 -61 23t-22 64z" />
<glyph horiz-adv-x="367" d="M155 290q-6 224 -53 387l65 8q45 -152 43 -337h2q134 195 148 330q10 7 27 7q30 0 30 -27q0 -50 -59 -162t-137 -206h-66z" />
<glyph horiz-adv-x="571" d="M592 685q30 0 30 -27q0 -51 -54.5 -164t-128.5 -204h-66q3 157 -11 305h-1q-38 -148 -156 -305h-67q-1 217 -36 387l66 7q30 -157 26 -338h2q120 182 135 331h73q29 -148 25 -331h1q119 179 135 332q10 7 27 7z" />
<glyph horiz-adv-x="335" d="M34 290q48 119 152 203q-38 123 -84 184l63 8q40 -53 75 -163q74 67 92 156q9 7 27 7q30 0 30 -24q0 -29 -41 -83.5t-95 -95.5q42 -131 80 -192h-66q-32 48 -67 160q-71 -61 -106 -160h-60z" />
<glyph horiz-adv-x="367" d="M388 685q29 0 29 -25q0 -63 -77 -199t-186 -252.5t-182 -116.5q-21 0 -32.5 10.5t-11.5 27.5q0 15 9 27q17 -4 40 -4q49 0 103 41t95 96h-20q-6 222 -52 387l65 8q44 -157 43 -337h1q136 196 148 330q10 7 28 7z" />
<glyph horiz-adv-x="382" d="M65 282l-24 32q212 197 305 306q-26 2 -77.5 8.5t-69.5 6.5q-50 0 -88 -39l-23 12q20 44 47 60.5t70 16.5q29 0 92 -9.5t84 -11.5q3 4 8.5 11t8.5 10q29 0 29 -20q0 -26 -88.5 -121t-209.5 -198q14 2 22 2q18 0 69.5 -6.5t68.5 -6.5q48 0 85 48l25 -12q-22 -52 -49 -70.5 t-70 -18.5q-30 0 -89.5 9.5t-79.5 9.5q-26 0 -46 -19z" />
<glyph horiz-adv-x="997" d="M381 125l18 -27q-77 -108 -190 -108q-72 0 -114.5 47t-42.5 134q0 130 84.5 232.5t196.5 102.5q17 0 34 -3q-16 31 -16 66q0 81 77.5 134t195.5 53q38 0 84 -8q0 -97 -70 -393h2q36 74 90 112.5t109 38.5q45 0 69 -26.5t24 -75.5q0 -9 -1 -19t-2 -19t-5 -27.5t-7 -32.5 t-10 -46.5t-12 -57.5q-24 -116 -24 -202h-73q0 88 35 242q23 104 23 141q0 61 -55 61q-60 0 -110 -63t-78.5 -164.5t-31.5 -216.5h-73q0 95 61 380l37 171q14 69 19 140q-24 4 -38 4q-71 0 -124.5 -34.5t-53.5 -96.5q0 -54 37 -100l-25 -63q-44 51 -100 51q-76 0 -134 -89 t-58 -186q0 -60 26.5 -96.5t78.5 -36.5q74 0 147 81z" />
<glyph horiz-adv-x="807" d="M381 125l18 -27q-77 -108 -191 -108q-71 0 -113.5 47t-42.5 134q0 130 84.5 232.5t198.5 102.5q25 0 48 -6q-8 25 -8 58q0 79 60.5 133.5t144.5 54.5q63 0 99.5 -32t36.5 -82q0 -38 -21 -75t-58 -61h174l5 -8l-12 -38l-138 1q-67 -317 -68 -340q0 -64 59 -64q40 0 85 25 l-1 -51q-57 -31 -117 -31q-102 0 -102 101q0 6 0.5 11t1.5 14t2.5 17l4.5 24t6.5 31.5t9.5 44.5t11.5 56.5t15.5 72.5t19 90h-71l8 32q52 16 83 54.5t31 81.5q0 35 -23 54.5t-61 19.5q-56 0 -95.5 -41t-39.5 -101q0 -48 21 -86l-24 -65q-44 51 -100 51q-75 0 -134 -85 t-59 -186q0 -63 26.5 -100t78.5 -37q74 0 147 81z" />
<glyph horiz-adv-x="948" d="M532 0h-73q0 93 61 380l37 171q14 69 19 140q-26 4 -38 4q-71 0 -125 -34t-54 -96q0 -44 34 -85l-22 -62q-54 34 -110 34q-48 0 -78 -24t-30 -61q0 -27 20.5 -48t50 -35.5t58.5 -31t49.5 -44t20.5 -64.5q0 -66 -57 -110t-141 -44q-82 0 -136 34l22 61q56 -41 128 -41 q47 0 78.5 25t31.5 62q0 27 -20.5 47.5t-50 34.5t-59 30t-50 43.5t-20.5 64.5q0 68 58.5 111.5t140.5 43.5q26 0 46 -4q-22 32 -22 70q0 79 78 131.5t196 52.5q38 0 84 -8q0 -88 -70 -393h2q36 74 90 112.5t109 38.5q44 0 68.5 -26.5t24.5 -75.5q0 -9 -1 -19t-2 -19 t-5 -27.5t-7 -32.5t-10 -46.5t-12 -57.5q-24 -116 -24 -202h-73q0 88 35 242q23 111 23 141q0 61 -55 61q-60 0 -110 -63t-78.5 -164.5t-31.5 -216.5z" />
<glyph horiz-adv-x="571" d="M60 0h-70l270 462l45 81l75 4l8 -9l86 -538h-74l-24 149h-228zM241 307l-61 -104h187l-17 104q-16 125 -18 167h-2q-21 -46 -89 -167z" />
<glyph horiz-adv-x="571" d="M486 774l2 -13q-79 -89 -194 -155l-21 12q104 104 149 171zM60 0h-70l270 462l45 81l75 4l8 -9l86 -538h-74l-24 149h-228zM241 307l-61 -104h187l-17 104q-16 125 -18 167h-2q-21 -46 -89 -167z" />
<glyph horiz-adv-x="571" d="M482 767h34q-23 -64 -66.5 -101.5t-94.5 -37.5q-50 0 -76 36t-20 99l34 5q2 -38 23 -60t56 -22q32 0 62 22t48 59zM60 0h-70l270 462l45 81l75 4l8 -9l86 -538h-74l-24 149h-228zM241 307l-61 -104h187l-17 104q-16 125 -18 167h-2q-21 -46 -89 -167z" />
<glyph horiz-adv-x="600" d="M494 769l19 -18q-94 -102 -136 -157l-62 -6q-32 83 -78 163l27 18q42 -45 94 -118q88 79 136 118zM60 0h-70l270 462l45 81l75 4l8 -9l86 -538h-74l-24 149h-228zM241 307l-61 -104h187l-17 104q-16 125 -18 167h-2q-21 -46 -89 -167z" />
<glyph horiz-adv-x="571" d="M262 604l-20 18q83 86 137 156l62 6q34 -87 78 -162l-27 -18q-44 48 -95 118q-66 -63 -135 -118zM60 0h-70l270 462l45 81l75 4l8 -9l86 -538h-74l-24 149h-228zM241 307l-61 -104h187l-17 104q-16 125 -18 167h-2q-21 -46 -89 -167z" />
<glyph horiz-adv-x="571" d="M333 715q0 -29 -20.5 -52.5t-45.5 -23.5q-17 0 -27 11t-10 27q0 28 21.5 51t46.5 23q35 0 35 -36zM533 715q0 -29 -20.5 -52.5t-46.5 -23.5q-17 0 -26.5 11t-9.5 27q0 28 21 51t47 23q35 0 35 -36zM60 0h-70l270 462l45 81l75 4l8 -9l86 -538h-74l-24 149h-228zM241 307 l-61 -104h187l-17 104q-16 125 -18 167h-2q-21 -46 -89 -167z" />
<glyph horiz-adv-x="571" d="M60 0h-70l270 462l45 81l75 4l8 -9l86 -538h-74l-24 149h-228zM241 307l-61 -104h187l-17 104q-16 125 -18 167h-2q-21 -46 -89 -167zM263 -130q0 -30 -21.5 -54t-48.5 -24q-19 0 -29.5 11.5t-10.5 28.5q0 28 22.5 52t48.5 24q39 0 39 -38z" />
<glyph horiz-adv-x="571" d="M432 608q-88 68 -128 156l8 13l69 14q20 -72 77 -170zM60 0h-70l270 462l45 81l75 4l8 -9l86 -538h-74l-24 149h-228zM241 307l-61 -104h187l-17 104q-16 125 -18 167h-2q-21 -46 -89 -167z" />
<glyph horiz-adv-x="571" d="M240 671l10 48h272l-10 -48h-272zM60 0h-70l270 462l45 81l75 4l8 -9l86 -538h-74l-24 149h-228zM241 307l-61 -104h187l-17 104q-16 125 -18 167h-2q-21 -46 -89 -167z" />
<glyph horiz-adv-x="571" d="M60 0h-70l270 462l45 81l75 4l8 -9l86 -538q-139 -69 -139 -140q0 -35 43 -35q24 0 59 12l6 -30q-45 -32 -98 -32q-37 0 -58.5 16.5t-21.5 46.5q0 43 39.5 85t111.5 77h-16l-24 149h-228zM241 307l-61 -104h187l-17 104q-16 125 -18 167h-2q-21 -46 -89 -167z" />
<glyph horiz-adv-x="571" d="M472 708q0 -40 -35.5 -72t-79.5 -32q-30 0 -50 17.5t-20 44.5q0 38 36 70t81 32q31 0 49.5 -17t18.5 -43zM331 673q0 -16 10 -25.5t27 -9.5q23 0 41.5 19t18.5 44q0 15 -9.5 24.5t-26.5 9.5q-24 0 -42.5 -19t-18.5 -43zM60 0h-70l270 462l45 81l75 4l8 -9l86 -538h-74 l-24 149h-228zM241 307l-61 -104h187l-17 104q-16 125 -18 167h-2q-21 -46 -89 -167z" />
<glyph horiz-adv-x="571" d="M537 1015l2 -13q-81 -91 -194 -155l-21 12q104 103 149 170zM472 708q0 -40 -35.5 -72t-79.5 -32q-30 0 -50 17.5t-20 44.5q0 38 36 70t81 32q31 0 49.5 -17t18.5 -43zM331 673q0 -16 10 -25.5t27 -9.5q23 0 41.5 19t18.5 44q0 15 -9.5 24.5t-26.5 9.5q-24 0 -42.5 -19 t-18.5 -43zM60 0h-70l270 462l45 81l75 4l8 -9l86 -538h-74l-24 149h-228zM241 307l-61 -104h187l-17 104q-16 125 -18 167h-2q-21 -46 -89 -167z" />
<glyph horiz-adv-x="571" d="M327 754q28 0 66.5 -28.5t58.5 -28.5q32 0 71 54l23 -4q-14 -44 -44.5 -77t-67.5 -33q-28 0 -67.5 28t-58.5 28q-34 0 -72 -54l-22 4q15 44 45 77.5t68 33.5zM60 0h-70l270 462l45 81l75 4l8 -9l86 -538h-74l-24 149h-228zM241 307l-61 -104h187l-17 104q-16 125 -18 167 h-2q-21 -46 -89 -167z" />
<glyph horiz-adv-x="715" d="M60 0h-70l302 462q24 38 45 77h335l7 -8l-13 -50l-231 4l-15 -192l192 2l-13 -55l-183 3l-14 -189l223 4l-13 -58h-288q3 34 8 88t6 61h-179q-16 -24 -50 -75.5t-49 -73.5zM364 474q-37 -69 -170 -271h149q22 227 28 271h-7z" />
<glyph horiz-adv-x="715" d="M574 774l1 -13q-80 -90 -193 -155l-21 12q104 104 148 171zM60 0h-70l302 462q24 38 45 77h335l7 -8l-13 -50l-231 4l-15 -192l192 2l-13 -55l-183 3l-14 -189l223 4l-13 -58h-288q3 34 8 88t6 61h-179q-16 -24 -50 -75.5t-49 -73.5zM364 474q-37 -69 -170 -271h149 q22 227 28 271h-7z" />
<glyph horiz-adv-x="531" d="M199 0h-155l89 415q13 62 20 124h165q77 0 120.5 -30t43.5 -82q0 -50 -33.5 -89.5t-90.5 -57.5q96 -22 96 -103q0 -78 -71.5 -127.5t-183.5 -49.5zM296 486h-75l-40 -185h73q70 0 111 30.5t41 81.5q0 34 -28 53.5t-82 19.5zM248 250h-78l-42 -197h82q77 0 123 32.5 t46 87.5q0 77 -131 77z" />
<glyph horiz-adv-x="533" d="M435 93l-4 -60q-73 -41 -169 -41q-94 0 -146.5 50t-52.5 141q0 148 96.5 256t227.5 108q88 0 141 -34l-28 -64q-48 37 -123 37q-96 0 -166 -84t-70 -201q0 -69 37 -108.5t108 -39.5q81 0 149 40z" />
<glyph horiz-adv-x="533" d="M497 774l2 -13q-79 -89 -194 -155l-21 12q104 104 149 171zM435 93l-4 -60q-73 -41 -169 -41q-94 0 -146.5 50t-52.5 141q0 148 96.5 256t227.5 108q88 0 141 -34l-28 -64q-48 37 -123 37q-96 0 -166 -84t-70 -201q0 -69 37 -108.5t108 -39.5q81 0 149 40z" />
<glyph horiz-adv-x="533" d="M517 789l19 -17q-84 -89 -137 -157l-61 -6q-30 77 -78 163l27 17q44 -46 94 -118q87 80 136 118zM435 93l-4 -60q-73 -41 -169 -41q-94 0 -146.5 50t-52.5 141q0 148 96.5 256t227.5 108q88 0 141 -34l-28 -64q-48 37 -123 37q-96 0 -166 -84t-70 -201q0 -69 37 -108.5 t108 -39.5q81 0 149 40z" />
<glyph horiz-adv-x="533" d="M329 -106q0 -43 -51 -72t-120 -34l4 31q105 20 105 65q0 28 -58 32l-7 16l33 61q-82 8 -127 57t-45 133q0 148 96.5 256t227.5 108q88 0 141 -34l-28 -64q-48 37 -123 37q-96 0 -166 -84t-70 -201q0 -69 37 -108.5t108 -39.5q81 0 149 40l-4 -60q-62 -36 -153 -41 l-21 -40q72 -11 72 -58z" />
<glyph horiz-adv-x="533" d="M273 604l-20 18q83 86 137 156l62 6q34 -87 78 -162l-27 -18q-44 48 -95 118q-66 -63 -135 -118zM435 93l-4 -60q-73 -41 -169 -41q-94 0 -146.5 50t-52.5 141q0 148 96.5 256t227.5 108q88 0 141 -34l-28 -64q-48 37 -123 37q-96 0 -166 -84t-70 -201q0 -69 37 -108.5 t108 -39.5q81 0 149 40z" />
<glyph horiz-adv-x="533" d="M447 717q0 -30 -21.5 -54t-48.5 -24q-19 0 -29 11.5t-10 28.5q0 29 22 52.5t48 23.5q39 0 39 -38zM435 93l-4 -60q-73 -41 -169 -41q-94 0 -146.5 50t-52.5 141q0 148 96.5 256t227.5 108q88 0 141 -34l-28 -64q-48 37 -123 37q-96 0 -166 -84t-70 -201q0 -69 37 -108.5 t108 -39.5q81 0 149 40z" />
<glyph horiz-adv-x="599" d="M541 337q0 -140 -103.5 -238.5t-249.5 -98.5h-144l89 415q13 62 20 124h157q104 0 167.5 -53.5t63.5 -148.5zM291 485h-71l-91 -431h73q112 0 187 79t75 196q0 73 -45.5 114.5t-127.5 41.5z" />
<glyph horiz-adv-x="599" d="M541 337q0 -140 -103.5 -238.5t-249.5 -98.5h-144l52 243h-67l7 44h70l27 128q13 62 20 124h157q104 0 167.5 -53.5t63.5 -148.5zM340 243h-171l-40 -189h73q112 0 187 79t75 196q0 73 -45.5 114.5t-127.5 41.5h-71l-42 -198h169z" />
<glyph horiz-adv-x="599" d="M520 789l20 -17q-84 -89 -137 -157l-62 -6q-34 86 -78 163l27 17q40 -42 95 -118q86 80 135 118zM541 337q0 -140 -103.5 -238.5t-249.5 -98.5h-144l89 415q13 62 20 124h157q104 0 167.5 -53.5t63.5 -148.5zM291 485h-71l-91 -431h73q112 0 187 79t75 196 q0 73 -45.5 114.5t-127.5 41.5z" />
<glyph horiz-adv-x="599" d="M541 337q0 -140 -103.5 -238.5t-249.5 -98.5h-144l52 243h-67l7 44h70l27 128q13 62 20 124h157q104 0 167.5 -53.5t63.5 -148.5zM340 243h-171l-40 -189h73q112 0 187 79t75 196q0 73 -45.5 114.5t-127.5 41.5h-71l-42 -198h169z" />
<glyph horiz-adv-x="599" d="M541 337q0 -140 -103.5 -238.5t-249.5 -98.5h-144l89 415q13 62 20 124h157q104 0 167.5 -53.5t63.5 -148.5zM291 485h-71l-91 -431h73q112 0 187 79t75 196q0 73 -45.5 114.5t-127.5 41.5zM263 -130q0 -30 -21.5 -54t-48.5 -24q-19 0 -29 11.5t-10 28.5q0 28 22 52 t48 24q39 0 39 -38z" />
<glyph horiz-adv-x="474" d="M384 58l-13 -58h-327l89 415q13 62 20 124h318l7 -8l-13 -50l-244 5l-42 -194l209 3l-13 -55l-206 3l-41 -190z" />
<glyph horiz-adv-x="474" d="M454 774l2 -13q-79 -89 -194 -155l-21 12q104 104 149 171zM384 58l-13 -58h-327l89 415q13 62 20 124h318l7 -8l-13 -50l-244 5l-42 -194l209 3l-13 -55l-206 3l-41 -190z" />
<glyph horiz-adv-x="474" d="M451 767h33q-23 -64 -66.5 -101.5t-94.5 -37.5q-50 0 -76 36t-20 99l35 5q2 -38 22.5 -60t55.5 -22q32 0 62 22t49 59zM384 58l-13 -58h-327l89 415q13 62 20 124h318l7 -8l-13 -50l-244 5l-42 -194l209 3l-13 -55l-206 3l-41 -190z" />
<glyph horiz-adv-x="474" d="M474 789l19 -17q-84 -89 -137 -157l-61 -6q-30 77 -78 163l27 17q44 -46 94 -118q87 80 136 118zM384 58l-13 -58h-327l89 415q13 62 20 124h318l7 -8l-13 -50l-244 5l-42 -194l209 3l-13 -55l-206 3l-41 -190z" />
<glyph horiz-adv-x="474" d="M230 604l-20 18q83 86 137 156l62 6q34 -87 78 -162l-27 -18q-44 48 -95 118q-66 -63 -135 -118zM384 58l-13 -58h-327l89 415q13 62 20 124h318l7 -8l-13 -50l-244 5l-42 -194l209 3l-13 -55l-206 3l-41 -190z" />
<glyph horiz-adv-x="474" d="M301 715q0 -29 -20.5 -52.5t-45.5 -23.5q-17 0 -27 11t-10 27q0 28 21.5 51t46.5 23q35 0 35 -36zM501 715q0 -29 -20.5 -52.5t-46.5 -23.5q-17 0 -26.5 11t-9.5 27q0 28 21.5 51t46.5 23q35 0 35 -36zM384 58l-13 -58h-327l89 415q13 62 20 124h318l7 -8l-13 -50l-244 5 l-42 -194l209 3l-13 -55l-206 3l-41 -190z" />
<glyph horiz-adv-x="474" d="M404 717q0 -30 -21.5 -54t-48.5 -24q-19 0 -29 11.5t-10 28.5q0 29 22 52.5t48 23.5q39 0 39 -38zM384 58l-13 -58h-327l89 415q13 62 20 124h318l7 -8l-13 -50l-244 5l-42 -194l209 3l-13 -55l-206 3l-41 -190z" />
<glyph horiz-adv-x="474" d="M384 58l-13 -58h-327l89 415q13 62 20 124h318l7 -8l-13 -50l-244 5l-42 -194l209 3l-13 -55l-206 3l-41 -190zM250 -130q0 -30 -21.5 -54t-49.5 -24q-18 0 -28.5 11.5t-10.5 28.5q0 29 22 52.5t49 23.5q39 0 39 -38z" />
<glyph horiz-adv-x="474" d="M400 608q-88 68 -128 156l8 13l70 14q18 -71 76 -170zM384 58l-13 -58h-327l89 415q13 62 20 124h318l7 -8l-13 -50l-244 5l-42 -194l209 3l-13 -55l-206 3l-41 -190z" />
<glyph horiz-adv-x="474" d="M208 671l10 48h272l-10 -48h-272zM384 58l-13 -58h-327l89 415q13 62 20 124h318l7 -8l-13 -50l-244 5l-42 -194l209 3l-13 -55l-206 3l-41 -190z" />
<glyph horiz-adv-x="474" d="M371 0q-139 -69 -139 -140q0 -35 43 -35q24 0 59 12l6 -30q-45 -32 -98 -32q-37 0 -58.5 16.5t-21.5 46.5q0 43 39.5 85t111.5 77h-269l89 415q13 62 20 124h318l7 -8l-13 -50l-244 5l-42 -194l209 3l-13 -55l-206 3l-41 -190l256 5z" />
<glyph horiz-adv-x="474" d="M295 754q28 0 66.5 -28.5t58.5 -28.5q32 0 71 54l23 -4q-14 -44 -44.5 -77t-67.5 -33q-28 0 -67.5 28t-58.5 28q-34 0 -72 -54l-22 4q15 44 45 77.5t68 33.5zM384 58l-13 -58h-327l89 415q13 62 20 124h318l7 -8l-13 -50l-244 5l-42 -194l209 3l-13 -55l-206 3l-41 -190z " />
<glyph horiz-adv-x="578" d="M69 239l18 15h348q9 37 9 80q0 77 -41.5 116.5t-114.5 39.5q-80 0 -161 -46l6 56q78 47 180 47q98 0 154 -52t56 -146q0 -145 -95.5 -252t-225.5 -107q-72 0 -112.5 36t-40.5 104q0 22 7 58t13 51zM121 135q0 -46 25 -70t70 -24q68 0 124 49t84 128l-289 -8 q-14 -40 -14 -75z" />
<glyph horiz-adv-x="431" d="M99 0h-72l88 415q15 74 20 124h313l7 -8l-12 -50l-240 5zM363 284l-13 -55l-201 3l10 50z" />
<glyph horiz-adv-x="570" d="M492 238l6 -8l-44 -201q-84 -37 -186 -37q-97 0 -151 50t-54 140q0 152 100 258.5t242 106.5q83 0 137 -30l-26 -64q-49 35 -120 35q-108 0 -181.5 -83.5t-73.5 -205.5q0 -70 37.5 -109.5t111.5 -39.5q46 0 102 14l6 30q15 75 21 136z" />
<glyph horiz-adv-x="570" d="M489 774l2 -13q-80 -90 -193 -155l-22 12q104 102 149 171zM492 238l6 -8l-44 -201q-84 -37 -186 -37q-97 0 -151 50t-54 140q0 152 100 258.5t242 106.5q83 0 137 -30l-26 -64q-49 35 -120 35q-108 0 -181.5 -83.5t-73.5 -205.5q0 -70 37.5 -109.5t111.5 -39.5 q46 0 102 14l6 30q15 75 21 136z" />
<glyph horiz-adv-x="570" d="M486 767h33q-23 -64 -66 -101.5t-95 -37.5q-50 0 -76 36t-20 99l35 5q2 -38 22.5 -60t56.5 -22q32 0 62 22t48 59zM492 238l6 -8l-44 -201q-84 -37 -186 -37q-97 0 -151 50t-54 140q0 152 100 258.5t242 106.5q83 0 137 -30l-26 -64q-49 35 -120 35q-108 0 -181.5 -83.5 t-73.5 -205.5q0 -70 37.5 -109.5t111.5 -39.5q46 0 102 14l6 30q15 75 21 136z" />
<glyph horiz-adv-x="570" d="M509 789l20 -17q-91 -96 -137 -157l-62 -6q-34 86 -78 163l27 17q40 -42 95 -118q75 71 135 118zM492 238l6 -8l-44 -201q-84 -37 -186 -37q-97 0 -151 50t-54 140q0 152 100 258.5t242 106.5q83 0 137 -30l-26 -64q-49 35 -120 35q-108 0 -181.5 -83.5t-73.5 -205.5 q0 -70 37.5 -109.5t111.5 -39.5q46 0 102 14l6 30q15 75 21 136z" />
<glyph horiz-adv-x="570" d="M265 604l-19 18q75 78 137 156l61 6q31 -79 78 -162l-27 -18q-47 51 -94 118q-79 -74 -136 -118zM492 238l6 -8l-44 -201q-84 -37 -186 -37q-97 0 -151 50t-54 140q0 152 100 258.5t242 106.5q83 0 137 -30l-26 -64q-49 35 -120 35q-108 0 -181.5 -83.5t-73.5 -205.5 q0 -70 37.5 -109.5t111.5 -39.5q46 0 102 14l6 30q15 75 21 136z" />
<glyph horiz-adv-x="570" d="M492 238l6 -8l-44 -201q-84 -37 -186 -37q-97 0 -151 50t-54 140q0 152 100 258.5t242 106.5q83 0 137 -30l-26 -64q-49 35 -120 35q-108 0 -181.5 -83.5t-73.5 -205.5q0 -70 37.5 -109.5t111.5 -39.5q46 0 102 14l6 30q15 75 21 136zM177 -299q43 55 61 94 q-17 1 -26.5 13t-7.5 30q2 24 20.5 44.5t44.5 20.5q43 0 38 -47q-5 -70 -107 -174z" />
<glyph horiz-adv-x="570" d="M439 717q0 -30 -21 -54t-49 -24q-18 0 -28.5 11.5t-10.5 28.5q0 29 22 52.5t49 23.5q18 0 28 -10.5t10 -27.5zM492 238l6 -8l-44 -201q-84 -37 -186 -37q-97 0 -151 50t-54 140q0 152 100 258.5t242 106.5q83 0 137 -30l-26 -64q-49 35 -120 35q-108 0 -181.5 -83.5 t-73.5 -205.5q0 -70 37.5 -109.5t111.5 -39.5q46 0 102 14l6 30q15 75 21 136z" />
<glyph horiz-adv-x="618" d="M117 0h-73l88 413q16 85 21 126l72 8l6 -8l-51 -244h284l25 118q15 69 21 126l72 8l7 -8l-115 -539h-72l51 241h-285z" />
<glyph horiz-adv-x="618" d="M117 0h-73l85 401h-81l9 44h81q10 48 15 94l72 8l6 -8l-20 -94h285q10 57 14 94l72 8l7 -8l-20 -94h67l-9 -44h-68l-85 -401h-72l51 241h-285zM180 295h284l22 106h-284z" />
<glyph horiz-adv-x="618" d="M288 604l-19 18q75 78 137 156l61 6q31 -79 78 -162l-27 -18q-47 51 -94 118q-79 -74 -136 -118zM117 0h-73l88 413q16 85 21 126l72 8l6 -8l-51 -244h284l25 118q15 69 21 126l72 8l7 -8l-115 -539h-72l51 241h-285z" />
<glyph horiz-adv-x="618" d="M117 0h-73l88 413q16 85 21 126l72 8l6 -8l-51 -244h284l25 118q15 69 21 126l72 8l7 -8l-115 -539h-72l51 241h-285zM282 -130q0 -30 -21 -54t-49 -24q-18 0 -28.5 11.5t-10.5 28.5q0 29 22 52.5t49 23.5q18 0 28 -10.5t10 -27.5z" />
<glyph horiz-adv-x="261" d="M117 0h-73l88 413q16 85 21 126l72 8l6 -8z" />
<glyph horiz-adv-x="261" d="M117 0h-73l88 413q16 85 21 126l72 8l6 -8z" />
<glyph horiz-adv-x="261" d="M331 774l2 -13q-80 -90 -193 -155l-22 12q104 102 149 171zM117 0h-73l88 413q16 85 21 126l72 8l6 -8z" />
<glyph horiz-adv-x="261" d="M328 767h33q-23 -64 -66 -101.5t-95 -37.5q-50 0 -76 36t-20 99l35 5q2 -38 22.5 -60t56.5 -22q32 0 62 22t48 59zM117 0h-73l88 413q16 85 21 126l72 8l6 -8z" />
<glyph horiz-adv-x="261" d="M351 789l20 -17q-91 -96 -137 -157l-62 -6q-34 86 -78 163l27 17q44 -46 94 -118q81 75 136 118zM117 0h-73l88 413q16 85 21 126l72 8l6 -8z" />
<glyph horiz-adv-x="261" d="M107 604l-19 18q75 78 137 156l61 6q31 -79 78 -162l-27 -18q-47 51 -94 118q-72 -66 -136 -118zM117 0h-73l88 413q16 85 21 126l72 8l6 -8z" />
<glyph horiz-adv-x="261" d="M178 715q0 -29 -20.5 -52.5t-45.5 -23.5q-17 0 -27 11t-10 27q0 28 21.5 51t47.5 23q16 0 25 -9.5t9 -26.5zM378 715q0 -29 -20.5 -52.5t-45.5 -23.5q-17 0 -27 11t-10 27q0 28 21.5 51t46.5 23q35 0 35 -36zM117 0h-73l88 413q16 85 21 126l72 8l6 -8z" />
<glyph horiz-adv-x="261" d="M281 717q0 -30 -21 -54t-49 -24q-18 0 -28.5 11.5t-10.5 28.5q0 29 22 52.5t49 23.5q18 0 28 -10.5t10 -27.5zM117 0h-73l88 413q16 85 21 126l72 8l6 -8z" />
<glyph horiz-adv-x="261" d="M117 0h-73l88 413q16 85 21 126l72 8l6 -8zM101 -130q0 -30 -21 -54t-49 -24q-18 0 -28.5 11.5t-10.5 28.5q0 29 22 52.5t49 23.5q18 0 28 -10.5t10 -27.5z" />
<glyph horiz-adv-x="261" d="M277 608q-88 68 -128 156l8 13l70 14q19 -73 77 -170zM117 0h-73l88 413q16 85 21 126l72 8l6 -8z" />
<glyph horiz-adv-x="521" d="M117 0h-73l88 413q16 85 21 126l72 8l6 -8zM222 -148l-15 30q84 58 111 179l75 352q16 72 17 124l76 10l6 -8l-102 -478q-17 -83 -55.5 -130.5t-112.5 -78.5z" />
<glyph horiz-adv-x="261" d="M85 671l10 48h272l-10 -48h-272zM117 0h-73l88 413q16 85 21 126l72 8l6 -8z" />
<glyph horiz-adv-x="261" d="M118 0q-84 -72 -84 -131q0 -44 44 -44q24 0 57 12l6 -30q-43 -32 -97 -32q-38 0 -59.5 19t-21.5 53q0 77 106 153h-24l88 413q14 73 20 126l72 8l7 -8z" />
<glyph horiz-adv-x="261" d="M173 754q28 0 66 -28.5t58 -28.5q31 0 72 54l22 -4q-14 -44 -44.5 -77t-67.5 -33q-28 0 -67.5 28t-58.5 28q-33 0 -71 -54l-23 4q15 43 45.5 77t68.5 34zM117 0h-73l88 413q16 85 21 126l72 8l6 -8z" />
<glyph horiz-adv-x="260" d="M-39 -148l-15 30q86 59 111 179l75 352q15 70 18 124l75 10l7 -8l-102 -478q-18 -83 -56.5 -130.5t-112.5 -78.5z" />
<glyph horiz-adv-x="260" d="M-39 -148l-15 30q86 59 111 179l75 352q15 70 18 124l75 10l7 -8l-102 -478q-18 -83 -56.5 -130.5t-112.5 -78.5z" />
<glyph horiz-adv-x="260" d="M330 774l2 -13q-79 -89 -194 -155l-21 12q104 104 149 171zM-39 -148l-15 30q86 59 111 179l75 352q15 70 18 124l75 10l7 -8l-102 -478q-18 -83 -56.5 -130.5t-112.5 -78.5z" />
<glyph horiz-adv-x="260" d="M106 604l-20 18q83 86 137 156l62 6q34 -87 78 -162l-27 -18q-44 48 -95 118q-66 -63 -135 -118zM-39 -148l-15 30q86 59 111 179l75 352q15 70 18 124l75 10l7 -8l-102 -478q-18 -83 -56.5 -130.5t-112.5 -78.5z" />
<glyph horiz-adv-x="526" d="M132 413q16 82 21 126l71 8l6 -8l-53 -250h79q66 72 231 258l60 -9l4 -8l-236 -253l142 -277l-81 -7q-15 28 -43.5 84.5t-85.5 157.5h-82l-50 -235h-71z" />
<glyph horiz-adv-x="526" d="M132 413q16 82 21 126l71 8l6 -8l-53 -250h79q66 72 231 258l60 -9l4 -8l-236 -253l142 -277l-81 -7q-15 28 -43.5 84.5t-85.5 157.5h-82l-50 -235h-71zM107 -299q43 55 61 94q-17 1 -26.5 13t-7.5 30q2 24 20.5 44.5t44.5 20.5q43 0 38 -47q-5 -70 -107 -174z" />
<glyph horiz-adv-x="526" d="M132 413q16 82 21 126l71 8l6 -8l-53 -250h79q66 72 231 258l60 -9l4 -8l-236 -253l142 -277l-81 -7q-15 28 -43.5 84.5t-85.5 157.5h-82l-50 -235h-71z" />
<glyph horiz-adv-x="459" d="M374 58l-12 -58h-318l89 414q13 67 20 125l72 8l6 -8l-103 -486z" />
<glyph horiz-adv-x="459" d="M381 774l2 -13q-79 -89 -194 -155l-21 12q104 104 149 171zM374 58l-12 -58h-318l89 414q13 67 20 125l72 8l6 -8l-103 -486z" />
<glyph horiz-adv-x="459" d="M448 585l5 -12q-39 -105 -122 -211l-25 4q56 128 77 214zM374 58l-12 -58h-318l89 414q13 67 20 125l72 8l6 -8l-103 -486z" />
<glyph horiz-adv-x="459" d="M374 58l-12 -58h-318l89 414q13 67 20 125l72 8l6 -8l-103 -486zM104 -299q43 55 61 94q-17 1 -26.5 13t-7.5 30q2 24 20.5 44.5t44.5 20.5q43 0 38 -47q-5 -70 -107 -174z" />
<glyph horiz-adv-x="446" d="M374 58l-12 -58h-318l89 414q13 67 20 125l72 8l6 -8l-103 -486zM403 288q0 -30 -21.5 -54t-49.5 -24q-18 0 -28.5 11.5t-10.5 28.5q0 29 22 52.5t49 23.5q39 0 39 -38z" />
<glyph horiz-adv-x="459" d="M374 58l-12 -58h-318l44 203l-95 -47l-14 39l120 60l34 159q13 67 20 125l72 8l6 -8l-51 -244l161 80l14 -40l-186 -92l-41 -190z" />
<glyph horiz-adv-x="752" d="M676 547l7 -8l-44 -539h-72l17 204q13 156 25 252h-1q-45 -93 -134 -252l-114 -204h-81l-27 204q-22 150 -27 253h-2q-30 -98 -83 -253l-71 -204h-62l186 542l87 5l43 -268q14 -142 14 -212h2q43 98 104 212l153 263z" />
<glyph horiz-adv-x="617" d="M333 316q8 -16 26 -55t23 -50t15.5 -35.5t17 -42t12.5 -39.5h2q12 86 58 303q17 81 24 142l70 8l6 -8l-114 -539h-72q-92 202 -105 229q-70 149 -91 215h-2q-8 -66 -33 -182l-55 -262h-71l89 415q14 64 20 124l75 8q16 -35 51 -112.5t54 -118.5z" />
<glyph horiz-adv-x="617" d="M512 774l1 -13q-80 -90 -193 -155l-21 12q104 104 148 171zM333 316q8 -16 26 -55t23 -50t15.5 -35.5t17 -42t12.5 -39.5h2q12 86 58 303q17 81 24 142l70 8l6 -8l-114 -539h-72q-92 202 -105 229q-70 149 -91 215h-2q-8 -66 -33 -182l-55 -262h-71l89 415q14 64 20 124 l75 8q16 -35 51 -112.5t54 -118.5z" />
<glyph horiz-adv-x="617" d="M531 789l20 -17q-84 -89 -137 -157l-62 -6q-34 86 -78 163l27 17q40 -42 95 -118q86 80 135 118zM333 316q8 -16 26 -55t23 -50t15.5 -35.5t17 -42t12.5 -39.5h2q12 86 58 303q17 81 24 142l70 8l6 -8l-114 -539h-72q-92 202 -105 229q-70 149 -91 215h-2 q-8 -66 -33 -182l-55 -262h-71l89 415q14 64 20 124l75 8q16 -35 51 -112.5t54 -118.5z" />
<glyph horiz-adv-x="617" d="M333 316q8 -16 26 -55t23 -50t15.5 -35.5t17 -42t12.5 -39.5h2q12 86 58 303q17 81 24 142l70 8l6 -8l-114 -539h-72q-92 202 -105 229q-70 149 -91 215h-2q-8 -66 -33 -182l-55 -262h-71l89 415q14 64 20 124l75 8q16 -35 51 -112.5t54 -118.5zM157 -299q40 52 60 94 q-17 1 -26.5 13t-7.5 30q2 24 20.5 44.5t44.5 20.5q20 0 30.5 -12t8.5 -35q-6 -70 -108 -174z" />
<glyph horiz-adv-x="617" d="M462 717q0 -30 -21.5 -54t-49.5 -24q-18 0 -28.5 11.5t-10.5 28.5q0 28 22.5 52t48.5 24q39 0 39 -38zM333 316q8 -16 26 -55t23 -50t15.5 -35.5t17 -42t12.5 -39.5h2q12 86 58 303q17 81 24 142l70 8l6 -8l-114 -539h-72q-92 202 -105 229q-70 149 -91 215h-2 q-8 -66 -33 -182l-55 -262h-71l89 415q14 64 20 124l75 8q16 -35 51 -112.5t54 -118.5z" />
<glyph horiz-adv-x="617" d="M318 -148l-16 30q69 44 97 122q-84 184 -103 225q-70 149 -91 215h-2q-8 -66 -33 -182l-55 -262h-71l89 415q14 64 20 124l75 8q16 -35 51 -112.5t54 -118.5q8 -16 26 -55t23 -50t15.5 -35.5t17 -42t12.5 -39.5h2q12 86 58 303q17 81 24 142l70 8l6 -8l-101 -478 q-17 -82 -56 -130.5t-112 -78.5z" />
<glyph horiz-adv-x="617" d="M-39 -148l-15 30q87 59 111 179l76 354q15 79 19 124l76 8q52 -118 105 -230q8 -17 26.5 -56.5t26.5 -57.5t20 -49t21 -60h2q14 97 59 304q16 84 22 141l71 8l7 -8l-115 -539h-72q-93 204 -105 228q-72 155 -92 216h-1q-8 -70 -33 -182l-43 -201q-18 -83 -56 -131 t-110 -78z" />
<glyph horiz-adv-x="617" d="M353 754q28 0 66 -28.5t58 -28.5q33 0 72 54l23 -4q-14 -43 -45 -76.5t-67 -33.5q-28 0 -67.5 28t-59.5 28q-33 0 -71 -54l-22 4q15 44 45 77.5t68 33.5zM333 316q8 -16 26 -55t23 -50t15.5 -35.5t17 -42t12.5 -39.5h2q12 86 58 303q17 81 24 142l70 8l6 -8l-114 -539 h-72q-92 202 -105 229q-70 149 -91 215h-2q-8 -66 -33 -182l-55 -262h-71l89 415q14 64 20 124l75 8q16 -35 51 -112.5t54 -118.5z" />
<glyph horiz-adv-x="626" d="M570 350q0 -148 -93.5 -254t-223.5 -106q-87 0 -138.5 50.5t-51.5 141.5q0 146 95.5 255t224.5 109q87 0 137 -52.5t50 -143.5zM140 194q0 -68 33.5 -107.5t95.5 -39.5q93 0 159 87.5t66 210.5q0 67 -32 105.5t-93 38.5q-94 0 -161.5 -87.5t-67.5 -207.5z" />
<glyph horiz-adv-x="626" d="M490 774l2 -13q-79 -89 -194 -155l-21 12q104 104 149 171zM570 350q0 -148 -93.5 -254t-223.5 -106q-87 0 -138.5 50.5t-51.5 141.5q0 146 95.5 255t224.5 109q87 0 137 -52.5t50 -143.5zM140 194q0 -68 33.5 -107.5t95.5 -39.5q93 0 159 87.5t66 210.5q0 67 -32 105.5 t-93 38.5q-94 0 -161.5 -87.5t-67.5 -207.5z" />
<glyph horiz-adv-x="626" d="M487 767h33q-22 -64 -66 -101.5t-95 -37.5q-50 0 -76 36t-20 99l35 5q2 -38 22.5 -60t55.5 -22q32 0 62 22t49 59zM570 350q0 -148 -93.5 -254t-223.5 -106q-87 0 -138.5 50.5t-51.5 141.5q0 146 95.5 255t224.5 109q87 0 137 -52.5t50 -143.5zM140 194 q0 -68 33.5 -107.5t95.5 -39.5q93 0 159 87.5t66 210.5q0 67 -32 105.5t-93 38.5q-94 0 -161.5 -87.5t-67.5 -207.5z" />
<glyph horiz-adv-x="626" d="M510 789l19 -17q-84 -89 -137 -157l-61 -6q-30 77 -78 163l27 17q44 -46 94 -118q81 75 136 118zM570 350q0 -148 -93.5 -254t-223.5 -106q-87 0 -138.5 50.5t-51.5 141.5q0 146 95.5 255t224.5 109q87 0 137 -52.5t50 -143.5zM140 194q0 -68 33.5 -107.5t95.5 -39.5 q93 0 159 87.5t66 210.5q0 67 -32 105.5t-93 38.5q-94 0 -161.5 -87.5t-67.5 -207.5z" />
<glyph horiz-adv-x="626" d="M266 604l-20 18q83 86 137 156l62 6q34 -87 78 -162l-27 -18q-47 51 -94 118q-72 -66 -136 -118zM570 350q0 -148 -93.5 -254t-223.5 -106q-87 0 -138.5 50.5t-51.5 141.5q0 146 95.5 255t224.5 109q87 0 137 -52.5t50 -143.5zM140 194q0 -68 33.5 -107.5t95.5 -39.5 q93 0 159 87.5t66 210.5q0 67 -32 105.5t-93 38.5q-94 0 -161.5 -87.5t-67.5 -207.5z" />
<glyph horiz-adv-x="626" d="M337 715q0 -29 -20.5 -52.5t-45.5 -23.5q-17 0 -27 11t-10 27q0 28 21.5 51t46.5 23q35 0 35 -36zM537 715q0 -29 -20.5 -52.5t-45.5 -23.5q-17 0 -27 11t-10 27q0 28 21.5 51t46.5 23q35 0 35 -36zM570 350q0 -148 -93.5 -254t-223.5 -106q-87 0 -138.5 50.5 t-51.5 141.5q0 146 95.5 255t224.5 109q87 0 137 -52.5t50 -143.5zM140 194q0 -68 33.5 -107.5t95.5 -39.5q93 0 159 87.5t66 210.5q0 67 -32 105.5t-93 38.5q-94 0 -161.5 -87.5t-67.5 -207.5z" />
<glyph horiz-adv-x="626" d="M570 350q0 -148 -93.5 -254t-223.5 -106q-87 0 -138.5 50.5t-51.5 141.5q0 146 95.5 255t224.5 109q87 0 137 -52.5t50 -143.5zM140 194q0 -68 33.5 -107.5t95.5 -39.5q93 0 159 87.5t66 210.5q0 67 -32 105.5t-93 38.5q-94 0 -161.5 -87.5t-67.5 -207.5zM281 -130 q0 -30 -21 -54t-49 -24q-18 0 -28.5 11.5t-10.5 28.5q0 29 22 52.5t49 23.5q38 0 38 -38z" />
<glyph horiz-adv-x="626" d="M436 608q-88 68 -128 156l8 13l70 14q18 -71 76 -170zM570 350q0 -148 -93.5 -254t-223.5 -106q-87 0 -138.5 50.5t-51.5 141.5q0 146 95.5 255t224.5 109q87 0 137 -52.5t50 -143.5zM140 194q0 -68 33.5 -107.5t95.5 -39.5q93 0 159 87.5t66 210.5q0 67 -32 105.5 t-93 38.5q-94 0 -161.5 -87.5t-67.5 -207.5z" />
<glyph horiz-adv-x="626" d="M435 779l2 -13q-81 -94 -183 -158l-21 13q96 91 149 170zM567 779l2 -13q-74 -88 -182 -158l-21 13q93 88 148 170zM570 350q0 -148 -93.5 -254t-223.5 -106q-87 0 -138.5 50.5t-51.5 141.5q0 146 95.5 255t224.5 109q87 0 137 -52.5t50 -143.5zM140 194 q0 -68 33.5 -107.5t95.5 -39.5q93 0 159 87.5t66 210.5q0 67 -32 105.5t-93 38.5q-94 0 -161.5 -87.5t-67.5 -207.5z" />
<glyph horiz-adv-x="626" d="M244 671l10 48h272l-10 -48h-272zM570 350q0 -148 -93.5 -254t-223.5 -106q-87 0 -138.5 50.5t-51.5 141.5q0 146 95.5 255t224.5 109q87 0 137 -52.5t50 -143.5zM140 194q0 -68 33.5 -107.5t95.5 -39.5q93 0 159 87.5t66 210.5q0 67 -32 105.5t-93 38.5 q-94 0 -161.5 -87.5t-67.5 -207.5z" />
<glyph horiz-adv-x="627" d="M570 350q0 -112 -56 -203t-145 -131q-60 -36 -94 -75.5t-34 -74.5q0 -41 43 -41q24 0 59 12l5 -30q-43 -32 -98 -32q-37 0 -58.5 19t-21.5 52q0 34 27.5 72.5t79.5 72.5q-4 0 -12 -0.5t-12 -0.5q-87 0 -138.5 50.5t-51.5 141.5q0 146 95.5 255t224.5 109q87 0 137 -52.5 t50 -143.5zM140 194q0 -68 33.5 -107.5t95.5 -39.5q93 0 159 87.5t66 210.5q0 67 -32 105.5t-93 38.5q-94 0 -161.5 -87.5t-67.5 -207.5z" />
<glyph horiz-adv-x="626" d="M570 350q0 -148 -93.5 -254t-223.5 -106q-87 0 -138.5 50.5t-51.5 141.5q0 146 95.5 255t224.5 109q87 0 137 -52.5t50 -143.5zM140 194q0 -68 33.5 -107.5t95.5 -39.5q93 0 159 87.5t66 210.5q0 67 -32 105.5t-93 38.5q-94 0 -161.5 -87.5t-67.5 -207.5z" />
<glyph horiz-adv-x="626" d="M490 774l2 -13q-79 -89 -194 -155l-21 12q104 104 149 171zM570 350q0 -148 -93.5 -254t-223.5 -106q-87 0 -138.5 50.5t-51.5 141.5q0 146 95.5 255t224.5 109q87 0 137 -52.5t50 -143.5zM140 194q0 -68 33.5 -107.5t95.5 -39.5q93 0 159 87.5t66 210.5q0 67 -32 105.5 t-93 38.5q-94 0 -161.5 -87.5t-67.5 -207.5z" />
<glyph horiz-adv-x="626" d="M332 754q28 0 66 -28.5t58 -28.5q32 0 71 54l23 -4q-14 -44 -44.5 -77t-67.5 -33q-28 0 -67.5 28t-58.5 28q-34 0 -72 -54l-22 4q15 44 45 77.5t69 33.5zM570 350q0 -148 -93.5 -254t-223.5 -106q-87 0 -138.5 50.5t-51.5 141.5q0 146 95.5 255t224.5 109q87 0 137 -52.5 t50 -143.5zM140 194q0 -68 33.5 -107.5t95.5 -39.5q93 0 159 87.5t66 210.5q0 67 -32 105.5t-93 38.5q-94 0 -161.5 -87.5t-67.5 -207.5z" />
<glyph horiz-adv-x="802" d="M571 351q0 -20 -4 -58l149 2l-13 -55l-147 3q-34 -118 -124 -188l280 3l-12 -58h-378v1q-33 -9 -68 -9q-87 0 -139 50t-52 141q0 146 95.5 255t225.5 109q36 0 61 -8h354l7 -8l-13 -50l-263 3q41 -52 41 -133zM141 196q0 -69 33.5 -108t95.5 -39q93 0 159 87.5t66 210.5 q0 67 -32 105t-93 38q-94 0 -161.5 -87t-67.5 -207z" />
<glyph horiz-adv-x="488" d="M117 0h-73l89 415q13 62 20 124h159q81 0 127 -35t46 -97q0 -93 -74 -153.5t-187 -60.5h-66zM289 486h-68l-51 -239h65q78 0 125 41t47 109q0 89 -118 89z" />
<glyph horiz-adv-x="487" d="M117 0h-73l89 415q13 62 20 124h79l-19 -90h79q81 0 127 -35t46 -97q0 -93 -73.5 -153.5t-186.5 -60.5h-66zM269 396h-68l-56 -263l6 24h66q78 0 125 41t47 110q0 41 -29.5 64.5t-90.5 23.5z" />
<glyph horiz-adv-x="626" d="M385 546q86 0 135.5 -53t49.5 -151q0 -131 -82 -232.5t-201 -116.5q59 -43 150 -74.5t181 -31.5q52 0 109 19q10 -10 10 -26q0 -59 -111 -59q-103 0 -214.5 46.5t-188.5 124.5q-75 8 -117.5 58.5t-42.5 139.5q0 140 96 248t226 108zM371 489q-95 0 -163 -87t-68 -201 q0 -73 33 -113.5t94 -40.5q94 0 161 87.5t67 202.5q0 73 -32 112.5t-92 39.5z" />
<glyph horiz-adv-x="536" d="M117 0h-73l89 415q13 62 20 124h152q85 0 132.5 -34.5t47.5 -95.5q0 -64 -42 -113.5t-112 -68.5l106 -227l-80 -7q-83 192 -94 216h-101zM289 486h-68l-48 -225h65q77 0 123.5 37.5t46.5 101.5q0 40 -29.5 63t-89.5 23z" />
<glyph horiz-adv-x="536" d="M469 774l2 -13q-80 -90 -193 -155l-22 12q104 102 149 171zM117 0h-73l89 415q13 62 20 124h152q85 0 132.5 -34.5t47.5 -95.5q0 -64 -42 -113.5t-112 -68.5l106 -227l-80 -7q-83 192 -94 216h-101zM289 486h-68l-48 -225h65q77 0 123.5 37.5t46.5 101.5q0 40 -29.5 63 t-89.5 23z" />
<glyph horiz-adv-x="536" d="M489 789l20 -17q-91 -96 -137 -157l-62 -6q-34 86 -78 163l27 17q40 -42 95 -118q75 71 135 118zM117 0h-73l89 415q13 62 20 124h152q85 0 132.5 -34.5t47.5 -95.5q0 -64 -42 -113.5t-112 -68.5l106 -227l-80 -7q-83 192 -94 216h-101zM289 486h-68l-48 -225h65 q77 0 123.5 37.5t46.5 101.5q0 40 -29.5 63t-89.5 23z" />
<glyph horiz-adv-x="536" d="M117 0h-73l89 415q13 62 20 124h152q85 0 132.5 -34.5t47.5 -95.5q0 -64 -42 -113.5t-112 -68.5l106 -227l-80 -7q-83 192 -94 216h-101zM289 486h-68l-48 -225h65q77 0 123.5 37.5t46.5 101.5q0 40 -29.5 63t-89.5 23zM120 -299q40 52 60 94q-17 1 -26.5 13t-7.5 30 q2 24 20.5 44.5t44.5 20.5q20 0 30.5 -12t8.5 -35q-6 -70 -108 -174z" />
<glyph horiz-adv-x="536" d="M117 0h-73l89 415q13 62 20 124h152q85 0 132.5 -34.5t47.5 -95.5q0 -64 -42 -113.5t-112 -68.5l106 -227l-80 -7q-83 192 -94 216h-101zM289 486h-68l-48 -225h65q77 0 123.5 37.5t46.5 101.5q0 40 -29.5 63t-89.5 23zM252 -130q0 -30 -21 -54t-49 -24q-18 0 -28.5 11.5 t-10.5 28.5q0 29 22 52.5t49 23.5q18 0 28 -10.5t10 -27.5z" />
<glyph horiz-adv-x="463" d="M381 163q0 -73 -64.5 -122t-161.5 -49q-85 0 -142 29l21 63q57 -34 139 -34q58 0 95 28t37 71q0 26 -21.5 47t-52.5 37t-62 33t-52.5 44.5t-21.5 62.5q0 74 65 124t160 50q79 0 130 -24l-24 -64q-50 30 -118 30q-59 0 -97.5 -28t-38.5 -72q0 -27 21.5 -48t52 -37.5 t61.5 -33.5t52.5 -44.5t21.5 -62.5z" />
<glyph horiz-adv-x="463" d="M434 774l1 -13q-80 -90 -193 -155l-21 12q104 104 148 171zM381 163q0 -73 -64.5 -122t-161.5 -49q-85 0 -142 29l21 63q57 -34 139 -34q58 0 95 28t37 71q0 26 -21.5 47t-52.5 37t-62 33t-52.5 44.5t-21.5 62.5q0 74 65 124t160 50q79 0 130 -24l-24 -64q-50 30 -118 30 q-59 0 -97.5 -28t-38.5 -72q0 -27 21.5 -48t52 -37.5t61.5 -33.5t52.5 -44.5t21.5 -62.5z" />
<glyph horiz-adv-x="463" d="M453 789l20 -17q-84 -89 -137 -157l-62 -6q-34 86 -78 163l27 17q40 -42 95 -118q86 80 135 118zM381 163q0 -73 -64.5 -122t-161.5 -49q-85 0 -142 29l21 63q57 -34 139 -34q58 0 95 28t37 71q0 26 -21.5 47t-52.5 37t-62 33t-52.5 44.5t-21.5 62.5q0 74 65 124t160 50 q79 0 130 -24l-24 -64q-50 30 -118 30q-59 0 -97.5 -28t-38.5 -72q0 -27 21.5 -48t52 -37.5t61.5 -33.5t52.5 -44.5t21.5 -62.5z" />
<glyph horiz-adv-x="463" d="M258 -106q0 -43 -51 -72t-120 -34l3 31q106 20 106 65q0 28 -58 32l-7 16l32 60h-8q-85 0 -142 29l21 63q57 -34 139 -34q58 0 95 28t37 71q0 26 -21.5 47t-52.5 37t-62 33t-52.5 44.5t-21.5 62.5q0 74 65 124t160 50q79 0 130 -24l-24 -64q-50 30 -118 30 q-59 0 -97.5 -28t-38.5 -72q0 -27 21.5 -48t52 -37.5t61.5 -33.5t52.5 -44.5t21.5 -62.5q0 -62 -47.5 -107.5t-123.5 -58.5l-24 -45q72 -11 72 -58z" />
<glyph horiz-adv-x="463" d="M210 604l-20 18q75 78 137 156l62 6q34 -87 78 -162l-27 -18q-44 48 -95 118q-78 -72 -135 -118zM381 163q0 -73 -64.5 -122t-161.5 -49q-85 0 -142 29l21 63q57 -34 139 -34q58 0 95 28t37 71q0 26 -21.5 47t-52.5 37t-62 33t-52.5 44.5t-21.5 62.5q0 74 65 124t160 50 q79 0 130 -24l-24 -64q-50 30 -118 30q-59 0 -97.5 -28t-38.5 -72q0 -27 21.5 -48t52 -37.5t61.5 -33.5t52.5 -44.5t21.5 -62.5z" />
<glyph horiz-adv-x="463" d="M381 163q0 -73 -64.5 -122t-161.5 -49q-85 0 -142 29l21 63q57 -34 139 -34q58 0 95 28t37 71q0 26 -21.5 47t-52.5 37t-62 33t-52.5 44.5t-21.5 62.5q0 74 65 124t160 50q79 0 130 -24l-24 -64q-50 30 -118 30q-59 0 -97.5 -28t-38.5 -72q0 -27 21.5 -48t52 -37.5 t61.5 -33.5t52.5 -44.5t21.5 -62.5zM83 -299q43 56 60 94q-36 2 -33 43q2 24 20.5 44.5t44.5 20.5q19 0 29.5 -12t8.5 -35q-5 -70 -107 -174z" />
<glyph horiz-adv-x="463" d="M381 163q0 -73 -64.5 -122t-161.5 -49q-85 0 -142 29l21 63q57 -34 139 -34q58 0 95 28t37 71q0 26 -21.5 47t-52.5 37t-62 33t-52.5 44.5t-21.5 62.5q0 74 65 124t160 50q79 0 130 -24l-24 -64q-50 30 -118 30q-59 0 -97.5 -28t-38.5 -72q0 -27 21.5 -48t52 -37.5 t61.5 -33.5t52.5 -44.5t21.5 -62.5zM216 -130q0 -30 -21.5 -54t-49.5 -24q-18 0 -28.5 11.5t-10.5 28.5q0 29 22 52.5t49 23.5q39 0 39 -38z" />
<glyph d="M94 -10l-66 10q34 53 53 136l48 225q19 88 83 137t145 49q73 0 118 -34.5t40 -92.5l-169 -131q68 -15 112.5 -49t44.5 -87q0 -68 -56.5 -114.5t-139.5 -46.5q-62 0 -97 18l13 61q38 -21 94 -21q49 0 79.5 25.5t30.5 65.5q0 81 -165 114l7 31l169 135q-6 32 -30.5 49.5 t-62.5 17.5q-51 0 -92 -34.5t-55 -95.5l-48 -227q-20 -90 -56 -141z" />
<glyph horiz-adv-x="513" d="M241 0h-73l103 485q-89 -2 -177 -6l17 60h415l-8 -60q-86 4 -174 6z" />
<glyph horiz-adv-x="513" d="M241 0h-73l53 249h-146l9 44h147l40 192q-89 -2 -177 -6l17 60h415l-8 -60q-86 4 -174 6l-41 -192h147l-9 -44h-147z" />
<glyph horiz-adv-x="513" d="M477 789l19 -17q-84 -89 -137 -157l-61 -6q-36 87 -78 163l27 17q44 -46 94 -118q87 80 136 118zM241 0h-73l103 485q-89 -2 -177 -6l17 60h415l-8 -60q-86 4 -174 6z" />
<glyph horiz-adv-x="513" d="M241 0h-18l-25 -48q72 -11 72 -58q0 -43 -51 -72t-120 -34l4 31q105 20 105 65q0 28 -58 32l-7 16l36 68h-11l103 485q-89 -2 -177 -6l17 60h415l-8 -60q-86 4 -174 6z" />
<glyph horiz-adv-x="513" d="M241 0h-73l103 485q-89 -2 -177 -6l17 60h415l-8 -60q-86 4 -174 6zM95 -299q43 55 61 94q-37 2 -34 43q2 24 20.5 44.5t44.5 20.5q19 0 29.5 -12t8.5 -35q-5 -70 -107 -174z" />
<glyph horiz-adv-x="513" d="M241 0h-73l103 485q-89 -2 -177 -6l17 60h415l-8 -60q-86 4 -174 6zM228 -130q0 -30 -21.5 -54t-49.5 -24q-18 0 -28.5 11.5t-10.5 28.5q0 28 22.5 52t48.5 24q39 0 39 -38z" />
<glyph horiz-adv-x="580" d="M125 414q15 76 17 127l78 6l4 -6l-76 -360q-13 -62 16.5 -96t88.5 -34q60 0 104.5 34t57.5 96l51 244q15 72 17 116l79 6l-78 -369q-19 -89 -88.5 -137.5t-160.5 -48.5q-88 0 -133.5 49t-27.5 137z" />
<glyph horiz-adv-x="580" d="M495 774l2 -13q-80 -90 -193 -155l-22 12q104 102 149 171zM125 414q15 76 17 127l78 6l4 -6l-76 -360q-13 -62 16.5 -96t88.5 -34q60 0 104.5 34t57.5 96l51 244q15 72 17 116l79 6l-78 -369q-19 -89 -88.5 -137.5t-160.5 -48.5q-88 0 -133.5 49t-27.5 137z" />
<glyph horiz-adv-x="580" d="M492 767h33q-23 -64 -66 -101.5t-95 -37.5q-50 0 -76 36t-20 99l35 5q2 -38 22.5 -60t56.5 -22q32 0 62 22t48 59zM125 414q15 76 17 127l78 6l4 -6l-76 -360q-13 -62 16.5 -96t88.5 -34q60 0 104.5 34t57.5 96l51 244q15 72 17 116l79 6l-78 -369q-19 -89 -88.5 -137.5 t-160.5 -48.5q-88 0 -133.5 49t-27.5 137z" />
<glyph horiz-adv-x="580" d="M515 789l20 -17q-91 -96 -137 -157l-62 -6q-34 86 -78 163l27 17q40 -42 95 -118q75 71 135 118zM125 414q15 76 17 127l78 6l4 -6l-76 -360q-13 -62 16.5 -96t88.5 -34q60 0 104.5 34t57.5 96l51 244q15 72 17 116l79 6l-78 -369q-19 -89 -88.5 -137.5t-160.5 -48.5 q-88 0 -133.5 49t-27.5 137z" />
<glyph horiz-adv-x="580" d="M271 604l-19 18q75 78 137 156l61 6q31 -79 78 -162l-27 -18q-47 51 -94 118q-79 -74 -136 -118zM125 414q15 76 17 127l78 6l4 -6l-76 -360q-13 -62 16.5 -96t88.5 -34q60 0 104.5 34t57.5 96l51 244q15 72 17 116l79 6l-78 -369q-19 -89 -88.5 -137.5t-160.5 -48.5 q-88 0 -133.5 49t-27.5 137z" />
<glyph horiz-adv-x="580" d="M342 715q0 -29 -20.5 -52.5t-45.5 -23.5q-17 0 -27 11t-10 27q0 28 21.5 51t47.5 23q16 0 25 -9.5t9 -26.5zM542 715q0 -29 -20.5 -52.5t-45.5 -23.5q-17 0 -27 11t-10 27q0 28 21.5 51t46.5 23q35 0 35 -36zM125 414q15 76 17 127l78 6l4 -6l-76 -360q-13 -62 16.5 -96 t88.5 -34q60 0 104.5 34t57.5 96l51 244q15 72 17 116l79 6l-78 -369q-19 -89 -88.5 -137.5t-160.5 -48.5q-88 0 -133.5 49t-27.5 137z" />
</font>
</defs>
</svg>
