<?xml version="1.0" standalone="no"?>
<!DOCTYPE svg PUBLIC "-//W3C//DTD SVG 1.1//EN" "http://www.w3.org/Graphics/SVG/1.1/DTD/svg11.dtd" >
<svg xmlns="http://www.w3.org/2000/svg" xmlns:xlink="http://www.w3.org/1999/xlink" version="1.1">
<metadata></metadata>
<defs>
<font id="indivisa_text_serifBdIt" horiz-adv-x="594" >
<font-face units-per-em="1000" ascent="800" descent="-200" />
<missing-glyph horiz-adv-x="250" />
<glyph unicode="&#xfb00;" horiz-adv-x="643" d="M204 8q-27 -126 -93 -196t-153 -70q-47 0 -76.5 19.5t-29.5 49.5q0 32 28 44q35 -46 79 -46t73 43.5t48 133.5l97 457h-67l2 17l74 27l5 22q22 100 96 164.5t164 64.5q43 0 77.5 -15.5t50.5 -39.5q73 75 164 75q49 0 80.5 -22.5t31.5 -54.5q0 -25 -15.5 -42.5 t-36.5 -24.5q-49 81 -101 81q-14 0 -25 -4.5t-19 -15.5t-13.5 -21t-11 -29.5t-8 -32t-7.5 -39t-8 -39.5l-7 -30h123l-8 -41h-123l-92 -435q-27 -126 -88.5 -196t-143.5 -70q-40 0 -65.5 19.5t-25.5 49.5q0 32 29 44q28 -46 62 -46q39 0 63.5 42.5t43.5 134.5l97 457h-179z M308 501l-3 -17h179l5 25q13 56 34 97q-35 69 -105 69q-13 0 -24 -2.5t-20 -8.5t-15.5 -11.5t-12.5 -18t-9.5 -20t-8 -25t-7 -26t-7 -31t-6.5 -31.5z" />
<glyph unicode="&#xfb03;" horiz-adv-x="876" d="M204 8q-27 -126 -93 -196t-153 -70q-47 0 -76.5 19.5t-29.5 49.5q0 32 28 44q35 -46 79 -46t73 43.5t48 133.5l97 457h-67l2 17l74 27l5 22q22 100 96 164.5t164 64.5q44 0 78.5 -16t50.5 -41q79 77 179 77q62 0 102 -30t40 -75q0 -27 -24.5 -44.5t-63.5 -17.5 q-31 104 -98 104q-17 0 -31 -5.5t-24.5 -19.5t-17 -25.5t-13 -36.5t-9.5 -38t-9 -44t-8 -42h161q55 0 83 -21.5t28 -59.5q0 -13 -5 -40.5t-11 -53t-17.5 -75t-18.5 -80.5q-11 -50 -11 -64q0 -23 18 -23q26 0 83 68l9 -8q-27 -55 -68 -96t-88 -41q-36 0 -55.5 21.5 t-19.5 59.5q0 28 13 83q10 47 25.5 112.5t22 97t6.5 44.5q0 35 -45 35h-118l-92 -435q-27 -126 -88.5 -196t-143.5 -70q-40 0 -65.5 19.5t-25.5 49.5q0 32 29 44q28 -46 62 -46q39 0 63.5 42.5t43.5 134.5l97 457h-179zM308 501l-3 -17h179l5 25q12 51 35 96q-34 70 -106 70 q-12 0 -22.5 -2.5t-18 -5.5t-15 -11t-12 -13.5t-10 -18t-8 -19.5t-7 -23.5t-6 -24t-5.5 -28t-6 -28.5z" />
<glyph unicode="&#xfb04;" horiz-adv-x="903" d="M204 8q-27 -126 -93 -196t-153 -70q-47 0 -76.5 19.5t-29.5 49.5q0 32 28 44q35 -46 79 -46t73 43.5t48 133.5l97 457h-67l2 17l74 27l5 22q22 100 96 164.5t164 64.5q45 0 79.5 -16.5t50.5 -41.5q80 78 180 78q46 0 75 -19q54 13 108 18l8 -9l-130 -594q-10 -54 -10 -64 q0 -23 17 -23q27 0 84 68l9 -8q-28 -55 -69 -96t-87 -41q-36 0 -55.5 21.5t-19.5 59.5q0 25 12 83l107 492q-36 49 -90 49q-21 0 -37.5 -10t-26 -21.5t-19 -39t-13 -43.5t-11.5 -53q-2 -9 -3 -14l-7 -30h132l-12 -41h-128l-92 -435q-27 -126 -93 -196t-154 -70 q-47 0 -76.5 19.5t-29.5 49.5q0 32 29 44q35 -46 78 -46q45 0 74 43.5t47 133.5l97 457h-179zM308 501l-3 -17h179l5 25q10 52 35 95q-34 71 -106 71q-12 0 -22.5 -2.5t-18 -5.5t-15 -11t-12 -13.5t-10 -18t-8 -19.5t-7 -23.5t-6 -24t-5.5 -28t-6 -28.5z" />
<glyph unicode="fi" horiz-adv-x="577" d="M204 8q-26 -126 -92 -196t-154 -70q-47 0 -76.5 19.5t-29.5 49.5q0 32 28 44q35 -46 79 -46t73 43.5t48 133.5l97 457h-67l2 17l74 27l5 22q23 110 98 179.5t171 69.5q62 0 102 -30t40 -75q0 -26 -24.5 -44t-62.5 -18q-31 104 -98 104q-20 0 -35.5 -9.5t-25 -22.5 t-18 -37.5t-12.5 -42t-10.5 -50.5t-10.5 -49h160q55 0 83.5 -21.5t28.5 -59.5q0 -11 -2.5 -28.5t-8.5 -44t-11.5 -49t-15 -62t-15.5 -65.5q-10 -54 -10 -64q0 -23 17 -23q27 0 84 68l9 -8q-28 -55 -69 -96t-87 -41q-36 0 -55.5 21.5t-19.5 59.5q0 25 12 83q11 49 26 113 t22 96.5t7 44.5q0 35 -45 35h-119z" />
<glyph unicode="fl" horiz-adv-x="605" d="M204 8q-27 -126 -93 -196t-153 -70q-47 0 -76.5 19.5t-29.5 49.5q0 32 28 44q35 -46 79 -46t73 43.5t48 133.5l97 457h-67l2 17l74 27l5 22q22 109 99.5 179t171.5 70q46 0 76 -19q55 13 108 18l8 -9l-130 -594q-11 -59 -11 -64q0 -23 18 -23q26 0 83 68l9 -8 q-27 -55 -68 -96t-88 -41q-36 0 -55 21.5t-19 59.5q0 32 12 83l107 492q-38 49 -90 49q-58 0 -85 -75q-9 -27 -26 -106l-6 -30h117l-9 -41h-117z" />
<glyph unicode="&#x2f;symbol&#x33;&#x2f;" horiz-adv-x="957" d="M505 638l68 -270h270l-203 -135l136 -270l-271 135l-270 -270l135 405l-270 203l338 -68zM814 87q18 0 30.5 -12.5t12.5 -31.5q0 -18 -12.5 -30.5t-30.5 -12.5t-30.5 12.5t-12.5 30.5q0 19 12.5 31.5t30.5 12.5zM854 43q0 17 -11.5 29t-28.5 12t-28.5 -12t-11.5 -29 t12 -28.5t28 -11.5t28 11.5t12 28.5zM796 68h18q8 0 11 -2q6 -3 6 -10q0 -5 -4 -9q-3 -3 -6 -3q7 -3 8 -10q2 -14 3 -16h-7q-1 2 -2 7.5t-1 6.5q0 9 -10 9h-9v-23h-7v50zM803 47h10q5 0 7 1q3 3 3 6q0 9 -10 9h-10v-16z" />
<glyph unicode="&#x2f;symbol&#x32;&#x2f;" horiz-adv-x="932" d="M494 570l52 -90l-137 -240h-103l137 240l-52 90h103zM357 570l52 -90l-138 -240h-103l138 240l-52 90h103zM752 120h-103l-137 240l51 90l137 -240h103zM683 0h-103l-137 240l51 90l138 -240h103zM100 120l51 90h275l51 -90h-274l-52 -90zM168 0l52 90h274l52 -90h-275 l-51 -90zM789 88q18 0 30.5 -13t12.5 -31t-12.5 -31t-30.5 -13t-30.5 13t-12.5 31t12.5 31t30.5 13zM829 44q0 16 -11.5 28t-28.5 12t-28.5 -12t-11.5 -28t11.5 -28t28.5 -12t28.5 12t11.5 28zM771 69h18q7 0 11 -2q5 -4 5 -11q0 -5 -3 -8q-1 -2 -6 -4q7 -1 8 -9q0 -8 3 -16 h-8q-1 2 -1.5 6.5t-0.5 6.5q-1 10 -11 10h-8v-23h-7v50zM778 47h10q5 0 7 1q3 3 3 7q0 8 -10 8h-10v-16z" />
<glyph unicode="&#x2f;symbol&#x35;&#x2f;" horiz-adv-x="705" d="M232 -6l-132 136l124 234l129 -136zM474 -6l-121 234l128 136l124 -234z" />
<glyph unicode="&#x2f;symbol&#x31;&#x2f;" horiz-adv-x="5534" d="M1865 412q-25 0 -40.5 14.5t-15.5 37.5q0 35 32.5 64t70.5 29q24 0 39 -13.5t15 -37.5q0 -36 -31 -65t-70 -29zM1284 412q-26 0 -41.5 14.5t-15.5 37.5q0 35 33 64t71 29q24 0 38.5 -13.5t14.5 -37.5q0 -36 -31 -65t-69 -29zM959 0q0 42 11 108q-16 -50 -51.5 -82.5 t-78.5 -32.5q-41 0 -63 29.5t-22 82.5q0 62 27 121t84 101t132 42q17 0 25 -1l16 73l6 102l136 7q0 -67 -46 -273t-46 -277h-130zM100 0l78 364q17 86 21 136l128 7l11 -15l-104 -492h-134zM3503 492l-57 -492h-131l20 175q5 50 33 215h-3q-31 -102 -81 -215l-76 -175h-149 l-2 175q-2 121 9 215h-2q-32 -130 -59 -215l-53 -175h-109l154 500l184 6l1 -137q2 -134 -15 -259h2q39 126 94 259l56 131l169 7zM5316 300q-37 -177 -37 -183q0 -34 36 -34q25 0 59 18l-9 -79q-52 -29 -114 -29q-105 0 -105 100q0 20 40 210l-47 1l9 44l54 14l53 95l81 6 l13 -15l-20 -86h99l6 -14l-17 -51zM3936 0q0 74 42 260l5 102l137 7q0 -31 -7 -89h2q53 89 134 89q34 0 53 -19.5t19 -51.5q0 -27 -26 -147q-18 -85 -18 -151h-131q0 55 19 150q15 71 15 87q0 24 -17 24q-34 0 -64 -82.5t-32 -178.5h-131zM3768 369q87 0 145 -32l-28 -128 q-31 -145 -31 -209h-130q0 45 12 112q-15 -52 -51 -85.5t-81 -33.5q-41 0 -63 29.5t-22 83.5q0 46 16 91.5t46 84t79 63t108 24.5zM4653 51q-67 -58 -159 -58q-65 0 -103.5 35t-38.5 102q0 94 68.5 166.5t167.5 72.5q54 0 86.5 -23.5t32.5 -64.5q0 -57 -60 -96.5t-161 -43.5 v-1q0 -64 63 -64q42 0 90 28zM2525 369q88 0 146 -32l-29 -128q-31 -145 -31 -209h-130q0 37 12 112q-15 -52 -51 -85.5t-81 -33.5q-41 0 -62.5 29.5t-21.5 83.5q0 62 26.5 120.5t85 100.5t136.5 42zM2245 256q-52 30 -97 30q-18 0 -30 -7t-12 -19q0 -14 20 -26.5t44 -22 t44 -33t20 -56.5q0 -57 -53 -93t-128 -36q-78 0 -118 28l27 93q57 -38 111 -38q19 0 29.5 7.5t10.5 18.5q0 13 -20 26t-44 23t-44 33t-20 55q0 56 54.5 93t128.5 37q58 0 104 -18zM4716 0q0 79 41 260l6 102l137 7q0 -12 -7 -89h2q52 89 134 89q34 0 53 -19.5t19 -51.5 q0 -27 -26 -147q-19 -90 -19 -151h-130q0 55 19 150q15 78 15 87q0 24 -17 24q-35 0 -65 -82t-32 -179h-130zM1752 0q0 69 26 193l15 67l6 102l137 7q0 -46 -27 -177t-27 -192h-130zM1399 362l140 7q13 -129 -5 -289h2q76 151 91 284q22 5 50 5q32 0 48.5 -8.5t16.5 -33.5 q0 -46 -51 -147.5t-116 -179.5h-149q-5 228 -27 362zM1170 0q0 72 27 193l14 67l6 102l137 7q0 -46 -27 -177t-27 -192h-130zM336 0q0 79 41 260l6 102l137 7q0 -31 -7 -89h2q52 89 134 89q34 0 53 -19.5t19 -51.5q0 -27 -26 -147q-18 -85 -18 -151h-131q0 55 19 150 q15 78 15 87q0 24 -17 24q-34 0 -64 -82.5t-32 -178.5h-131zM4490 177q47 10 73 34t26 59q0 31 -22 31q-28 0 -48.5 -38.5t-28.5 -85.5zM2435 101q23 0 47 43.5t37 100.5q3 14 9 44q-14 8 -27 8q-34 0 -62 -54.5t-28 -101.5q0 -40 24 -40zM913 101q22 0 44.5 39.5t37.5 94.5 q1 9 8 40l3 14q-14 8 -27 8q-33 0 -61.5 -54.5t-28.5 -101.5q0 -40 24 -40zM3677 101q23 0 47 43t38 101q1 8 4.5 24.5t4.5 19.5q-16 8 -27 8q-34 0 -62.5 -54.5t-28.5 -101.5q0 -40 24 -40z" />
<glyph unicode="&#x2f;symbol&#x34;&#x2f;" horiz-adv-x="2607" d="M1684 406q0 65 -11 128l126 14l15 -15v-533h-130v406zM1889 406q0 62 -10 128l126 14l14 -15v-533h-130v406zM427 101v-101h-320v362q0 80 -7 135l126 7l14 -14v-396zM925 21l7 109q62 -36 144 -36q50 0 50 36q0 20 -31.5 41.5t-69 40.5t-69 57t-31.5 88q0 69 55 108 t138 39q80 0 127 -18l-14 -111q-56 29 -111 29q-27 0 -42.5 -11t-15.5 -29q0 -20 20.5 -38t50 -34t59.5 -35t50.5 -51t20.5 -72q0 -66 -53.5 -103.5t-139.5 -37.5q-41 0 -83.5 8t-61.5 20zM2405 213q0 -24 -1 -36l-11 -11h-191q14 -83 98 -83q44 0 84 21l7 -81 q-46 -30 -127 -30q-90 0 -144 47.5t-54 134.5q0 85 52 139t132 54q72 0 113.5 -43t41.5 -112zM795 0l-106 -7q-11 16 -21 49h-4q-34 -49 -104 -49q-43 0 -70 23t-27 66q0 113 191 118v20q0 54 -58 54q-55 0 -108 -29l-8 97q72 26 150 26q154 0 154 -135q0 -25 -2 -69t-2 -70 q0 -51 15 -94zM1626 0l-107 -7q-12 20 -21 49h-3q-34 -49 -105 -49q-43 0 -69.5 23t-26.5 66q0 113 191 118v20q0 54 -58 54q-54 0 -109 -29l-7 97q72 26 150 26q153 0 153 -135q0 -25 -1.5 -69.5t-1.5 -69.5q0 -51 15 -94zM2199 207l78 4q2 14 2 26q0 59 -34 59 q-44 0 -46 -89zM654 74v88q-29 -3 -47 -18t-18 -39q0 -18 10 -29t27 -11q16 0 28 9zM1485 74v88q-29 -3 -47 -18t-18 -39q0 -18 10 -29t27 -11q16 0 28 9zM2464 85q18 0 30.5 -13t12.5 -31t-12.5 -31t-30.5 -13t-31 13t-13 31t13 31t31 13zM2504 41q0 17 -12 28.5t-28 11.5 t-28 -11.5t-12 -28.5t12 -28.5t28 -11.5t28 11.5t12 28.5zM2446 66h18q7 0 11 -3q5 -3 5 -10q0 -5 -3 -9q-3 -3 -6 -3q7 -1 8 -10q0 -7 3 -15h-8q-1 2 -1.5 6.5t-0.5 6.5q-1 9 -11 9h-8v-22h-7v50zM2453 44h10q5 0 7 1q3 3 3 7q0 8 -10 8h-10v-16z" />
<glyph unicode=" "  horiz-adv-x="250" />
<glyph unicode="&#x09;" horiz-adv-x="250" />
<glyph unicode="&#xa0;" horiz-adv-x="250" />
<glyph unicode="!" horiz-adv-x="318" d="M224 683l7 5q50 8 87 8q34 0 34 -23q0 -15 -12 -55l-125 -412h-49zM149 -10q-24 0 -38.5 14.5t-14.5 38.5q0 34 24 58.5t57 24.5q23 0 37.5 -14t14.5 -38q0 -34 -24 -59t-56 -25z" />
<glyph unicode="&#x22;" horiz-adv-x="419" d="M201 753l5 5q68 0 108 -17l5 -14l-130 -277l-34 7l23 141zM397 753l5 5q69 0 107 -17l5 -14l-130 -277l-34 7l24 141z" />
<glyph unicode="#" horiz-adv-x="708" d="M250 -10l-59 9l-8 8l43 174h-131l-8 8l9 58h147l48 194h-129l-8 8l9 58h145l47 191l59 -10l8 -8l-43 -173h160l47 191l59 -10l8 -8l-43 -173h128l8 -8l-8 -58h-145l-48 -194h131l8 -8l-8 -58h-148l-47 -191l-59 9l-8 8l43 174h-160zM314 247h160l48 194h-160z" />
<glyph unicode="$" horiz-adv-x="530" d="M258 -137l-49 -3l-6 8l27 123q-58 2 -103.5 12t-54.5 24q-6 14 -6 28q0 30 15 71t38 74l24 -2v-24q0 -70 22 -102q26 -39 90 -39q56 0 93 38t37 93q0 38 -24 71.5t-58 61t-68 55.5t-58 68t-24 86q0 80 67.5 132.5t162.5 58.5l27 130l48 3l6 -8l-27 -125q98 -7 126 -35 q7 -6 7 -21q0 -27 -16.5 -72.5t-39.5 -78.5l-23 1q0 6 0.5 15.5t0.5 13.5q0 63 -14 88q-23 46 -84 46q-52 0 -87 -34t-35 -85q0 -38 24 -72t58 -61.5t68 -56t58 -67.5t24 -83q0 -82 -59.5 -138t-159.5 -65z" />
<glyph unicode="%" horiz-adv-x="1001" d="M519 549q0 -105 -69 -185t-162 -80q-67 0 -106 41.5t-39 112.5q0 107 70 186t163 79q67 0 105 -41.5t38 -112.5zM871 698l-574 -708h-57l573 708h58zM234 410q0 -43 15.5 -68.5t44.5 -25.5q38 0 70 44t48.5 104.5t16.5 116.5q0 90 -59 90q-38 0 -70.5 -43t-49 -102.5 t-16.5 -115.5zM984 255q0 -104 -69 -184.5t-162 -80.5q-67 0 -105.5 42t-38.5 113q0 106 69.5 185.5t162.5 79.5q67 0 105 -41.5t38 -113.5zM700 116q0 -43 15.5 -68t44.5 -25q56 0 95 87t39 177t-59 90q-56 0 -95.5 -85.5t-39.5 -175.5z" />
<glyph unicode="&#x26;" horiz-adv-x="817" d="M767 90q0 -45 -20 -72.5t-52 -27.5q-29 0 -54 18l-7 15q37 52 47 112q-8 3 -38.5 12t-46.5 14q-108 -171 -293 -171q-94 0 -150.5 46.5t-56.5 123.5q0 72 51 129t130 78q-29 52 -29 112q0 93 66.5 156t166.5 63q72 0 112.5 -28t40.5 -75q0 -32 -18 -58t-48 -40 q45 -4 100 -4q114 0 153 19l9 -2q14 -17 14 -45q0 -22 -15.5 -35.5t-43.5 -13.5q-59 0 -101 5q-12 -97 -50 -188q38 -18 58 -27q75 -30 75 -116zM371 511q0 -81 55.5 -140.5t159.5 -113.5q34 80 40 171q-48 8 -125 26l-10 16q48 57 48 117q0 67 -64 67q-45 0 -74.5 -40.5 t-29.5 -102.5zM221 192q0 -54 35 -88t95 -34q114 0 192 110q-173 66 -243 155q-79 -57 -79 -143z" />
<glyph unicode="'" horiz-adv-x="224" d="M198 753l6 5q69 0 107 -17l5 -14l-130 -277l-34 7l24 141z" />
<glyph unicode="(" horiz-adv-x="390" d="M311 -179l-16 -17q-168 119 -168 352q0 187 99.5 351t269.5 251l11 -18q-120 -102 -191 -275.5t-71 -339.5q0 -187 66 -304z" />
<glyph unicode=")" horiz-adv-x="391" d="M175 741l16 17q168 -120 168 -352q0 -187 -100 -351t-269 -251l-11 18q120 102 191 275.5t71 339.5q0 187 -66 304z" />
<glyph unicode="*" horiz-adv-x="393" d="M321 515q-2 -35 -33 -35q-23 0 -23 21q0 10 5.5 25.5t15.5 38.5t15 36q-17 -11 -40 -29.5t-37.5 -27.5t-24.5 -9q-8 0 -14 7t-6 17q0 17 19 27q13 7 46.5 17t49.5 16q-15 7 -42 15.5t-38.5 15.5t-11.5 19q0 14 9.5 24t22.5 10q10 0 20.5 -9.5t26.5 -27.5t27 -28v2 q0 36 3 83q3 35 33 35q23 0 23 -21q0 -10 -5.5 -25.5t-16 -38.5t-14.5 -35q16 10 39 28.5t37.5 27.5t24.5 9q20 0 20 -23q0 -18 -18 -28q-12 -6 -46 -16t-51 -17q15 -7 42 -15.5t39 -15.5t12 -20t-10 -23t-22 -10q-9 0 -19.5 8.5t-28 27t-26.5 27.5v-1q0 -52 -3 -82z" />
<glyph unicode="+" d="M284 135l-4 4l37 174h-183l13 63q47 1 184 3l36 174h63l4 -5l-35 -168q70 1 180 1l6 -8l-21 -60h-180l-37 -178h-63z" />
<glyph unicode="," horiz-adv-x="297" d="M19 -184l-9 9q80 77 113 170q-40 16 -40 62q0 34 26 60.5t62 26.5q29 0 48 -20.5t19 -53.5q0 -63 -66 -139t-153 -115z" />
<glyph unicode="-" horiz-adv-x="394" d="M77 251l8 43h324l-8 -43h-324z" />
<glyph unicode="." horiz-adv-x="277" d="M218 80q0 -37 -25.5 -63.5t-61.5 -26.5q-31 0 -49.5 19t-18.5 47q0 34 27 61t63 27q29 0 47 -18t18 -46z" />
<glyph unicode="/" horiz-adv-x="401" d="M127 -10l-11 -3l-54 27l345 741l12 4l55 -28z" />
<glyph unicode="0" horiz-adv-x="608" d="M639 455q0 -118 -45 -225t-124 -173.5t-172 -66.5q-92 0 -148 65.5t-56 176.5q0 116 45 223t125.5 175t173.5 68q95 0 148 -66t53 -177zM209 183q1 -67 27 -107t74 -40q60 0 111.5 81t77 186.5t25.5 196.5q0 152 -96 152q-64 0 -117 -79.5t-78.5 -186t-23.5 -203.5z" />
<glyph unicode="1" horiz-adv-x="364" d="M319 0h-297l-2 18l48 12q29 8 43 19t19 32l5 26l107 504l-90 14l2 17l217 56l7 -9l-123 -582l-13 -61l83 -28z" />
<glyph unicode="2" horiz-adv-x="514" d="M53 -10l-18 61q209 161 298 264.5t89 179.5q0 49 -27 78t-77 29q-95 0 -166 -89l-15 8q31 79 98 128t147 49q78 0 124 -45t46 -121q0 -54 -23.5 -105.5t-71.5 -100t-97.5 -87.5t-124.5 -89q-76 -50 -86 -56q37 10 81 10q35 0 102 -6.5t85 -6.5q22 0 45 36q10 18 24 42 l12 -6q-15 -61 -26 -90q-30 -83 -73 -83q-29 0 -110.5 13.5t-129.5 13.5q-60 0 -106 -27z" />
<glyph unicode="3" horiz-adv-x="450" d="M448 232q0 -100 -119 -164.5t-323 -77.5l-3 27q141 29 234 84.5t93 129.5q0 45 -31 67.5t-85 22.5q-35 0 -59 -3l-5 39q107 15 166 58t59 107q0 37 -23.5 58.5t-67.5 21.5q-45 0 -87.5 -23t-70.5 -64l-15 8q34 79 102 127t141 48q68 0 106 -35t38 -93q0 -74 -60.5 -127.5 t-154.5 -77.5q79 -6 122 -40t43 -93z" />
<glyph unicode="4" horiz-adv-x="552" d="M479 695l78 -11l-96 -453l104 2l-19 -68l-99 1l-35 -166h-119l35 167l-282 4l-1 42zM413 566l-295 -343l223 5z" />
<glyph unicode="5" horiz-adv-x="463" d="M475 244q0 -104 -118.5 -172t-320.5 -82l-3 27q136 29 226 87.5t90 135.5q0 49 -32 75.5t-90 26.5q-55 0 -101 -13l-11 12l79 351q186 -8 265 -8q31 0 45.5 11.5t30.5 45.5l13 -3q-14 -87 -34.5 -123t-69.5 -36q-98 0 -205 16l-48 -209q45 10 88 10q91 0 143.5 -40.5 t52.5 -111.5z" />
<glyph unicode="6" horiz-adv-x="548" d="M83 187q0 132 71.5 245.5t188 182.5t252.5 83l3 -28q-130 -44 -229 -132t-147 -207q62 76 164 76q74 0 115 -41.5t41 -116.5q0 -104 -76.5 -181.5t-185.5 -77.5q-88 0 -142.5 52.5t-54.5 144.5zM419 245q0 51 -20.5 79t-59.5 28q-60 0 -101.5 -61.5t-41.5 -147.5 q0 -52 20.5 -81.5t58.5 -29.5q62 0 103 64.5t41 148.5z" />
<glyph unicode="7" horiz-adv-x="458" d="M277 19q-13 -29 -51 -29q-22 0 -46 17t-34 40q210 302 322 500q-162 35 -249 35q-34 0 -50.5 -17.5t-34.5 -66.5l-13 4q15 102 37.5 149t69.5 47q129 0 274 -92q24 44 48 90q25 -6 25 -24q0 -21 -28 -87q-179 -413 -270 -566z" />
<glyph unicode="8" horiz-adv-x="538" d="M529 193q0 -92 -74.5 -147.5t-190.5 -55.5q-94 0 -150.5 39.5t-56.5 105.5q0 73 60 126.5t154 75.5q-51 40 -79 79.5t-28 91.5q0 84 72.5 137t169.5 53q80 0 127.5 -36t47.5 -95q0 -64 -47 -114t-128 -79q39 -30 61.5 -51.5t42 -56.5t19.5 -73zM281 536q0 -40 25 -71.5 t73 -70.5q46 30 76 80.5t30 94.5q0 41 -22 64t-63 23q-50 0 -84.5 -34t-34.5 -86zM171 136q0 -48 28.5 -76t77.5 -28q55 0 95 37t40 93q0 31 -19 61.5t-38.5 47t-58.5 46.5q-56 -29 -90.5 -79t-34.5 -102z" />
<glyph unicode="9" horiz-adv-x="548" d="M587 500q0 -131 -71.5 -244.5t-188 -182.5t-252.5 -83l-4 27q131 45 229.5 133t146.5 207q-62 -77 -163 -77q-74 0 -115 42t-41 116q0 104 76.5 182t185.5 78q88 0 142.5 -52.5t54.5 -145.5zM251 442q0 -106 80 -106q59 0 100.5 61.5t41.5 147.5q0 51 -20.5 81t-58.5 30 q-61 0 -102 -65t-41 -149z" />
<glyph unicode=":" horiz-adv-x="255" d="M275 401q-1 -37 -27 -63.5t-62 -26.5q-31 0 -49 19t-17 47q1 35 28 61.5t64 26.5q29 0 46.5 -18t16.5 -46zM207 80q-1 -37 -27 -63.5t-62 -26.5q-31 0 -49 19t-17 47q1 34 28.5 61t63.5 27q29 0 46.5 -18t16.5 -46z" />
<glyph unicode=";" horiz-adv-x="255" d="M275 401q-1 -37 -27 -63.5t-62 -26.5q-31 0 -49 19t-17 47q1 35 28 61.5t64 26.5q29 0 46.5 -18t16.5 -46zM-22 -184l-9 9q86 77 121 171q-40 15 -38 61q1 34 27.5 60.5t62.5 26.5q30 0 48 -20.5t17 -53.5q-2 -63 -71 -139t-158 -115z" />
<glyph unicode="&#x3c;" d="M617 580l-17 -78l-357 -169l288 -160l-16 -70q-178 89 -383 210l-2 7l9 39z" />
<glyph unicode="=" d="M585 410h-430l14 63q162 5 431 5l6 -8zM543 213h-430l14 63q162 5 431 5l6 -8z" />
<glyph unicode="&#x3e;" d="M102 103l17 78l357 169l-288 160l16 70q178 -89 383 -210l2 -7l-9 -38z" />
<glyph unicode="?" horiz-adv-x="429" d="M286 225l-9 -9q-83 3 -83 64q0 35 21.5 64.5t52 51.5t61.5 45t52.5 57.5t21.5 76.5q0 38 -18.5 59.5t-51.5 21.5q-51 0 -83.5 -45t-32.5 -103q0 -4 0.5 -12.5t0.5 -13.5q-22 -11 -52 -11q-25 0 -39.5 13.5t-14.5 37.5q0 72 71.5 124t162.5 52q82 0 128.5 -37.5 t46.5 -103.5q0 -47 -26 -85.5t-63.5 -63.5t-75 -46.5t-63.5 -46t-26 -50.5q0 -24 19 -40zM183 -10q-24 0 -39 14.5t-15 38.5q0 34 24 58.5t57 24.5q24 0 38.5 -14t14.5 -38q0 -34 -24 -59t-56 -25z" />
<glyph unicode="@" horiz-adv-x="1079" d="M821 -160q-124 -98 -304 -98q-186 0 -307.5 123t-121.5 306q0 128 51.5 240t134.5 186.5t186.5 117.5t208.5 43q183 0 298.5 -115t115.5 -291q0 -148 -87.5 -255t-213.5 -107q-80 0 -116.5 51t-25.5 131q2 8 4 23.5t4 23.5h-4q-39 -95 -93.5 -162t-111.5 -67 q-45 0 -73 39t-28 106q0 95 40 180t114.5 139t166.5 54q96 0 170 -36l-21 -69l-38 -177q-19 -76 -3.5 -125t66.5 -49q71 0 135.5 87t64.5 216q0 156 -103.5 257t-265.5 101q-92 0 -185 -39t-169 -107t-124 -170t-48 -218q0 -168 108 -280t274 -112q63 0 119 13.5t87.5 28 t76.5 40.5zM462 154q0 -72 35 -72q40 0 99.5 109.5t83.5 196.5l15 61q-21 15 -52 15q-65 0 -123 -102t-58 -208z" />
<glyph unicode="A" horiz-adv-x="691" d="M447 689h75l75 -605q2 -23 9.5 -33t24.5 -16l42 -15l-2 -20h-270l-4 20l81 27l-21 176l-225 -4l-94 -172l78 -27l-4 -20h-206l-3 20l57 20q30 10 48 43zM255 262l198 -1l-36 297z" />
<glyph unicode="B" horiz-adv-x="647" d="M639 204q0 -89 -78.5 -146.5t-217.5 -57.5h-294l-2 20l48 18q20 8 29 17t13 27l5 25l101 474l12 59l-68 28l4 20h258q99 0 156 -37.5t57 -106.5q0 -70 -49.5 -119.5t-123.5 -68.5q68 -14 109 -52.5t41 -99.5zM366 581l-45 -210h62q63 0 111 50.5t48 119.5q0 49 -31.5 76 t-91.5 27h-40zM367 330h-54l-48 -223l-14 -63h63q86 0 142.5 46.5t56.5 124.5q0 54 -39.5 84.5t-106.5 30.5z" />
<glyph unicode="C" horiz-adv-x="628" d="M389 -10q-134 0 -209.5 74t-75.5 207q0 86 32.5 165t87 136.5t129.5 91.5t156 34q103 0 164 -29q-5 -97 -45 -194h-24q-33 131 -44 166q-24 7 -49 7q-113 0 -196.5 -112t-83.5 -266q0 -106 48 -168.5t123 -62.5q20 0 53 7q52 62 122 161h24q-8 -91 -43 -192 q-80 -25 -169 -25z" />
<glyph unicode="D" horiz-adv-x="709" d="M307 0h-258l-2 20l48 18q20 8 29 17t13 27l5 25l102 474h-1l13 59l-69 28l4 20h260q128 0 204.5 -68.5t76.5 -190.5q0 -83 -28 -159t-80 -136.5t-134.5 -97t-182.5 -36.5zM366 581l-101 -474l-14 -65h55q87 0 157 59t106 151t36 196q0 95 -43.5 146.5t-130.5 51.5h-51z " />
<glyph unicode="E" horiz-adv-x="605" d="M366 581l-46 -217l195 7l-14 -56l-190 8l-46 -216l-14 -66h120q56 0 85 5q10 14 22 33t34.5 55.5t45.5 72.5h24q-2 -110 -42 -207h-491l-2 20l48 18q20 8 29 17t13 27l5 25l101 474l12 59l-68 28l4 20h468q-1 -90 -46 -208h-24q-25 125 -34 162q-34 4 -83 4h-92z" />
<glyph unicode="F" horiz-adv-x="550" d="M252 48l89 -28l-4 -20h-289l-2 20l48 18q19 8 29 17.5t13 26.5l6 25l100 474l13 59l-69 28l4 20h469q-2 -95 -46 -208h-23l-15 80q-7 43 -19 82q-44 4 -84 4h-93l-14 -65l-49 -234l196 7l-14 -56l-191 7l-42 -198z" />
<glyph unicode="G" horiz-adv-x="683" d="M407 39q43 0 76 10l35 164l13 59l-69 28l4 20h263l2 -20l-49 -15q-33 -12 -41 -47l-6 -25l-41 -192q-82 -31 -199 -31q-137 0 -214.5 73.5t-77.5 206.5q0 177 125.5 302.5t295.5 125.5q103 0 179 -29q-5 -85 -51 -194h-23q-33 128 -45 166q-27 7 -61 7 q-114 0 -203.5 -110.5t-89.5 -269.5q0 -101 48.5 -165t128.5 -64z" />
<glyph unicode="H" horiz-adv-x="792" d="M252 48l69 -28l-4 -20h-268l-2 20l48 18q19 8 28 17t13 27l7 25h-1l100 474l13 59l-69 28l4 20h269l2 -20l-49 -18q-19 -9 -28.5 -18t-12.5 -26l-6 -25l-44 -209h287l44 209l13 59l-69 28l4 20h268l2 -20l-48 -18q-19 -8 -28.5 -17t-13.5 -27l-6 -25h1l-100 -474l-13 -59 l69 -28l-4 -20h-269l-2 20l48 18q19 8 29 17.5t13 26.5l6 25l46 217h-287l-46 -217z" />
<glyph unicode="I" horiz-adv-x="386" d="M252 48l69 -28l-4 -20h-268l-2 20l48 18q19 8 28 17t13 27l7 25h-1l100 474l13 59l-69 28l4 20h269l2 -20l-49 -18q-19 -9 -28.5 -18t-12.5 -26l-6 -25l-100 -474z" />
<glyph unicode="J" horiz-adv-x="374" d="M256 640l-69 28l4 20h269l2 -20l-49 -18q-19 -9 -28.5 -18t-12.5 -26l-6 -25l-107 -503q-19 -91 -85.5 -154t-153.5 -94l-12 19q52 54 84.5 114t51.5 150l99 468z" />
<glyph unicode="K" horiz-adv-x="701" d="M252 48l69 -28l-4 -20h-268l-2 20l48 18q19 8 28 17t13 27l7 25h-1l100 474l13 59l-69 28l4 20h269l2 -20l-49 -18q-19 -9 -28.5 -18t-12.5 -26l-6 -25l-45 -216l89 1l244 274l-80 28l4 20h231l2 -20l-64 -23q-31 -10 -65 -47l-185 -193l76 -220q25 -73 43.5 -105.5 t46.5 -45.5l31 -14l-5 -20l-123 -3q-38 0 -56 15.5t-29 50.5l-82 256h-88l-45 -212z" />
<glyph unicode="L" horiz-adv-x="581" d="M255 640l-69 28l4 20h269l2 -20l-49 -18q-19 -9 -28.5 -18t-12.5 -26l-6 -25l-100 -474l-14 -66h106q47 0 85 5q11 15 23.5 35t35.5 58.5t44 72.5h23q-3 -112 -42 -212h-477l-2 20l48 18q20 8 29 17t13 27l5 25l100 474z" />
<glyph unicode="M" horiz-adv-x="986" d="M241 688h198l83 -519l296 519h193v-20l-84 -33l-57 -582l74 -33l-5 -20h-269v20l45 18q32 14 35 44l47 476l-250 -438l-64 -120h-58l-20 121l-70 445l-167 -514l84 -32l-6 -20h-214l-1 20l50 18q22 8 31.5 17t15.5 27l178 557l-71 29z" />
<glyph unicode="N" horiz-adv-x="724" d="M179 52l82 -29l-4 -23h-216l-3 23l52 17q23 9 32.5 17t13.5 25l6 25l111 527l-73 31l5 23h173l228 -530l90 423l13 55l-85 29l4 23h219l2 -23l-51 -17q-24 -9 -34 -17t-13 -25l-6 -25l-123 -581h-78l-239 552l-94 -445z" />
<glyph unicode="O" horiz-adv-x="647" d="M673 446q0 -116 -46 -220.5t-127.5 -170t-176.5 -65.5q-100 0 -162 68t-62 183q0 114 46.5 219t129 171.5t177.5 66.5q104 0 162.5 -68.5t58.5 -183.5zM226 183q0 -67 26.5 -107t74.5 -40q60 0 112.5 84t79.5 192t27 196q0 144 -97 144q-62 0 -115 -79.5t-80.5 -186.5 t-27.5 -203z" />
<glyph unicode="P" horiz-adv-x="601" d="M252 48l89 -28l-4 -20h-289l-2 20l48 18q19 8 29 17.5t13 26.5l6 25l100 474l13 59l-69 28l4 20h250q109 0 172 -47t63 -132q0 -109 -88 -177t-220 -68h-69l-33 -157zM365 581l-57 -271h55q85 0 135.5 60.5t50.5 145.5q0 62 -32.5 94t-92.5 32h-46z" />
<glyph unicode="Q" horiz-adv-x="631" d="M662 -112q0 -42 -37.5 -65t-101.5 -23q-120 0 -241.5 37.5t-221.5 107.5l18 36h11q133 0 235 67.5t154.5 180t52.5 249.5q0 88 -24 131t-78 43q-79 0 -138.5 -115.5t-59.5 -258.5q0 -99 36 -179l-50 -29q-46 36 -76 98.5t-30 139.5q0 160 97 275t224 115 q107 0 166.5 -69.5t59.5 -185.5q0 -203 -146 -343t-373 -158q137 -47 310 -47q108 0 198 32q15 -13 15 -39z" />
<glyph unicode="R" horiz-adv-x="689" d="M252 48l69 -28l-4 -20h-268l-2 20l48 18q19 8 28 17t13 27l7 25h-1l101 474l12 59l-68 28l4 20h255q110 0 170.5 -44t60.5 -122q0 -64 -44 -117t-114 -84l45 -136q21 -64 41 -100t48 -51l30 -14l-5 -20l-122 -3q-38 0 -56.5 15.5t-28.5 50.5l-69 227q-10 -1 -29 -1h-69 l-39 -182zM366 581l-53 -247h48q87 0 138.5 56t51.5 136q0 56 -32 86t-89 30h-51z" />
<glyph unicode="S" horiz-adv-x="509" d="M240 -10q-66 0 -119.5 10.5t-63.5 26.5q-6 9 -6 27q0 30 15 71t38 74l24 -2q-1 -8 -1 -23q0 -71 22 -103q27 -38 96 -38q59 0 97 37.5t38 92.5q0 38 -25 72t-60.5 61t-71 55.5t-60.5 68.5t-25 86q0 85 76.5 138.5t179.5 53.5q61 0 105.5 -11.5t58.5 -24.5q8 -6 8 -21 q0 -27 -16.5 -72t-39.5 -79l-24 1q1 11 1 29q0 62 -13 88q-26 46 -91 46q-53 0 -89.5 -34t-36.5 -85q0 -38 25 -72t60.5 -61.5t71 -56.5t60.5 -68t25 -83q0 -89 -71 -146.5t-188 -57.5z" />
<glyph unicode="T" horiz-adv-x="613" d="M366 48l69 -28l-4 -20h-268l-2 20l48 18q19 8 28 17t13 27l7 25h-1l114 536h-42q-54 0 -89 -7q-31 -41 -56 -88l-41 -68h-24q1 99 42 208h561q-5 -107 -46 -208h-23l-13 68q-7 52 -19 88q-32 7 -86 7h-41l-114 -536z" />
<glyph unicode="U" horiz-adv-x="679" d="M624 246q-27 -128 -93 -192t-178 -64q-99 0 -157.5 50.5t-58.5 141.5q0 40 7 72l69 327l13 59l-69 28l4 20h269l2 -20l-49 -18q-19 -9 -28.5 -18t-12.5 -26l-6 -25l-70 -332q-7 -34 -7 -68q0 -67 34 -104.5t94 -37.5q142 0 187 206l73 342l11 49l-84 29l4 23h219l2 -23 l-92 -29l-11 -49z" />
<glyph unicode="V" horiz-adv-x="692" d="M370 0h-75l-75 604q-2 22 -9.5 32.5t-24.5 16.5l-42 15l2 20h270l4 -20l-81 -27l60 -505l275 506l-79 26l4 20h212l3 -20l-57 -20q-30 -10 -48 -43z" />
<glyph unicode="W" horiz-adv-x="1048" d="M361 0h-75l-66 604q-2 22 -9.5 32.5t-24.5 16.5l-42 15l2 20h270l4 -20l-81 -27l51 -500l210 389l-9 74q-2 22 -9.5 32.5t-24.5 16.5l-44 15l4 20h270l4 -20l-81 -27l55 -500l266 501l-80 26l4 20h212l3 -20l-57 -20q-31 -11 -48 -43l-329 -605h-75l-52 451z" />
<glyph unicode="X" horiz-adv-x="700" d="M249 0h-230l-3 20q36 11 70 25q31 13 60 44l208 241l-119 275q-14 32 -30 41q-13 8 -50 22l2 20h272l4 -20l-80 -28l101 -235l195 235l-78 28l4 20h229l4 -20q-55 -18 -66 -23q-36 -14 -63 -47l-206 -237l121 -278q14 -33 30 -41q17 -10 49 -22l-2 -20h-272l-4 20l81 28 l-103 238l-198 -238l78 -28z" />
<glyph unicode="Y" horiz-adv-x="663" d="M381 48l69 -28l-4 -20h-269l-2 20l48 18q19 8 29 17.5t13 26.5l6 25l22 106q11 73 2.5 163.5t-35.5 167t-55 76.5q-29 0 -79 -73l-17 12q31 63 71 101t83 38q72 0 111.5 -104.5t42.5 -262.5q183 367 277 367q34 0 53.5 -40t24.5 -97l-18 -6q-26 65 -57 65 q-36 0 -98.5 -76t-117.5 -181t-72 -183l-15 -73z" />
<glyph unicode="Z" horiz-adv-x="626" d="M550 0h-497l1 41l489 603h-161q-45 0 -87 -5l-105 -159h-24q0 104 41 208h489l-1 -41l-488 -603h169q46 0 86 5l106 158h24q0 -91 -42 -207z" />
<glyph unicode="[" horiz-adv-x="410" d="M306 -196h-229l203 956h229l-6 -29h-114l-191 -898h114z" />
<glyph unicode="\" horiz-adv-x="475" d="M324 -10l-108 752l9 8l60 8l109 -752l-8 -8z" />
<glyph unicode="]" horiz-adv-x="410" d="M200 760h229l-203 -956h-229l6 29h114l191 898h-114z" />
<glyph unicode="^" horiz-adv-x="526" d="M124 210h-76l219 338h62l76 -338h-71l-55 247z" />
<glyph unicode="_" horiz-adv-x="527" d="M-9 -148l12 55h458l-12 -55h-458z" />
<glyph unicode="`" horiz-adv-x="399" d="M385 584l-13 -14q-78 33 -131.5 75.5t-51.5 74.5q1 42 70 42h21l8 -6q30 -75 97 -172z" />
<glyph unicode="a" horiz-adv-x="553" d="M473 154q-11 -49 -11 -64q0 -23 17 -23q27 0 84 68l9 -8q-28 -56 -69 -96.5t-87 -40.5q-36 0 -55.5 21.5t-19.5 59.5q0 25 12 83l16 69h-2q-42 -94 -96.5 -163.5t-109.5 -69.5q-43 0 -70 37t-27 101q0 98 40 184.5t113 141t162 54.5q98 0 168 -36l-15 -45zM187 147 q0 -65 31 -65q26 0 63.5 51.5t67 114t45.5 113.5l21 85q-24 21 -59 21q-41 0 -80.5 -49.5t-64 -124t-24.5 -146.5z" />
<glyph unicode="b" horiz-adv-x="518" d="M446 508q45 0 68.5 -37.5t23.5 -99.5q0 -100 -35 -186.5t-102.5 -140.5t-153.5 -54q-98 0 -183 36l15 46l120 554l14 62l-73 24v12q84 23 198 33l8 -9l-28 -122q-19 -89 -89 -356h2q26 57 54 104.5t73 90.5t88 43zM383 415q-35 0 -87.5 -86t-74.5 -155l-27 -123 q31 -19 67 -19q40 0 76.5 51.5t57 125.5t20.5 144q0 62 -32 62z" />
<glyph unicode="c" horiz-adv-x="426" d="M344 508q57 0 92 -31t35 -79q0 -42 -23.5 -70t-56.5 -28q-22 0 -44 13q22 61 22 100q0 53 -40 53q-50 0 -92.5 -87t-42.5 -185q0 -61 24 -92.5t67 -31.5q67 0 142 78l9 -7q-37 -70 -92 -110.5t-120 -40.5q-72 0 -112.5 48t-40.5 131q0 133 83.5 236t189.5 103z" />
<glyph unicode="d" horiz-adv-x="553" d="M473 154q-11 -49 -11 -64q0 -23 17 -23q27 0 84 68l9 -8q-28 -56 -69 -96.5t-87 -40.5q-36 0 -55.5 21.5t-19.5 59.5q0 25 12 83l19 80q-26 -60 -56 -111t-73 -92t-82 -41q-43 0 -70 37t-27 101q0 98 40 184.5t113 141t162 54.5q26 0 50 -3l29 121l13 61l-92 25v12 q93 25 218 33l8 -9l-28 -122zM187 147q0 -65 31 -65q37 0 91 93t83 179l23 92q-24 21 -59 21q-41 0 -80.5 -49.5t-64 -124t-24.5 -146.5z" />
<glyph unicode="e" horiz-adv-x="433" d="M434 141q-37 -70 -92 -110.5t-120 -40.5q-70 0 -110 49.5t-40 133.5q0 129 83 232t188 103q54 0 88.5 -29.5t34.5 -77.5q0 -77 -75 -126.5t-194 -48.5v9q-2 -30 -2 -46q0 -57 23.5 -88t65.5 -31q66 0 141 78zM329 466q-42 0 -79 -61t-50 -146q70 4 116.5 51t46.5 109 q0 47 -34 47z" />
<glyph unicode="f" horiz-adv-x="345" d="M204 8q-27 -126 -93 -196t-153 -70q-47 0 -76.5 19.5t-29.5 49.5q0 32 28 44q35 -46 79 -46t73 43.5t48 133.5l97 457h-67l2 17l74 27l5 22q22 109 94 179t159 70q49 0 80.5 -22.5t31.5 -54.5q0 -25 -15.5 -42.5t-35.5 -24.5q-51 81 -102 81q-14 0 -24.5 -4.5 t-18.5 -15.5t-13.5 -21t-11 -29.5t-8.5 -32.5t-8 -38.5t-8 -39.5l-6 -30h123l-9 -41h-123z" />
<glyph unicode="g" horiz-adv-x="452" d="M303 508q180 0 229 13q8 -11 8 -32q0 -19 -11 -32t-33 -13q-23 0 -114 29q66 -39 66 -115q0 -53 -22 -97t-54 -70.5t-63.5 -47.5t-53.5 -37t-22 -29q0 -12 12 -21t37 -21l3 -1.5t3 -1t3 -1.5q27 -14 39 -20.5t32 -19.5t28.5 -23.5t15.5 -27t7 -35.5q0 -66 -69 -114.5 t-177 -48.5q-93 0 -148.5 32.5t-55.5 80.5q0 65 107 114l12 -10q-23 -27 -23 -52q0 -54 38 -90.5t97 -36.5q48 0 80 23.5t32 59.5q0 17 -14 32.5t-29.5 25.5t-50.5 29q-24 13 -35 20t-26.5 19t-22 24t-6.5 26q0 25 26 48t86 55q-68 2 -110 42t-42 103q0 91 64 156t157 65z M194 287q0 -104 54 -104q36 0 62 66.5t26 143.5t-48 77q-39 0 -66.5 -58.5t-27.5 -124.5z" />
<glyph unicode="h" horiz-adv-x="562" d="M67 16l30 138l102 473l14 61l-73 25v11q78 22 198 34l8 -9l-28 -122q-39 -177 -93 -368q119 249 234 249q39 0 60.5 -24t21.5 -60q0 -27 -9.5 -71.5t-27.5 -111.5t-23 -87q-10 -54 -10 -64q0 -23 17 -23q28 0 83 68l10 -8q-28 -55 -69 -96t-87 -41q-37 0 -56 21.5 t-19 59.5q0 32 12 83q6 24 21.5 83t24 96t8.5 56q0 32 -24 32q-26 0 -62.5 -46t-66 -102.5t-42.5 -99.5l-5 -19l-33 -155l-54 -4q-45 -3 -52 -3q-13 0 -10 24z" />
<glyph unicode="i" horiz-adv-x="326" d="M261 590q-25 0 -41 16t-16 42q0 36 26 62.5t62 26.5q25 0 41 -15.5t16 -40.5q0 -37 -26.5 -64t-61.5 -27zM242 154q-11 -49 -11 -64q0 -23 17 -23q27 0 84 68l9 -8q-28 -55 -69 -96t-87 -41q-36 0 -55.5 21.5t-19.5 59.5q0 25 12 83q11 53 44 190q10 52 10 64 q0 22 -17 22q-27 0 -83 -67l-10 8q28 55 69 96t87 41q36 0 55.5 -21.5t19.5 -60.5q0 -31 -12 -82q-6 -29 -21.5 -94.5t-21.5 -95.5z" />
<glyph unicode="j" horiz-adv-x="291" d="M251 590q-25 0 -41 15.5t-16 42.5q0 36 26 62.5t61 26.5q25 0 41.5 -15.5t16.5 -40.5q0 -37 -26.5 -64t-61.5 -27zM158 344q10 52 10 64q0 22 -17 22q-26 0 -84 -67l-9 8q28 55 69 96t87 41q36 0 55.5 -21.5t19.5 -60.5q0 -24 -12 -82l-70 -336q-26 -126 -92.5 -196 t-154.5 -70q-47 0 -76 19.5t-29 49.5q0 32 28 44q35 -46 79 -46t73 43.5t48 133.5z" />
<glyph unicode="k" horiz-adv-x="542" d="M67 16l30 138l102 472l14 62l-73 24v12q84 23 198 33l8 -9l-28 -122q-38 -172 -93 -367q50 110 111.5 179.5t131.5 69.5q43 -1 66.5 -24.5t23.5 -59.5q0 -61 -51.5 -113t-115.5 -86q33 -84 53 -121t38 -37q25 0 82 68l9 -8q-27 -55 -69 -96t-87 -41q-49 0 -74.5 43.5 t-64.5 163.5l4 11q65 32 110.5 82.5t45.5 97.5q0 35 -31 35q-43 0 -96 -74t-90 -176l-5 -19l-33 -155l-54 -4q-45 -3 -52 -3q-13 0 -10 24z" />
<glyph unicode="l" horiz-adv-x="296" d="M216 154q-10 -54 -10 -64q0 -23 17 -23q28 0 83 68l9 -8q-27 -55 -68 -96t-88 -41q-36 0 -55 21.5t-19 59.5q0 32 12 83l102 472l14 62l-73 24v12q84 23 198 33l8 -9l-28 -122z" />
<glyph unicode="m" horiz-adv-x="855" d="M95 16l29 138l41 186q12 50 12 67q0 23 -18 23q-26 0 -83 -67l-9 8q28 56 68 96.5t85 40.5q34 0 52.5 -19.5t18.5 -53.5q0 -30 -35 -164q22 44 42 77.5t50.5 74t65 63t70.5 22.5q34 0 54 -22t20 -57q0 -33 -35 -164q114 243 227 243q39 0 60.5 -24t21.5 -60 q0 -21 -6.5 -58t-14 -66.5t-20 -78.5t-16.5 -67q-11 -50 -11 -64q0 -23 18 -23q26 0 83 68l9 -8q-28 -56 -69 -96.5t-87 -40.5q-36 0 -55.5 21.5t-19.5 59.5q0 25 12 83q6 25 22 84.5t24.5 97.5t8.5 55q0 30 -25 30q-38 0 -93.5 -89t-77.5 -160l-5 -18l-33 -155l-54 -4 q-45 -3 -52 -3q-15 0 -10 24l29 138q7 31 22 87.5t24 94.5t9 55q0 30 -25 30q-37 0 -92 -87.5t-79 -160.5l-4 -19l-33 -155l-54 -4q-45 -3 -52 -3q-15 0 -10 24z" />
<glyph unicode="n" horiz-adv-x="589" d="M95 16l29 138q7 32 21 94.5t21 91.5q11 52 11 67q0 23 -18 23q-26 0 -83 -67l-9 8q28 56 68 96.5t85 40.5q34 0 52.5 -19.5t18.5 -53.5q0 -27 -36 -171q121 244 229 244q39 0 60.5 -24t21.5 -60q0 -21 -6.5 -58t-14 -66.5t-20 -78.5t-16.5 -67q-11 -49 -11 -64 q0 -23 18 -23q26 0 83 68l9 -8q-28 -56 -69 -96.5t-87 -40.5q-36 0 -55.5 21.5t-19.5 59.5q0 25 12 83q6 26 22 83.5t24.5 95t8.5 56.5q0 32 -25 32q-37 0 -91.5 -86.5t-79.5 -160.5l-4 -20l-33 -155l-54 -4q-45 -3 -52 -3q-15 0 -10 24z" />
<glyph unicode="o" horiz-adv-x="489" d="M500 320q0 -141 -77.5 -235.5t-179.5 -94.5q-76 0 -122.5 51.5t-46.5 137.5q0 133 78 230.5t180 97.5q79 0 123.5 -50.5t44.5 -136.5zM197 136q0 -107 52 -107q33 0 64 59.5t47.5 138.5t16.5 144q0 98 -51 98q-34 0 -64.5 -57t-47.5 -133.5t-17 -142.5z" />
<glyph unicode="p" horiz-adv-x="546" d="M41 -235l29 139l79 361q28 138 28 142q0 23 -18 23q-26 0 -83 -67l-9 8q28 56 68 96.5t85 40.5q34 0 52.5 -19.5t18.5 -53.5q0 -16 -5 -41t-15.5 -69t-13.5 -55h1q15 32 30 61t37.5 62.5t44.5 57.5t49.5 40.5t53.5 16.5q46 0 69.5 -37.5t23.5 -99.5q0 -100 -35 -186.5 t-103 -140.5t-154 -54q-37 0 -65 4l-19 -90l-33 -155l-54 -4q-45 -3 -52 -3q-15 0 -10 23zM410 415q-35 0 -87 -86t-75 -156l-26 -122q31 -19 66 -19q40 0 76.5 51.5t57.5 126t21 143.5q0 62 -33 62z" />
<glyph unicode="q" horiz-adv-x="521" d="M270 -235l30 139l69 319h-2q-42 -94 -96.5 -163.5t-109.5 -69.5q-43 0 -70 37t-27 101q0 98 40 184.5t113 141t162 54.5q98 0 168 -36l-15 -45l-113 -523l-33 -155l-54 -4q-45 -3 -52 -3q-15 0 -10 23zM187 147q0 -65 31 -65q26 0 63.5 51.5t67 114t45.5 113.5l21 85 q-24 21 -59 21q-41 0 -80.5 -49.5t-64 -124t-24.5 -146.5z" />
<glyph unicode="r" horiz-adv-x="447" d="M95 16l29 138q53 241 53 253q0 23 -18 23q-26 0 -83 -67l-9 8q28 56 68 96.5t85 40.5q34 0 52.5 -19.5t18.5 -53.5q0 -31 -35 -167q21 46 40 80.5t45 75t54.5 62.5t56.5 22q24 0 37.5 -14.5t13.5 -36.5q0 -29 -12 -59t-26 -47q-36 30 -65 30t-64 -41.5t-57.5 -89 t-30.5 -79.5l-4 -17l-33 -155l-54 -4q-45 -3 -52 -3q-15 0 -10 24z" />
<glyph unicode="s" horiz-adv-x="419" d="M398 139q0 -67 -51.5 -108t-142.5 -41q-68 0 -113 25t-45 68q0 31 22 54.5t56 35.5l10 -8q-5 -28 -2 -54q8 -39 29 -61.5t54 -22.5q31 0 50.5 19t19.5 52q0 27 -17.5 53t-43 48t-50.5 45.5t-42.5 55.5t-17.5 67q0 61 53 101t131 40q70 0 108.5 -25.5t38.5 -64.5 q0 -29 -19.5 -53t-49.5 -36l-10 8q1 28 -2 56q-12 78 -69 78q-29 0 -48 -18.5t-19 -47.5q0 -27 17.5 -53.5t42.5 -49.5t50 -47t42.5 -54t17.5 -62z" />
<glyph unicode="t" horiz-adv-x="373" d="M195 -10q-46 0 -70.5 29.5t-24.5 79.5q0 26 6 56l61 288h-73l2 17l83 38l133 142l16 -2l-33 -154h139l-9 -41h-138l-59 -274q-5 -27 -5 -44q0 -55 43 -55q51 0 127 78l9 -7q-36 -66 -89 -108.5t-118 -42.5z" />
<glyph unicode="u" horiz-adv-x="595" d="M170 344q10 52 10 64q0 22 -17 22q-26 0 -84 -67l-9 8q28 55 69 96t87 41q36 0 55.5 -21.5t19.5 -60.5q0 -24 -12 -82q-6 -24 -17.5 -68t-17.5 -68.5t-11 -51t-5 -39.5q0 -35 24 -35q37 0 92.5 91t86.5 190l29 138l54 4q48 3 52 3q15 0 10 -23l-29 -139l-42 -192 q-11 -49 -11 -64q0 -23 18 -23q26 0 83 68l9 -8q-27 -55 -68 -96t-88 -41q-36 0 -55.5 21.5t-19.5 59.5q0 28 13 83l13 61h-3q-38 -90 -94 -157.5t-113 -67.5q-39 0 -61 25.5t-22 68.5q0 25 8.5 66.5t24 102.5t21.5 91z" />
<glyph unicode="v" horiz-adv-x="470" d="M220 -6l-69 5q12 206 12 232q0 115 -8.5 157t-31.5 42q-29 0 -81 -68l-11 9q29 56 70.5 96.5t87.5 40.5q44 0 65.5 -37.5t21.5 -119.5q0 -118 -20 -280q64 91 101.5 193t37.5 172q0 31 -6 59q22 13 50 13q34 0 53 -18.5t19 -54.5q0 -81 -90 -211.5t-201 -229.5z" />
<glyph unicode="w" horiz-adv-x="720" d="M763 437q0 -79 -92 -210t-204 -233l-70 5q13 191 13 232v40q-72 -171 -190 -277l-69 5q12 206 12 232q0 115 -8.5 157t-31.5 42q-29 0 -81 -68l-11 9q29 56 70.5 96.5t87.5 40.5q44 0 65.5 -37.5t21.5 -119.5q0 -118 -20 -280q68 97 104.5 197.5t40.5 179.5q0 22 -6 48 q22 12 51 12q43 0 60 -33.5t17 -116.5q0 -110 -20 -287q66 94 104.5 195t38.5 174q0 27 -6 55q22 13 50 13q34 0 53.5 -18.5t19.5 -52.5z" />
<glyph unicode="x" horiz-adv-x="486" d="M372 169q20 -64 29 -83t21 -19q21 0 71 68l9 -8q-25 -56 -61 -96.5t-77 -40.5q-26 0 -44 19t-28 43t-31 87q-7 20 -10 30l-16 52q-74 -108 -74 -185q0 -18 4 -38q-23 -10 -49 -10q-31 0 -50.5 15t-19.5 43q0 81 179 204l-23 73q-21 66 -30.5 86.5t-22.5 20.5 q-20 0 -72 -67l-9 8q27 56 64 96.5t77 40.5q35 0 53 -30t47 -117q8 -25 13 -38l14 -44q72 105 72 183q0 10 -3 37q22 11 48 11q32 0 51 -15t19 -43q0 -84 -177 -203z" />
<glyph unicode="y" horiz-adv-x="493" d="M193 508q98 0 98 -162q0 -156 -59 -325q87 90 130.5 196.5t43.5 205.5q0 37 -8 71q20 14 49 14q75 0 75 -91q0 -115 -82 -237.5t-231 -216.5q-43 -100 -100.5 -160.5t-124.5 -60.5q-42 0 -68.5 18.5t-26.5 46.5q0 31 29 43q29 -39 61 -39q81 0 140 201q24 79 38 166.5 t14 142.5q0 109 -44 109q-27 0 -76 -68l-10 9q24 55 65.5 96t86.5 41z" />
<glyph unicode="z" horiz-adv-x="431" d="M139 17q-52 0 -92 -27l-26 33q18 20 63.5 68.5t67.5 72.5t56.5 62.5t62.5 71t54 65.5q-90 30 -143 30q-28 0 -45 -15t-39 -56l-13 4q18 95 40.5 138.5t65.5 43.5q81 0 171 -96q42 54 69 96q46 -15 46 -48q0 -17 -9.5 -31t-34.5 -37q-43 -45 -89.5 -91t-107 -105.5 t-92.5 -90.5q28 7 77 7q21 0 69.5 -5.5t62.5 -5.5q22 0 45 32q14 20 27 40l12 -5q-17 -69 -33 -106q-32 -72 -69 -72q-18 0 -93 13.5t-103 13.5z" />
<glyph unicode="{" horiz-adv-x="435" d="M336 -171l-8 -26q-196 0 -196 101q0 48 44 151t44 140q0 66 -78 72h-7l6 27h7q67 5 94.5 47t30.5 112q1 15 1 89q0 118 60 167.5t196 49.5l-2 -26q-62 -3 -93 -36t-36 -100q-5 -26 -6 -77t-5 -75q-14 -131 -142 -164q87 -25 87 -98q0 -35 -42 -141t-42 -138q0 -72 87 -75 z" />
<glyph unicode="|" horiz-adv-x="322" d="M71 -257l-6 8l213 999l55 7l6 -8l-213 -999z" />
<glyph unicode="}" horiz-adv-x="435" d="M195 733l8 26q196 0 196 -101q0 -49 -44 -151.5t-44 -139.5q0 -66 78 -73h6l-6 -27h-6q-67 -4 -95 -46t-31 -113v-26.5v-33v-29.5q0 -118 -60 -167t-197 -49l3 26q119 4 128 136q5 26 6.5 76.5t5.5 75.5q14 131 142 164q-88 24 -88 98q0 34 42.5 140.5t42.5 138.5 q0 72 -87 75z" />
<glyph unicode="~" horiz-adv-x="577" d="M181 275q-11 0 -72 -59l-34 26q83 105 126 105q21 0 121 -26t116 -26q9 0 72 59l34 -26q-81 -105 -126 -105q-21 0 -121.5 26t-115.5 26z" />
<glyph unicode="&#xa1;" horiz-adv-x="318" d="M252 508q23 0 37.5 -14.5t14.5 -38.5q0 -34 -24 -59t-56 -25q-23 0 -38 14.5t-15 37.5q0 35 24 60t57 25zM176 -185l-7 -6q-53 -7 -87 -7t-34 23q0 13 12 55l126 411h48z" />
<glyph unicode="&#xa2;" horiz-adv-x="482" d="M253 -137l-47 -3l-6 8l26 124q-73 8 -110.5 56t-37.5 125q0 85 36.5 166t98 136.5t132.5 68.5l29 133l47 3l6 -8l-27 -125q53 -5 85.5 -36.5t32.5 -79.5q0 -45 -24 -75t-58 -30q-25 0 -45 13q21 68 21 107q0 59 -45 59q-38 0 -75.5 -47t-60.5 -118.5t-23 -139.5 q0 -61 25.5 -95t71.5 -34q73 0 150 82l9 -8q-31 -64 -78.5 -105t-104.5 -48z" />
<glyph unicode="&#xa3;" horiz-adv-x="626" d="M520 295h-167l-17 -72q-26 -108 -99 -181q5 -2 36.5 -18t43 -21t41.5 -18.5t49 -19t46.5 -13.5t53 -11t51.5 -3q23 0 61 8q8 -14 8 -34q0 -37 -24.5 -57t-66.5 -20q-66 0 -149.5 47.5t-187.5 128.5q-40 -29 -81 -29q-21 0 -33 11t-12 29q0 22 18.5 38.5t46.5 16.5 q24 0 63 -18q19 51 35 165q4 27 10 71h-120l12 54h116q7 49 17 100q22 120 87.5 184.5t157.5 64.5q57 0 92 -28t35 -66q0 -28 -19 -46t-45 -23q-22 117 -76 117q-40 0 -64 -48.5t-48 -149.5l-25 -105h166z" />
<glyph unicode="&#xa4;" horiz-adv-x="553" d="M524 153l-50 -34l-54 71q-60 -37 -123 -37q-59 0 -101 29l-79 -65l-41 52l77 64q-18 36 -18 82q0 84 70 151l-50 65l52 42q8 -10 26 -32t28 -34q51 28 109 28q65 0 106 -33l86 71l41 -52l-86 -71q15 -34 15 -77q1 -75 -60 -141q30 -37 54 -68zM210 318q0 -42 26 -70.5 t74 -28.5q60 0 104 46.5t44 104.5q0 42 -26 70.5t-74 28.5q-60 0 -104 -46.5t-44 -104.5z" />
<glyph unicode="&#xa5;" horiz-adv-x="700" d="M140 128l11 49h153l9 43q4 23 5 39h-150l11 49h141q-2 107 -32 209.5t-65 102.5q-27 0 -79 -73l-17 12q31 63 71 101t83 38q50 0 85 -51t51.5 -130t18.5 -180q183 361 277 361q34 0 53 -40t24 -97l-18 -6q-25 65 -57 65q-41 0 -115.5 -98t-127.5 -214h144l-11 -49h-153 q-16 -43 -23 -73l-2 -9h161l-11 -49h-161l-4 -21l-13 -59l69 -28l-4 -20h-268l-2 20l48 18q19 8 28 17t13 27l7 25h-1l4 21h-153z" />
<glyph unicode="&#xa6;" horiz-adv-x="323" d="M257 364l-55 -6l-5 7l82 385l54 7l6 -8zM127 -250l-55 -7l-6 8l81 383l55 6l6 -7z" />
<glyph unicode="&#xa7;" horiz-adv-x="558" d="M515 124q0 -120 -102.5 -207.5t-244.5 -87.5q-66 0 -106.5 22.5t-40.5 59.5q0 24 16.5 46.5t40.5 34.5l19 -2q54 -84 132 -114q29 16 46 50t17 71q0 59 -60 162q-37 59 -46 76q-55 98 -55 173q0 118 102.5 204t244.5 86q65 0 106 -22.5t41 -57.5q0 -25 -16.5 -48 t-40.5 -35l-19 2q-52 83 -134 115q-28 -17 -45.5 -51.5t-17.5 -73.5q0 -60 60 -155q8 -13 24 -38t20 -32q59 -101 59 -178zM316 -92l7 -5q58 32 88.5 86t30.5 116q0 74 -51 158q-5 9 -44 69q-61 96 -61 166q0 67 43 119l-7 6q-57 -31 -87.5 -83.5t-30.5 -113.5 q0 -68 48 -153q14 -25 44 -73q63 -102 63 -175q0 -71 -43 -117z" />
<glyph unicode="&#xa8;" horiz-adv-x="508" d="M518 678q0 -33 -21.5 -56.5t-52.5 -23.5q-26 0 -42 16t-16 42q0 31 22.5 55t54.5 24q24 0 39.5 -16t15.5 -41zM299 678q0 -33 -21.5 -56.5t-52.5 -23.5q-25 0 -41 16t-16 42q0 31 22 55t54 24q24 0 39.5 -16t15.5 -41z" />
<glyph unicode="&#xa9;" horiz-adv-x="705" d="M342 -48q-114 0 -183.5 69.5t-69.5 180.5q0 142 105 244t251 102q114 0 184 -69.5t70 -180.5q0 -142 -105.5 -244t-251.5 -102zM439 503q-125 0 -215 -88.5t-90 -210.5q0 -91 59 -149t156 -58q124 0 214 88.5t90 210.5q0 91 -59 149t-155 58zM505 185q-56 -105 -140 -105 q-53 0 -83 32.5t-30 86.5q0 85 59.5 153t132.5 68q42 0 66 -21.5t24 -52.5q0 -23 -14 -38.5t-36 -15.5q-16 0 -30 9q7 23 7 39q0 38 -29 38q-33 0 -61.5 -51.5t-28.5 -110.5q0 -72 64 -72q45 0 91 48z" />
<glyph unicode="&#xaa;" horiz-adv-x="481" d="M542 459q-21 -43 -54 -75t-70 -32q-29 0 -45.5 17.5t-16.5 48.5q0 20 10 65l10 48h-1q-31 -72 -73.5 -125.5t-85.5 -53.5q-36 0 -58 30.5t-22 82.5q0 116 71 203.5t177 87.5q79 0 137 -30l-12 -38l-44 -205q-7 -35 -7 -49q0 -19 13 -19q20 0 63 50zM239 479q0 -51 25 -51 q29 0 70 73t61 138l17 67q-18 15 -46 15q-46 0 -86.5 -79t-40.5 -163z" />
<glyph unicode="&#xab;" horiz-adv-x="549" d="M257 29l-17 -9q-65 115 -132 189l-4 8l15 68q125 103 220 198l14 -10q-58 -94 -156 -235q39 -120 60 -209zM471 29l-18 -9q-63 114 -131 189l-4 8l15 68q116 96 220 198l14 -10q-58 -94 -156 -235q45 -146 60 -209z" />
<glyph unicode="&#xac;" d="M586 425l-49 -231h-68l36 171h-370l14 63q162 5 431 5z" />
<glyph unicode="&#xae;" horiz-adv-x="705" d="M342 -48q-114 0 -183.5 69.5t-69.5 180.5q0 142 105.5 244t251.5 102q114 0 183.5 -69.5t69.5 -180.5q0 -142 -105.5 -244t-251.5 -102zM439 503q-125 0 -215 -88.5t-90 -210.5q0 -91 59 -149t156 -58q124 0 214 88.5t90 210.5q0 92 -58.5 149.5t-155.5 57.5zM365 90 h-160l1 21l27 11q10 4 14 9.5t7 19.5l4 18l36 173l8 35l-35 13l4 20h160q62 0 96 -22t34 -62q0 -67 -80 -97l10 -23l9 -22.5t10 -24t9 -18t11.5 -16.5t12.5 -7l23 -7l-4 -21l-77 -2q-22 -1 -33 7.5t-19 28.5l-37 87h-44l-9 -42l-9 -44l37 -14zM380 342l-20 -93h36 q38 0 60 22t22 53q0 48 -60 48h-32z" />
<glyph unicode="&#xaf;" horiz-adv-x="475" d="M173 630l14 61h289l-13 -61h-290z" />
<glyph unicode="&#xb0;" horiz-adv-x="358" d="M417 598q0 -60 -43 -103t-104 -43q-48 0 -76.5 27.5t-28.5 73.5q0 60 43 102.5t104 42.5q47 0 76 -27t29 -73zM214 561q0 -29 17.5 -47t47.5 -18q39 0 64 26.5t25 66.5q0 30 -17.5 48t-47.5 18q-39 0 -64 -26.5t-25 -67.5z" />
<glyph unicode="&#xb1;" d="M569 391h-171l-33 -159h-67l33 159h-169l13 63q46 1 170 3l31 154h69l-32 -153q66 1 171 1l6 -8zM514 78h-430l14 64q162 5 431 5l7 -8z" />
<glyph unicode="&#xb2;" horiz-adv-x="379" d="M201 355q-39 0 -75 -17l-11 51q133 76 191 132t58 104q0 27 -16 43t-45 16t-59 -16t-51 -42l-12 7q22 55 68 90t99 35q51 0 81 -28t30 -74q0 -111 -155 -198q-40 -20 -83 -38q22 2 32 2q21 0 59 -5t48 -5q26 0 54 47l9 -4q-9 -44 -18 -66q-22 -51 -51 -51q-18 0 -70 8.5 t-83 8.5z" />
<glyph unicode="&#xb3;" horiz-adv-x="373" d="M420 477q0 -58 -82 -94t-228 -45l-2 19q94 18 152.5 49.5t58.5 70.5q0 25 -19.5 38.5t-52.5 13.5q-21 0 -36 -3l-4 27q66 7 102.5 31t36.5 58q0 51 -56 51t-96 -48l-12 7q27 49 70.5 77.5t94.5 28.5q50 0 77.5 -23t27.5 -59q0 -45 -38 -75t-98 -45q104 -8 104 -79z" />
<glyph unicode="&#xb4;" horiz-adv-x="396" d="M316 759l10 4q7 0 21 -2q59 -9 59 -39q0 -36 -76.5 -83t-167.5 -69l-10 16q105 89 164 173z" />
<glyph unicode="&#xb6;" horiz-adv-x="618" d="M483 54q-21 -104 -85.5 -164.5t-154.5 -60.5q-72 0 -119 28t-47 79q0 74 92 110l13 -10q-16 -39 -16 -68q0 -96 90 -96q58 0 99.5 51t59.5 137l111 521l13 61h-83l-90 -423q-108 0 -170.5 53t-62.5 145q0 118 97 194.5t246 76.5h219l2 -20l-55 -18q-35 -13 -41 -44 l-6 -25z" />
<glyph unicode="&#xb7;" horiz-adv-x="334" d="M290 282q0 -37 -25.5 -63.5t-61.5 -26.5q-31 0 -49.5 19t-18.5 47q0 35 26.5 61.5t63.5 26.5q29 0 47 -18t18 -46z" />
<glyph unicode="&#xb8;" horiz-adv-x="348" d="M187 -125q0 -43 -57 -74.5t-147 -39.5l-2 13q43 14 70.5 37t27.5 45q0 29 -43 35l-3 8l40 101h48l-24 -61q43 -5 66.5 -21.5t23.5 -42.5z" />
<glyph unicode="&#xb9;" horiz-adv-x="294" d="M315 348h-206l-1 11l30 7q38 10 43 37l63 291l-59 10l1 12l155 42l5 -6l-79 -373l51 -20z" />
<glyph unicode="&#xba;" horiz-adv-x="413" d="M486 607q0 -109 -64 -182t-149 -73q-60 0 -97.5 39.5t-37.5 106.5q0 104 65 181t149 77q64 0 99 -40t35 -109zM241 461q0 -77 40 -77t71 92.5t31 177.5q0 69 -38 69q-40 0 -72 -88t-32 -174z" />
<glyph unicode="&#xbb;" horiz-adv-x="549" d="M375 475l17 8q65 -115 132 -189l4 -8l-15 -68q-116 -94 -220 -198l-14 11q54 86 156 235q-39 116 -60 209zM161 475l18 8q63 -114 131 -189l4 -8l-15 -68q-107 -87 -220 -198l-14 11q54 86 156 235q-44 139 -60 209z" />
<glyph unicode="&#xbc;" horiz-adv-x="965" d="M346 288h-206l-1 11l30 7q36 10 43 37l63 291l-59 10l1 12l155 42l5 -6l-79 -373l51 -20zM838 698l-574 -708h-57l573 708h58zM821 410l64 -8l-56 -260l62 2l-13 -50l-59 1l-20 -95h-91l21 96l-181 2v31zM777 316l-174 -180l135 4z" />
<glyph unicode="&#xbd;" horiz-adv-x="965" d="M842 698l-573 -708h-58l573 708h58zM346 288h-206l-1 11l30 7q36 10 43 37l63 291l-59 10l1 12l155 42l5 -6l-79 -373l51 -20zM661 6q-40 0 -74 -16l-11 51q133 76 190.5 132t57.5 104q0 27 -15.5 43t-44.5 16t-59 -16t-51 -42l-13 7q23 55 69 90t99 35q51 0 81 -28 t30 -74q0 -110 -155 -198q-40 -20 -83 -38q22 2 32 2q21 0 59 -5t48 -5q27 0 53 47l10 -5q-14 -52 -19 -65q-22 -51 -50 -51q-18 0 -70.5 8t-83.5 8z" />
<glyph unicode="&#xbe;" horiz-adv-x="965" d="M435 417q0 -58 -82 -94t-228 -45l-2 19q94 18 152.5 49.5t58.5 70.5q0 25 -19.5 38.5t-52.5 13.5q-21 0 -36 -3l-4 27q66 7 103 31t37 58q0 24 -15 37.5t-42 13.5q-56 0 -96 -48l-12 7q27 49 70.5 77.5t94.5 28.5q50 0 77.5 -23t27.5 -59q0 -45 -38 -75t-98 -45 q104 -8 104 -79zM848 698l-574 -708h-57l573 708h58zM821 410l64 -8l-56 -260l62 2l-13 -50l-59 1l-20 -95h-91l21 96l-181 2v31zM777 316l-174 -180l135 4z" />
<glyph unicode="&#xbf;" horiz-adv-x="429" d="M328 508q23 0 38 -14.5t15 -38.5q0 -34 -24.5 -59t-56.5 -25q-23 0 -38 14.5t-15 37.5q0 35 24 60t57 25zM224 273l9 9q84 -3 84 -65q0 -35 -21.5 -64t-52.5 -51t-61.5 -45t-52 -57.5t-21.5 -76.5q0 -38 18 -59.5t51 -21.5q51 0 84 45t33 103q0 8 -2 26q26 11 53 11 q25 0 39 -13.5t14 -38.5q0 -71 -71.5 -123t-162.5 -52q-82 0 -128 37t-46 104q0 40 18.5 73.5t47 55.5t61 44t61 38t47 37.5t18.5 43.5q0 24 -19 40z" />
<glyph unicode="&#xc0;" horiz-adv-x="691" d="M634 796l-10 -18q-40 1 -79.5 6.5t-76 15.5t-59 26.5t-22.5 37.5t20.5 38t45.5 25l10 -2q23 -28 71.5 -64.5t99.5 -64.5zM447 689h75l75 -605q2 -23 9.5 -33t24.5 -16l42 -15l-2 -20h-270l-4 20l81 27l-21 176l-225 -4l-94 -172l78 -27l-4 -20h-206l-3 20l57 20 q30 10 48 43zM255 262l198 -1l-36 297z" />
<glyph unicode="&#xc1;" horiz-adv-x="691" d="M595 924l11 2q51 -24 51 -53q0 -37 -81 -64t-198 -32l-6 18q151 70 223 129zM447 689h75l75 -605q2 -23 9.5 -33t24.5 -16l42 -15l-2 -20h-270l-4 20l81 27l-21 176l-225 -4l-94 -172l78 -27l-4 -20h-206l-3 20l57 20q30 10 48 43zM255 262l198 -1l-36 297z" />
<glyph unicode="&#xc2;" horiz-adv-x="691" d="M667 784l-17 -10q-78 51 -128 78q-96 -48 -161 -78l-11 13q99 87 144 137l10 6h70q56 -76 93 -146zM447 689h75l75 -605q2 -23 9.5 -33t24.5 -16l42 -15l-2 -20h-270l-4 20l81 27l-21 176l-225 -4l-94 -172l78 -27l-4 -20h-206l-3 20l57 20q30 10 48 43zM255 262l198 -1 l-36 297z" />
<glyph unicode="&#xc3;" horiz-adv-x="691" d="M391 840q-18 -10 -75 -60l-13 7q47 136 144 136q38 0 102.5 -28.5t89.5 -30.5q21 11 75 60l13 -6q-21 -65 -58.5 -100.5t-85.5 -35.5q-37 0 -101 28.5t-91 29.5zM447 689h75l75 -605q2 -23 9.5 -33t24.5 -16l42 -15l-2 -20h-270l-4 20l81 27l-21 176l-225 -4l-94 -172 l78 -27l-4 -20h-206l-3 20l57 20q30 10 48 43zM255 262l198 -1l-36 297z" />
<glyph unicode="&#xc4;" horiz-adv-x="691" d="M690 860q0 -32 -22 -54t-54 -22q-27 0 -43.5 15t-16.5 39q0 30 23 52.5t56 22.5q24 0 40.5 -14.5t16.5 -38.5zM466 860q0 -32 -22 -54t-53 -22q-27 0 -43.5 15t-16.5 39q0 30 23 52.5t55 22.5q25 0 41 -14.5t16 -38.5zM447 689h75l75 -605q2 -23 9.5 -33t24.5 -16l42 -15 l-2 -20h-270l-4 20l81 27l-21 176l-225 -4l-94 -172l78 -27l-4 -20h-206l-3 20l57 20q30 10 48 43zM255 262l198 -1l-36 297z" />
<glyph unicode="&#xc5;" horiz-adv-x="691" d="M617 868q0 -43 -35.5 -73t-87.5 -30q-38 0 -60.5 19t-22.5 52q0 43 36 72t87 29q38 0 60.5 -18.5t22.5 -50.5zM464 836q0 -17 10.5 -28t27.5 -11q26 0 44 20t18 49q0 18 -10.5 28.5t-27.5 10.5q-26 0 -44 -20t-18 -49zM447 689h75l75 -605q2 -23 9.5 -33t24.5 -16l42 -15 l-2 -20h-270l-4 20l81 27l-21 176l-225 -4l-94 -172l78 -27l-4 -20h-206l-3 20l57 20q30 10 48 43zM255 262l198 -1l-36 297z" />
<glyph unicode="&#xc6;" horiz-adv-x="915" d="M423 636l-73 29l7 23h611q-2 -95 -46 -208h-24q-23 116 -33 162q-44 4 -84 4h-97l-60 -282l200 7l-14 -56l-195 8l-46 -216l-14 -66h125q47 0 85 5q4 5 103 161h23q0 -105 -42 -207h-496l-2 20l48 18q19 8 29 17.5t13 26.5l5 25l46 215l-202 -3l-150 -271l73 -25l-6 -23 h-199l3 23q39 13 56 20q26 9 43 40zM560 644h-91l-155 -282l186 -1z" />
<glyph unicode="&#xc7;" horiz-adv-x="628" d="M478 -125q0 -43 -57 -74.5t-148 -39.5l-2 13q43 13 71 36t28 46q0 29 -43 35l-3 8l36 92q-122 8 -189 81.5t-67 198.5q0 86 32.5 165t87 136.5t129.5 91.5t156 34q103 0 164 -29q-5 -97 -45 -194h-24q-33 131 -44 166q-24 7 -49 7q-113 0 -196.5 -112t-83.5 -266 q0 -106 48 -168.5t123 -62.5q20 0 53 7q52 62 122 161h24q-8 -91 -43 -192q-73 -22 -150 -25l-20 -51q43 -5 66.5 -21.5t23.5 -42.5z" />
<glyph unicode="&#xc8;" horiz-adv-x="605" d="M598 795l-10 -18q-40 1 -79.5 7t-76 16t-59 26.5t-22.5 37.5t21 38t45 24l10 -1q54 -66 171 -130zM366 581l-46 -217l195 7l-14 -56l-190 8l-46 -216l-14 -66h120q56 0 85 5q10 14 22 33t34.5 55.5t45.5 72.5h24q-2 -110 -42 -207h-491l-2 20l48 18q20 8 29 17t13 27 l5 25l101 474l12 59l-68 28l4 20h468q-1 -90 -46 -208h-24q-25 125 -34 162q-34 4 -83 4h-92z" />
<glyph unicode="&#xc9;" horiz-adv-x="605" d="M549 924l11 1q51 -24 51 -52q0 -37 -80.5 -64t-198.5 -33l-6 18q148 68 223 130zM366 581l-46 -217l195 7l-14 -56l-190 8l-46 -216l-14 -66h120q56 0 85 5q10 14 22 33t34.5 55.5t45.5 72.5h24q-2 -110 -42 -207h-491l-2 20l48 18q20 8 29 17t13 27l5 25l101 474l12 59 l-68 28l4 20h468q-1 -90 -46 -208h-24q-25 125 -34 162q-34 4 -83 4h-92z" />
<glyph unicode="&#xca;" horiz-adv-x="605" d="M627 784l-18 -11q-67 47 -127 79q-82 -43 -162 -79l-10 14q99 87 143 136l11 6h70q52 -69 93 -145zM366 581l-46 -217l195 7l-14 -56l-190 8l-46 -216l-14 -66h120q56 0 85 5q10 14 22 33t34.5 55.5t45.5 72.5h24q-2 -110 -42 -207h-491l-2 20l48 18q20 8 29 17t13 27 l5 25l101 474l12 59l-68 28l4 20h468q-1 -90 -46 -208h-24q-25 125 -34 162q-34 4 -83 4h-92z" />
<glyph unicode="&#xcb;" horiz-adv-x="605" d="M656 860q0 -32 -22 -54t-53 -22q-27 0 -43.5 15t-16.5 38q0 30 23 52.5t55 22.5q25 0 41 -14.5t16 -37.5zM433 860q0 -32 -22.5 -54t-53.5 -22q-27 0 -43.5 15t-16.5 38q0 30 23 52.5t56 22.5q24 0 40.5 -14.5t16.5 -37.5zM366 581l-46 -217l195 7l-14 -56l-190 8 l-46 -216l-14 -66h120q56 0 85 5q10 14 22 33t34.5 55.5t45.5 72.5h24q-2 -110 -42 -207h-491l-2 20l48 18q20 8 29 17t13 27l5 25l101 474l12 59l-68 28l4 20h468q-1 -90 -46 -208h-24q-25 125 -34 162q-34 4 -83 4h-92z" />
<glyph unicode="&#xcc;" horiz-adv-x="386" d="M483 796l-10 -18q-40 1 -79.5 6.5t-76 15.5t-59 26.5t-22.5 37.5t20.5 38t45.5 25l10 -2q23 -28 71.5 -64.5t99.5 -64.5zM252 48l69 -28l-4 -20h-268l-2 20l48 18q19 8 28 17t13 27l7 25h-1l100 474l13 59l-69 28l4 20h269l2 -20l-49 -18q-19 -9 -28.5 -18t-12.5 -26 l-6 -25l-100 -474z" />
<glyph unicode="&#xcd;" horiz-adv-x="386" d="M436 924l10 2q51 -24 51 -53q0 -37 -81 -64t-198 -32l-6 18q150 69 224 129zM252 48l69 -28l-4 -20h-268l-2 20l48 18q19 8 28 17t13 27l7 25h-1l100 474l13 59l-69 28l4 20h269l2 -20l-49 -18q-19 -9 -28.5 -18t-12.5 -26l-6 -25l-100 -474z" />
<glyph unicode="&#xce;" horiz-adv-x="386" d="M504 784l-17 -10q-78 51 -127 78q-127 -62 -162 -78l-10 13q94 83 143 137l10 6h70q52 -69 93 -146zM252 48l69 -28l-4 -20h-268l-2 20l48 18q19 8 28 17t13 27l7 25h-1l100 474l13 59l-69 28l4 20h269l2 -20l-49 -18q-19 -9 -28.5 -18t-12.5 -26l-6 -25l-100 -474z" />
<glyph unicode="&#xcf;" horiz-adv-x="386" d="M540 860q0 -32 -22 -54t-53 -22q-27 0 -43.5 15t-16.5 39q0 30 23 52.5t55 22.5q25 0 41 -14.5t16 -38.5zM317 860q0 -32 -22.5 -54t-53.5 -22q-27 0 -43 15t-16 39q0 30 22.5 52.5t55.5 22.5q24 0 40.5 -14.5t16.5 -38.5zM252 48l69 -28l-4 -20h-268l-2 20l48 18 q19 8 28 17t13 27l7 25h-1l100 474l13 59l-69 28l4 20h269l2 -20l-49 -18q-19 -9 -28.5 -18t-12.5 -26l-6 -25l-100 -474z" />
<glyph unicode="&#xd0;" horiz-adv-x="709" d="M307 0h-258l-2 20l48 18q20 8 29 17t13 27l5 25l48 223h-101l8 41h102l45 210h-1l13 59l-69 28l4 20h260q128 0 204.5 -68.5t76.5 -190.5q0 -83 -28 -159t-80 -136.5t-134.5 -97t-182.5 -36.5zM468 330h-155l-48 -223l-14 -65h55q87 0 157 59t106 151t36 196 q0 95 -43.5 146.5t-130.5 51.5h-51l-14 -65l-44 -210h155z" />
<glyph unicode="&#xd1;" horiz-adv-x="724" d="M424 840q-21 -11 -75 -60l-13 7q46 136 143 136q38 0 102.5 -28.5t89.5 -30.5q19 10 75 60l14 -6q-46 -136 -145 -136q-36 0 -100 28.5t-91 29.5zM179 52l82 -29l-4 -23h-216l-3 23l52 17q23 9 32.5 17t13.5 25l6 25l111 527l-73 31l5 23h173l228 -530l90 423l13 55 l-85 29l4 23h219l2 -23l-51 -17q-24 -9 -34 -17t-13 -25l-6 -25l-123 -581h-78l-239 552l-94 -445z" />
<glyph unicode="&#xd2;" horiz-adv-x="647" d="M612 796l-10 -18q-89 3 -163 24.5t-74 61.5q0 21 20.5 37.5t45.5 25.5l10 -2q24 -28 72 -64.5t99 -64.5zM673 446q0 -116 -46 -220.5t-127.5 -170t-176.5 -65.5q-100 0 -162 68t-62 183q0 114 46.5 219t129 171.5t177.5 66.5q104 0 162.5 -68.5t58.5 -183.5zM226 183 q0 -67 26.5 -107t74.5 -40q60 0 112.5 84t79.5 192t27 196q0 144 -97 144q-62 0 -115 -79.5t-80.5 -186.5t-27.5 -203z" />
<glyph unicode="&#xd3;" horiz-adv-x="647" d="M580 924l10 2q51 -23 51 -53q0 -37 -80.5 -64t-198.5 -32l-5 18q151 70 223 129zM673 446q0 -116 -46 -220.5t-127.5 -170t-176.5 -65.5q-100 0 -162 68t-62 183q0 114 46.5 219t129 171.5t177.5 66.5q104 0 162.5 -68.5t58.5 -183.5zM226 183q0 -67 26.5 -107t74.5 -40 q60 0 112.5 84t79.5 192t27 196q0 144 -97 144q-62 0 -115 -79.5t-80.5 -186.5t-27.5 -203z" />
<glyph unicode="&#xd4;" horiz-adv-x="647" d="M632 784l-17 -10q-72 49 -127 78q-127 -62 -162 -78l-10 13q101 89 143 137l10 6h70q57 -75 93 -146zM673 446q0 -116 -46 -220.5t-127.5 -170t-176.5 -65.5q-100 0 -162 68t-62 183q0 114 46.5 219t129 171.5t177.5 66.5q104 0 162.5 -68.5t58.5 -183.5zM226 183 q0 -67 26.5 -107t74.5 -40q60 0 112.5 84t79.5 192t27 196q0 144 -97 144q-62 0 -115 -79.5t-80.5 -186.5t-27.5 -203z" />
<glyph unicode="&#xd5;" horiz-adv-x="647" d="M365 840q-18 -10 -75 -60l-13 7q46 136 144 136q38 0 102.5 -28.5t89.5 -30.5q21 11 75 60l13 -6q-46 -136 -144 -136q-37 0 -101 28.5t-91 29.5zM673 446q0 -116 -46 -220.5t-127.5 -170t-176.5 -65.5q-100 0 -162 68t-62 183q0 114 46.5 219t129 171.5t177.5 66.5 q104 0 162.5 -68.5t58.5 -183.5zM226 183q0 -67 26.5 -107t74.5 -40q60 0 112.5 84t79.5 192t27 196q0 144 -97 144q-62 0 -115 -79.5t-80.5 -186.5t-27.5 -203z" />
<glyph unicode="&#xd6;" horiz-adv-x="647" d="M668 860q0 -32 -22 -54t-53 -22q-27 0 -43.5 15t-16.5 39q0 30 23 52.5t55 22.5q25 0 41 -14.5t16 -38.5zM445 860q0 -32 -22.5 -54t-53.5 -22q-27 0 -43.5 15t-16.5 39q0 30 23 52.5t56 22.5q24 0 40.5 -14.5t16.5 -38.5zM673 446q0 -116 -46 -220.5t-127.5 -170 t-176.5 -65.5q-100 0 -162 68t-62 183q0 114 46.5 219t129 171.5t177.5 66.5q104 0 162.5 -68.5t58.5 -183.5zM226 183q0 -67 26.5 -107t74.5 -40q60 0 112.5 84t79.5 192t27 196q0 144 -97 144q-62 0 -115 -79.5t-80.5 -186.5t-27.5 -203z" />
<glyph unicode="&#xd7;" d="M478 139l-125 157l-193 -157l-38 53l190 155l-123 156l51 46q36 -41 127 -157l192 157l38 -54l-190 -154q82 -104 122 -154l-3 -11z" />
<glyph unicode="&#xd8;" horiz-adv-x="647" d="M673 446q0 -116 -46 -220.5t-127.5 -170t-176.5 -65.5q-116 0 -177 87l-72 -72l-29 30l79 80q-25 55 -25 126q0 114 46.5 219t129 171.5t177.5 66.5q112 0 172 -80l65 65l29 -29l-72 -73q27 -57 27 -135zM449 652q-58 0 -109 -71t-79 -168.5t-34 -193.5l318 319 q-11 114 -96 114zM327 36q57 0 107.5 76t78 176t32.5 191l-318 -320q5 -57 30.5 -90t69.5 -33z" />
<glyph unicode="&#xd9;" horiz-adv-x="679" d="M660 796l-9 -18q-40 1 -79.5 6.5t-76 15.5t-59 26.5t-22.5 37.5t20.5 38t44.5 25l10 -2q24 -28 72 -64.5t99 -64.5zM624 246q-27 -128 -93 -192t-178 -64q-99 0 -157.5 50.5t-58.5 141.5q0 40 7 72l69 327l13 59l-69 28l4 20h269l2 -20l-49 -18q-19 -9 -28.5 -18 t-12.5 -26l-6 -25l-70 -332q-7 -34 -7 -68q0 -67 34 -104.5t94 -37.5q142 0 187 206l73 342l11 49l-84 29l4 23h219l2 -23l-92 -29l-11 -49z" />
<glyph unicode="&#xda;" horiz-adv-x="679" d="M612 924l10 2q51 -24 51 -53q0 -37 -81 -64t-198 -32l-5 18q151 70 223 129zM624 246q-27 -128 -93 -192t-178 -64q-99 0 -157.5 50.5t-58.5 141.5q0 40 7 72l69 327l13 59l-69 28l4 20h269l2 -20l-49 -18q-19 -9 -28.5 -18t-12.5 -26l-6 -25l-70 -332q-7 -34 -7 -68 q0 -67 34 -104.5t94 -37.5q142 0 187 206l73 342l11 49l-84 29l4 23h219l2 -23l-92 -29l-11 -49z" />
<glyph unicode="&#xdb;" horiz-adv-x="679" d="M683 784l-17 -10q-72 49 -127 78q-98 -49 -162 -78l-10 13q101 89 143 137l11 6h69q57 -75 93 -146zM624 246q-27 -128 -93 -192t-178 -64q-99 0 -157.5 50.5t-58.5 141.5q0 40 7 72l69 327l13 59l-69 28l4 20h269l2 -20l-49 -18q-19 -9 -28.5 -18t-12.5 -26l-6 -25 l-70 -332q-7 -34 -7 -68q0 -67 34 -104.5t94 -37.5q142 0 187 206l73 342l11 49l-84 29l4 23h219l2 -23l-92 -29l-11 -49z" />
<glyph unicode="&#xdc;" horiz-adv-x="679" d="M714 860q0 -32 -22 -54t-53 -22q-27 0 -43.5 15t-16.5 39q0 30 23 52.5t55 22.5q25 0 41 -14.5t16 -38.5zM491 860q0 -32 -22.5 -54t-53.5 -22q-27 0 -43.5 15t-16.5 39q0 30 23 52.5t56 22.5q24 0 40.5 -14.5t16.5 -38.5zM624 246q-27 -128 -93 -192t-178 -64 q-99 0 -157.5 50.5t-58.5 141.5q0 40 7 72l69 327l13 59l-69 28l4 20h269l2 -20l-49 -18q-19 -9 -28.5 -18t-12.5 -26l-6 -25l-70 -332q-7 -34 -7 -68q0 -67 34 -104.5t94 -37.5q142 0 187 206l73 342l11 49l-84 29l4 23h219l2 -23l-92 -29l-11 -49z" />
<glyph unicode="&#xdd;" horiz-adv-x="663" d="M601 924l10 2q51 -23 51 -53q0 -37 -80.5 -64t-198.5 -32l-5 18q151 70 223 129zM381 48l69 -28l-4 -20h-269l-2 20l48 18q19 8 29 17.5t13 26.5l6 25l22 106q11 73 2.5 163.5t-35.5 167t-55 76.5q-29 0 -79 -73l-17 12q31 63 71 101t83 38q72 0 111.5 -104.5 t42.5 -262.5q183 367 277 367q34 0 53.5 -40t24.5 -97l-18 -6q-26 65 -57 65q-36 0 -98.5 -76t-117.5 -181t-72 -183l-15 -73z" />
<glyph unicode="&#xde;" horiz-adv-x="601" d="M252 48l89 -28l-4 -20h-289l-2 20l48 18q19 8 29 17.5t13 26.5l6 25l101 476l13 59l-69 28l4 20h268l2 -20l-48 -18q-19 -8 -28.5 -17t-13.5 -27l-6 -25h1l-5 -24h52q109 0 172 -47t63 -131q0 -109 -88 -177t-221 -68h-68l-6 -29zM396 513h-45l-71 -332h55q85 0 136 61 t51 145q0 63 -33 94.5t-93 31.5z" />
<glyph unicode="&#xdf;" horiz-adv-x="593" d="M202 8q-27 -126 -93 -196t-153 -70q-47 0 -76.5 19.5t-29.5 49.5q0 32 28 44q35 -46 79 -46t72.5 43t48.5 134l113 514q25 123 94.5 190.5t172.5 67.5q72 0 112 -34t40 -94q0 -71 -49 -123.5t-124 -66.5q152 -83 152 -229q0 -93 -61.5 -157t-150.5 -64q-44 0 -71.5 19.5 t-27.5 49.5t28 44q25 -46 66 -46q39 0 66 45.5t27 110.5q0 140 -107 212l6 28q60 9 99 58.5t39 113.5q0 44 -16 68t-46 24q-85 0 -123 -188z" />
<glyph unicode="&#xe0;" horiz-adv-x="553" d="M474 584l-13 -14q-78 33 -131.5 75.5t-51.5 74.5q1 42 70 42h21l8 -6q27 -69 97 -172zM473 154q-11 -49 -11 -64q0 -23 17 -23q27 0 84 68l9 -8q-28 -56 -69 -96.5t-87 -40.5q-36 0 -55.5 21.5t-19.5 59.5q0 25 12 83l16 69h-2q-42 -94 -96.5 -163.5t-109.5 -69.5 q-43 0 -70 37t-27 101q0 98 40 184.5t113 141t162 54.5q98 0 168 -36l-15 -45zM187 147q0 -65 31 -65q26 0 63.5 51.5t67 114t45.5 113.5l21 85q-24 21 -59 21q-41 0 -80.5 -49.5t-64 -124t-24.5 -146.5z" />
<glyph unicode="&#xe1;" horiz-adv-x="553" d="M455 759l10 4q9 0 21 -2q60 -9 60 -39q0 -36 -77 -83t-168 -69l-9 16q110 95 163 173zM473 154q-11 -49 -11 -64q0 -23 17 -23q27 0 84 68l9 -8q-28 -56 -69 -96.5t-87 -40.5q-36 0 -55.5 21.5t-19.5 59.5q0 25 12 83l16 69h-2q-42 -94 -96.5 -163.5t-109.5 -69.5 q-43 0 -70 37t-27 101q0 98 40 184.5t113 141t162 54.5q98 0 168 -36l-15 -45zM187 147q0 -65 31 -65q26 0 63.5 51.5t67 114t45.5 113.5l21 85q-24 21 -59 21q-41 0 -80.5 -49.5t-64 -124t-24.5 -146.5z" />
<glyph unicode="&#xe2;" horiz-adv-x="553" d="M539 585l-17 -10q-65 61 -115 99q-102 -71 -149 -99l-10 13q88 103 130 163l10 6h72q48 -89 79 -172zM473 154q-11 -49 -11 -64q0 -23 17 -23q27 0 84 68l9 -8q-28 -56 -69 -96.5t-87 -40.5q-36 0 -55.5 21.5t-19.5 59.5q0 25 12 83l16 69h-2q-42 -94 -96.5 -163.5 t-109.5 -69.5q-43 0 -70 37t-27 101q0 98 40 184.5t113 141t162 54.5q98 0 168 -36l-15 -45zM187 147q0 -65 31 -65q26 0 63.5 51.5t67 114t45.5 113.5l21 85q-24 21 -59 21q-41 0 -80.5 -49.5t-64 -124t-24.5 -146.5z" />
<glyph unicode="&#xe3;" horiz-adv-x="553" d="M283 655q-21 -13 -71 -63l-11 5q21 68 58 105t85 37q35 0 92.5 -29.5t81.5 -31.5q21 13 71 63l11 -5q-21 -68 -58 -105t-85 -37q-35 0 -93.5 29.5t-80.5 31.5zM473 154q-11 -49 -11 -64q0 -23 17 -23q27 0 84 68l9 -8q-28 -56 -69 -96.5t-87 -40.5q-36 0 -55.5 21.5 t-19.5 59.5q0 25 12 83l16 69h-2q-42 -94 -96.5 -163.5t-109.5 -69.5q-43 0 -70 37t-27 101q0 98 40 184.5t113 141t162 54.5q98 0 168 -36l-15 -45zM187 147q0 -65 31 -65q26 0 63.5 51.5t67 114t45.5 113.5l21 85q-24 21 -59 21q-41 0 -80.5 -49.5t-64 -124t-24.5 -146.5z " />
<glyph unicode="&#xe4;" horiz-adv-x="553" d="M573 678q0 -33 -21.5 -56.5t-52.5 -23.5q-25 0 -41.5 16t-16.5 42q0 31 22.5 55t54.5 24q24 0 39.5 -16t15.5 -41zM354 678q0 -33 -21.5 -56.5t-52.5 -23.5q-26 0 -42 16t-16 42q0 31 22.5 55t54.5 24q24 0 39.5 -16t15.5 -41zM473 154q-11 -49 -11 -64q0 -23 17 -23 q27 0 84 68l9 -8q-28 -56 -69 -96.5t-87 -40.5q-36 0 -55.5 21.5t-19.5 59.5q0 25 12 83l16 69h-2q-42 -94 -96.5 -163.5t-109.5 -69.5q-43 0 -70 37t-27 101q0 98 40 184.5t113 141t162 54.5q98 0 168 -36l-15 -45zM187 147q0 -65 31 -65q26 0 63.5 51.5t67 114t45.5 113.5 l21 85q-24 21 -59 21q-41 0 -80.5 -49.5t-64 -124t-24.5 -146.5z" />
<glyph unicode="&#xe5;" horiz-adv-x="553" d="M511 683q0 -43 -36 -73t-88 -30q-38 0 -60 19t-22 52q0 43 35.5 72.5t87.5 29.5q38 0 60.5 -19t22.5 -51zM358 652q0 -18 10.5 -29t27.5 -11q26 0 44 20.5t18 49.5q0 17 -10.5 28t-28.5 11q-25 0 -43 -20t-18 -49zM473 154q-11 -49 -11 -64q0 -23 17 -23q27 0 84 68l9 -8 q-28 -56 -69 -96.5t-87 -40.5q-36 0 -55.5 21.5t-19.5 59.5q0 25 12 83l16 69h-2q-42 -94 -96.5 -163.5t-109.5 -69.5q-43 0 -70 37t-27 101q0 98 40 184.5t113 141t162 54.5q98 0 168 -36l-15 -45zM187 147q0 -65 31 -65q26 0 63.5 51.5t67 114t45.5 113.5l21 85 q-24 21 -59 21q-41 0 -80.5 -49.5t-64 -124t-24.5 -146.5z" />
<glyph unicode="&#xe6;" horiz-adv-x="713" d="M714 141q-37 -70 -92 -110.5t-119 -40.5q-71 0 -111 49t-40 134q0 4 0.5 10.5t0.5 9.5q-42 -85 -92 -144t-100 -59q-43 0 -70 37t-27 101q0 98 40 184.5t113 141t162 54.5q79 0 147 -26q49 26 97 26q55 0 89 -29.5t34 -77.5q0 -77 -74.5 -126.5t-194.5 -48.5l1 9 q-3 -23 -3 -46q0 -56 24 -87.5t65 -31.5q66 0 141 78zM187 147q0 -65 31 -65q32 0 77 70.5t80 155.5l39 139q-25 20 -58 20q-41 0 -80.5 -49.5t-64 -124t-24.5 -146.5zM609 466q-41 0 -78 -61t-50 -146q70 4 116 51t46 109q0 47 -34 47z" />
<glyph unicode="&#xe7;" horiz-adv-x="426" d="M315 -125q0 -43 -56.5 -74.5t-147.5 -39.5l-2 13q43 13 70.5 36t27.5 46q0 29 -42 35l-3 8l36 93q-60 8 -93.5 55t-33.5 122q0 133 83.5 236t189.5 103q57 0 92 -31t35 -79q0 -42 -23.5 -70t-56.5 -28q-22 0 -44 13q22 61 22 100q0 53 -40 53q-50 0 -92.5 -87t-42.5 -185 q0 -61 24 -92.5t67 -31.5q67 0 142 78l9 -7q-34 -64 -83 -103.5t-107 -46.5l-21 -52q90 -9 90 -64z" />
<glyph unicode="&#xe8;" horiz-adv-x="433" d="M431 584l-13 -14q-78 33 -131.5 75.5t-51.5 74.5q1 42 70 42h21l8 -6q27 -69 97 -172zM434 141q-37 -70 -92 -110.5t-120 -40.5q-70 0 -110 49.5t-40 133.5q0 129 83 232t188 103q54 0 88.5 -29.5t34.5 -77.5q0 -77 -75 -126.5t-194 -48.5v9q-2 -30 -2 -46 q0 -57 23.5 -88t65.5 -31q66 0 141 78zM329 466q-42 0 -79 -61t-50 -146q70 4 116.5 51t46.5 109q0 47 -34 47z" />
<glyph unicode="&#xe9;" horiz-adv-x="433" d="M404 759l10 4q7 0 21 -2q59 -9 59 -39q0 -36 -76.5 -83t-167.5 -69l-10 16q108 93 164 173zM434 141q-37 -70 -92 -110.5t-120 -40.5q-70 0 -110 49.5t-40 133.5q0 129 83 232t188 103q54 0 88.5 -29.5t34.5 -77.5q0 -77 -75 -126.5t-194 -48.5v9q-2 -30 -2 -46 q0 -57 23.5 -88t65.5 -31q66 0 141 78zM329 466q-42 0 -79 -61t-50 -146q70 4 116.5 51t46.5 109q0 47 -34 47z" />
<glyph unicode="&#xea;" horiz-adv-x="433" d="M497 585l-17 -10q-55 53 -114 99q-102 -71 -149 -99l-10 13q90 106 129 163l11 6h71q44 -79 79 -172zM434 141q-37 -70 -92 -110.5t-120 -40.5q-70 0 -110 49.5t-40 133.5q0 129 83 232t188 103q54 0 88.5 -29.5t34.5 -77.5q0 -77 -75 -126.5t-194 -48.5v9q-2 -30 -2 -46 q0 -57 23.5 -88t65.5 -31q66 0 141 78zM329 466q-42 0 -79 -61t-50 -146q70 4 116.5 51t46.5 109q0 47 -34 47z" />
<glyph unicode="&#xeb;" horiz-adv-x="433" d="M536 678q0 -33 -22 -56.5t-52 -23.5q-26 0 -42 16t-16 42q0 31 22 55t54 24q24 0 40 -16t16 -41zM317 678q0 -33 -21.5 -56.5t-52.5 -23.5q-26 0 -42 16t-16 42q0 31 22 55t54 24q24 0 40 -16t16 -41zM434 141q-37 -70 -92 -110.5t-120 -40.5q-70 0 -110 49.5t-40 133.5 q0 129 83 232t188 103q54 0 88.5 -29.5t34.5 -77.5q0 -77 -75 -126.5t-194 -48.5v9q-2 -30 -2 -46q0 -57 23.5 -88t65.5 -31q66 0 141 78zM329 466q-42 0 -79 -61t-50 -146q70 4 116.5 51t46.5 109q0 47 -34 47z" />
<glyph unicode="&#xec;" horiz-adv-x="326" d="M357 584l-13 -14q-78 33 -131.5 75.5t-51.5 74.5q1 42 70 42h21l8 -6q27 -69 97 -172zM242 154q-11 -49 -11 -64q0 -23 17 -23q27 0 84 68l9 -8q-28 -55 -69 -96t-87 -41q-36 0 -55.5 21.5t-19.5 59.5q0 25 12 83q11 53 44 190q10 52 10 64q0 22 -17 22q-27 0 -83 -67 l-10 8q28 55 69 96t87 41q36 0 55.5 -21.5t19.5 -60.5q0 -31 -12 -82q-6 -29 -21.5 -94.5t-21.5 -95.5z" />
<glyph unicode="&#xed;" horiz-adv-x="326" d="M314 759l10 4q7 0 21 -2q59 -9 59 -39q0 -36 -76.5 -83t-167.5 -69l-10 16q49 42 95 90.5t69 82.5zM242 154q-11 -49 -11 -64q0 -23 17 -23q27 0 84 68l9 -8q-28 -55 -69 -96t-87 -41q-36 0 -55.5 21.5t-19.5 59.5q0 25 12 83q11 53 44 190q10 52 10 64q0 22 -17 22 q-27 0 -83 -67l-10 8q28 55 69 96t87 41q36 0 55.5 -21.5t19.5 -60.5q0 -31 -12 -82q-6 -29 -21.5 -94.5t-21.5 -95.5z" />
<glyph unicode="&#xee;" horiz-adv-x="326" d="M362 585l-18 -10q-56 65 -79 90q-81 -63 -119 -90l-10 13q96 150 102 163l11 6h71q27 -99 42 -172zM242 154q-11 -49 -11 -64q0 -23 17 -23q27 0 84 68l9 -8q-28 -55 -69 -96t-87 -41q-36 0 -55.5 21.5t-19.5 59.5q0 25 12 83q11 53 44 190q10 52 10 64q0 22 -17 22 q-27 0 -83 -67l-10 8q28 55 69 96t87 41q36 0 55.5 -21.5t19.5 -60.5q0 -31 -12 -82q-6 -29 -21.5 -94.5t-21.5 -95.5z" />
<glyph unicode="&#xef;" horiz-adv-x="326" d="M418 680q-1 -34 -20.5 -58t-48.5 -24q-22 0 -34.5 15.5t-12.5 40.5q0 34 20.5 57.5t49.5 23.5q22 0 34.5 -15t11.5 -40zM245 680q-1 -34 -20.5 -58t-48.5 -24q-22 0 -35 15.5t-12 40.5q0 34 20.5 57.5t49.5 23.5q21 0 33.5 -15t12.5 -40zM242 154q-11 -49 -11 -64 q0 -23 17 -23q27 0 84 68l9 -8q-28 -55 -69 -96t-87 -41q-36 0 -55.5 21.5t-19.5 59.5q0 25 12 83q11 53 44 190q10 52 10 64q0 22 -17 22q-27 0 -83 -67l-10 8q28 55 69 96t87 41q36 0 55.5 -21.5t19.5 -60.5q0 -31 -12 -82q-6 -29 -21.5 -94.5t-21.5 -95.5z" />
<glyph unicode="&#xf0;" horiz-adv-x="490" d="M251 -10q-76 0 -122.5 51.5t-46.5 137.5q0 133 76 231t174 98q26 0 44 -7q-11 53 -37 99l-176 -74l-11 41l164 69q-45 60 -114 96l12 25q107 -32 172 -91l132 56l11 -42l-111 -47q86 -102 86 -287q0 -149 -74 -252.5t-179 -103.5zM334 469q-51 -1 -90.5 -113.5 t-39.5 -219.5q0 -50 13.5 -78.5t38.5 -28.5q50 0 89 116.5t39 222.5q0 101 -50 101z" />
<glyph unicode="&#xf1;" horiz-adv-x="589" d="M305 655q-18 -11 -70 -63l-11 5q21 68 57.5 105t84.5 37q35 0 93 -29.5t81 -31.5q19 11 71 63l11 -5q-21 -68 -58 -105t-84 -37q-36 0 -94 29.5t-81 31.5zM95 16l29 138q7 32 21 94.5t21 91.5q11 52 11 67q0 23 -18 23q-26 0 -83 -67l-9 8q28 56 68 96.5t85 40.5 q34 0 52.5 -19.5t18.5 -53.5q0 -27 -36 -171q121 244 229 244q39 0 60.5 -24t21.5 -60q0 -21 -6.5 -58t-14 -66.5t-20 -78.5t-16.5 -67q-11 -49 -11 -64q0 -23 18 -23q26 0 83 68l9 -8q-28 -56 -69 -96.5t-87 -40.5q-36 0 -55.5 21.5t-19.5 59.5q0 25 12 83q6 26 22 83.5 t24.5 95t8.5 56.5q0 32 -25 32q-37 0 -91.5 -86.5t-79.5 -160.5l-4 -20l-33 -155l-54 -4q-45 -3 -52 -3q-15 0 -10 24z" />
<glyph unicode="&#xf2;" horiz-adv-x="489" d="M444 584l-13 -14q-78 33 -131.5 75.5t-51.5 74.5q3 42 70 42h21l9 -6q25 -67 96 -172zM500 320q0 -141 -77.5 -235.5t-179.5 -94.5q-76 0 -122.5 51.5t-46.5 137.5q0 133 78 230.5t180 97.5q79 0 123.5 -50.5t44.5 -136.5zM197 136q0 -107 52 -107q33 0 64 59.5 t47.5 138.5t16.5 144q0 98 -51 98q-34 0 -64.5 -57t-47.5 -133.5t-17 -142.5z" />
<glyph unicode="&#xf3;" horiz-adv-x="489" d="M400 759l10 4q7 0 21 -2q59 -9 59 -39q0 -36 -76.5 -83t-167.5 -69l-10 16q49 42 95 90.5t69 82.5zM500 320q0 -141 -77.5 -235.5t-179.5 -94.5q-76 0 -122.5 51.5t-46.5 137.5q0 133 78 230.5t180 97.5q79 0 123.5 -50.5t44.5 -136.5zM197 136q0 -107 52 -107 q33 0 64 59.5t47.5 138.5t16.5 144q0 98 -51 98q-34 0 -64.5 -57t-47.5 -133.5t-17 -142.5z" />
<glyph unicode="&#xf4;" horiz-adv-x="489" d="M496 585l-18 -10q-60 58 -114 99q-102 -71 -149 -99l-10 13q90 106 129 163l11 6h71q47 -85 80 -172zM500 320q0 -141 -77.5 -235.5t-179.5 -94.5q-76 0 -122.5 51.5t-46.5 137.5q0 133 78 230.5t180 97.5q79 0 123.5 -50.5t44.5 -136.5zM197 136q0 -107 52 -107 q33 0 64 59.5t47.5 138.5t16.5 144q0 98 -51 98q-34 0 -64.5 -57t-47.5 -133.5t-17 -142.5z" />
<glyph unicode="&#xf5;" horiz-adv-x="489" d="M243 655q-18 -11 -70 -63l-11 5q21 68 57.5 105t84.5 37q35 0 93 -29.5t81 -31.5q19 11 71 63l11 -5q-21 -68 -58 -105t-84 -37q-36 0 -94 29.5t-81 31.5zM500 320q0 -141 -77.5 -235.5t-179.5 -94.5q-76 0 -122.5 51.5t-46.5 137.5q0 133 78 230.5t180 97.5 q79 0 123.5 -50.5t44.5 -136.5zM197 136q0 -107 52 -107q33 0 64 59.5t47.5 138.5t16.5 144q0 98 -51 98q-34 0 -64.5 -57t-47.5 -133.5t-17 -142.5z" />
<glyph unicode="&#xf6;" horiz-adv-x="489" d="M538 678q0 -33 -22 -56.5t-52 -23.5q-26 0 -42 16t-16 42q0 31 22 55t54 24q24 0 40 -16t16 -41zM319 678q0 -33 -21.5 -56.5t-52.5 -23.5q-26 0 -42 16t-16 42q0 31 22.5 55t54.5 24q24 0 39.5 -16t15.5 -41zM500 320q0 -141 -77.5 -235.5t-179.5 -94.5 q-76 0 -122.5 51.5t-46.5 137.5q0 133 78 230.5t180 97.5q79 0 123.5 -50.5t44.5 -136.5zM197 136q0 -107 52 -107q33 0 64 59.5t47.5 138.5t16.5 144q0 98 -51 98q-34 0 -64.5 -57t-47.5 -133.5t-17 -142.5z" />
<glyph unicode="&#xf7;" d="M386 467q-22 0 -36 13.5t-14 36.5q0 31 23 54t53 23q21 0 35 -13.5t14 -34.5q0 -33 -22.5 -56t-52.5 -23zM564 311h-431l14 64q162 5 431 5l7 -8zM306 96q-21 0 -35 13.5t-14 35.5q0 32 22.5 55t52.5 23q22 0 35.5 -13.5t13.5 -35.5q0 -32 -22.5 -55t-52.5 -23z" />
<glyph unicode="&#xf8;" horiz-adv-x="489" d="M500 320q0 -141 -77.5 -235.5t-179.5 -94.5q-87 0 -134 66l-56 -53l-27 32l62 59q-14 39 -14 85q0 133 78 230.5t180 97.5q86 0 130 -58l49 46l28 -31l-56 -53q17 -40 17 -91zM326 469q-42 0 -77.5 -84t-47.5 -184l176 166v4q0 98 -51 98zM197 136q0 -107 52 -107 q42 0 77 87t47 190l-176 -167v-3z" />
<glyph unicode="&#xf9;" horiz-adv-x="595" d="M473 584l-13 -14q-78 33 -131.5 75.5t-51.5 74.5q1 42 70 42h21l8 -6q30 -75 97 -172zM170 344q10 52 10 64q0 22 -17 22q-26 0 -84 -67l-9 8q28 55 69 96t87 41q36 0 55.5 -21.5t19.5 -60.5q0 -24 -12 -82q-6 -24 -17.5 -68t-17.5 -68.5t-11 -51t-5 -39.5q0 -35 24 -35 q37 0 92.5 91t86.5 190l29 138l54 4q48 3 52 3q15 0 10 -23l-29 -139l-42 -192q-11 -49 -11 -64q0 -23 18 -23q26 0 83 68l9 -8q-27 -55 -68 -96t-88 -41q-36 0 -55.5 21.5t-19.5 59.5q0 28 13 83l13 61h-3q-38 -90 -94 -157.5t-113 -67.5q-39 0 -61 25.5t-22 68.5 q0 25 8.5 66.5t24 102.5t21.5 91z" />
<glyph unicode="&#xfa;" horiz-adv-x="595" d="M462 759l10 4q9 0 21 -2q60 -9 60 -39q0 -36 -77 -83t-168 -69l-9 16q110 95 163 173zM170 344q10 52 10 64q0 22 -17 22q-26 0 -84 -67l-9 8q28 55 69 96t87 41q36 0 55.5 -21.5t19.5 -60.5q0 -24 -12 -82q-6 -24 -17.5 -68t-17.5 -68.5t-11 -51t-5 -39.5q0 -35 24 -35 q37 0 92.5 91t86.5 190l29 138l54 4q48 3 52 3q15 0 10 -23l-29 -139l-42 -192q-11 -49 -11 -64q0 -23 18 -23q26 0 83 68l9 -8q-27 -55 -68 -96t-88 -41q-36 0 -55.5 21.5t-19.5 59.5q0 28 13 83l13 61h-3q-38 -90 -94 -157.5t-113 -67.5q-39 0 -61 25.5t-22 68.5 q0 25 8.5 66.5t24 102.5t21.5 91z" />
<glyph unicode="&#xfb;" horiz-adv-x="595" d="M543 583l-17 -11q-62 60 -115 99q-91 -63 -149 -99l-10 14q88 103 130 163l10 6h72q46 -85 79 -172zM170 344q10 52 10 64q0 22 -17 22q-26 0 -84 -67l-9 8q28 55 69 96t87 41q36 0 55.5 -21.5t19.5 -60.5q0 -24 -12 -82q-6 -24 -17.5 -68t-17.5 -68.5t-11 -51t-5 -39.5 q0 -35 24 -35q37 0 92.5 91t86.5 190l29 138l54 4q48 3 52 3q15 0 10 -23l-29 -139l-42 -192q-11 -49 -11 -64q0 -23 18 -23q26 0 83 68l9 -8q-27 -55 -68 -96t-88 -41q-36 0 -55.5 21.5t-19.5 59.5q0 28 13 83l13 61h-3q-38 -90 -94 -157.5t-113 -67.5q-39 0 -61 25.5 t-22 68.5q0 25 8.5 66.5t24 102.5t21.5 91z" />
<glyph unicode="&#xfc;" horiz-adv-x="595" d="M583 678q0 -33 -21.5 -56.5t-52.5 -23.5q-26 0 -42 16t-16 42q0 31 22.5 55t54.5 24q24 0 39.5 -16t15.5 -41zM364 678q0 -33 -21.5 -56.5t-52.5 -23.5q-26 0 -42 16t-16 42q0 31 22.5 55t54.5 24q24 0 39.5 -16t15.5 -41zM170 344q10 52 10 64q0 22 -17 22 q-26 0 -84 -67l-9 8q28 55 69 96t87 41q36 0 55.5 -21.5t19.5 -60.5q0 -24 -12 -82q-6 -24 -17.5 -68t-17.5 -68.5t-11 -51t-5 -39.5q0 -35 24 -35q37 0 92.5 91t86.5 190l29 138l54 4q48 3 52 3q15 0 10 -23l-29 -139l-42 -192q-11 -49 -11 -64q0 -23 18 -23q26 0 83 68 l9 -8q-27 -55 -68 -96t-88 -41q-36 0 -55.5 21.5t-19.5 59.5q0 28 13 83l13 61h-3q-38 -90 -94 -157.5t-113 -67.5q-39 0 -61 25.5t-22 68.5q0 25 8.5 66.5t24 102.5t21.5 91z" />
<glyph unicode="&#xfd;" horiz-adv-x="493" d="M394 759l10 4q7 0 21 -2q59 -9 59 -39q0 -36 -76.5 -83t-167.5 -69l-10 16q49 42 95 90.5t69 82.5zM193 508q98 0 98 -162q0 -156 -59 -325q87 90 130.5 196.5t43.5 205.5q0 37 -8 71q20 14 49 14q75 0 75 -91q0 -115 -82 -237.5t-231 -216.5q-43 -100 -100.5 -160.5 t-124.5 -60.5q-42 0 -68.5 18.5t-26.5 46.5q0 31 29 43q29 -39 61 -39q81 0 140 201q24 79 38 166.5t14 142.5q0 109 -44 109q-27 0 -76 -68l-10 9q24 55 65.5 96t86.5 41z" />
<glyph unicode="&#xfe;" horiz-adv-x="531" d="M26 -235l30 139l156 722l13 62l-72 24v12q83 23 198 33l8 -9l-28 -122l-68 -316q41 82 91 139.5t104 58.5q46 0 69.5 -37.5t23.5 -99.5q0 -100 -35 -186.5t-102.5 -140.5t-153.5 -54q-38 0 -66 4l-19 -90l-33 -155l-54 -4q-45 -3 -52 -3q-15 0 -10 23zM395 415 q-35 0 -87 -86t-75 -157l-26 -121q31 -19 67 -19q40 0 76.5 51.5t57 125.5t20.5 144q0 62 -33 62z" />
<glyph unicode="&#xff;" horiz-adv-x="493" d="M528 678q0 -33 -21.5 -56.5t-52.5 -23.5q-26 0 -42 16t-16 42q0 31 22 55t54 24q24 0 40 -16t16 -41zM309 678q0 -33 -21.5 -56.5t-52.5 -23.5q-26 0 -42 16t-16 42q0 31 22.5 55t54.5 24q24 0 39.5 -16t15.5 -41zM193 508q98 0 98 -162q0 -156 -59 -325 q87 90 130.5 196.5t43.5 205.5q0 37 -8 71q20 14 49 14q75 0 75 -91q0 -115 -82 -237.5t-231 -216.5q-43 -100 -100.5 -160.5t-124.5 -60.5q-42 0 -68.5 18.5t-26.5 46.5q0 31 29 43q29 -39 61 -39q81 0 140 201q24 79 38 166.5t14 142.5q0 109 -44 109q-27 0 -76 -68l-10 9 q24 55 65.5 96t86.5 41z" />
<glyph unicode="&#x100;" horiz-adv-x="691" d="M352 818l13 62h303l-13 -62h-303zM447 689h75l75 -605q2 -23 9.5 -33t24.5 -16l42 -15l-2 -20h-270l-4 20l81 27l-21 176l-225 -4l-94 -172l78 -27l-4 -20h-206l-3 20l57 20q30 10 48 43zM255 262l198 -1l-36 297z" />
<glyph unicode="&#x101;" horiz-adv-x="553" d="M251 630l14 61h289l-13 -61h-290zM473 154q-11 -49 -11 -64q0 -23 17 -23q27 0 84 68l9 -8q-28 -56 -69 -96.5t-87 -40.5q-36 0 -55.5 21.5t-19.5 59.5q0 25 12 83l16 69h-2q-42 -94 -96.5 -163.5t-109.5 -69.5q-43 0 -70 37t-27 101q0 98 40 184.5t113 141t162 54.5 q98 0 168 -36l-15 -45zM187 147q0 -65 31 -65q26 0 63.5 51.5t67 114t45.5 113.5l21 85q-24 21 -59 21q-41 0 -80.5 -49.5t-64 -124t-24.5 -146.5z" />
<glyph unicode="&#x102;" horiz-adv-x="691" d="M647 917l5 2l17 -6q-23 -63 -66.5 -97t-101.5 -34q-56 0 -81 37.5t-17 96.5l20 4q10 -61 94 -61q89 0 130 58zM447 689h75l75 -605q2 -23 9.5 -33t24.5 -16l42 -15l-2 -20h-270l-4 20l81 27l-21 176l-225 -4l-94 -172l78 -27l-4 -20h-206l-3 20l57 20q30 10 48 43z M255 262l198 -1l-36 297z" />
<glyph unicode="&#x103;" horiz-adv-x="553" d="M537 743l5 2l17 -4q-22 -70 -68.5 -111t-102.5 -41q-54 0 -78.5 43t-16.5 110l20 3q4 -35 29 -55.5t65 -20.5q89 0 130 74zM473 154q-11 -49 -11 -64q0 -23 17 -23q27 0 84 68l9 -8q-28 -56 -69 -96.5t-87 -40.5q-36 0 -55.5 21.5t-19.5 59.5q0 25 12 83l16 69h-2 q-42 -94 -96.5 -163.5t-109.5 -69.5q-43 0 -70 37t-27 101q0 98 40 184.5t113 141t162 54.5q98 0 168 -36l-15 -45zM187 147q0 -65 31 -65q26 0 63.5 51.5t67 114t45.5 113.5l21 85q-24 21 -59 21q-41 0 -80.5 -49.5t-64 -124t-24.5 -146.5z" />
<glyph unicode="&#x104;" horiz-adv-x="691" d="M670 0q-49 -23 -81 -59.5t-32 -70.5q0 -32 24 -32q26 0 69 53l9 -8q-21 -55 -55 -88.5t-79 -33.5q-72 0 -72 75q0 49 43.5 95t110.5 69h-206l-4 20l81 27l-21 176l-225 -4l-94 -172l78 -27l-4 -20h-206l-3 20l57 20q30 10 48 43l339 606h75l75 -605q2 -23 9.5 -33 t24.5 -16l42 -15l-2 -20h-1zM255 262l198 -1l-36 297z" />
<glyph unicode="&#x105;" horiz-adv-x="553" d="M473 154q-11 -49 -11 -64q0 -23 17 -23q27 0 84 68l9 -8q-18 -37 -44 -69l3 2q-23 -29 -54.5 -66t-46 -55t-26 -38.5t-11.5 -36.5q0 -26 24 -26q22 0 65 53l9 -8q-21 -54 -55 -88t-77 -34q-30 0 -49.5 18.5t-19.5 49.5q0 30 22.5 61t46 50t69.5 51q-4 -1 -12 -1 q-36 0 -55.5 21.5t-19.5 59.5q0 25 12 83l16 69h-2q-42 -94 -96.5 -163.5t-109.5 -69.5q-43 0 -70 37t-27 101q0 98 40 184.5t113 141t162 54.5q98 0 168 -36l-15 -45zM187 147q0 -65 31 -65q26 0 63.5 51.5t67 114t45.5 113.5l21 85q-24 21 -59 21q-41 0 -80.5 -49.5 t-64 -124t-24.5 -146.5z" />
<glyph unicode="&#x106;" horiz-adv-x="628" d="M616 924l11 2q51 -24 51 -53q0 -37 -81 -64t-198 -32l-6 18q151 70 223 129zM389 -10q-134 0 -209.5 74t-75.5 207q0 86 32.5 165t87 136.5t129.5 91.5t156 34q103 0 164 -29q-5 -97 -45 -194h-24q-33 131 -44 166q-24 7 -49 7q-113 0 -196.5 -112t-83.5 -266 q0 -106 48 -168.5t123 -62.5q20 0 53 7q52 62 122 161h24q-8 -91 -43 -192q-80 -25 -169 -25z" />
<glyph unicode="&#x107;" horiz-adv-x="426" d="M419 759l10 4q7 0 21 -2q59 -9 59 -39q0 -36 -76.5 -83t-167.5 -69l-10 16q105 89 164 173zM344 508q57 0 92 -31t35 -79q0 -42 -23.5 -70t-56.5 -28q-22 0 -44 13q22 61 22 100q0 53 -40 53q-50 0 -92.5 -87t-42.5 -185q0 -61 24 -92.5t67 -31.5q67 0 142 78l9 -7 q-37 -70 -92 -110.5t-120 -40.5q-72 0 -112.5 48t-40.5 131q0 133 83.5 236t189.5 103z" />
<glyph unicode="&#x108;" horiz-adv-x="628" d="M676 784l-17 -10q-72 49 -127 78q-98 -49 -162 -78l-10 13q101 89 143 137l11 6h70q57 -78 92 -146zM389 -10q-134 0 -209.5 74t-75.5 207q0 86 32.5 165t87 136.5t129.5 91.5t156 34q103 0 164 -29q-5 -97 -45 -194h-24q-33 131 -44 166q-24 7 -49 7q-113 0 -196.5 -112 t-83.5 -266q0 -106 48 -168.5t123 -62.5q20 0 53 7q52 62 122 161h24q-8 -91 -43 -192q-80 -25 -169 -25z" />
<glyph unicode="&#x109;" horiz-adv-x="426" d="M496 585l-17 -10q-65 61 -115 99q-102 -71 -149 -99l-10 13q88 103 130 163l10 6h72q48 -89 79 -172zM344 508q57 0 92 -31t35 -79q0 -42 -23.5 -70t-56.5 -28q-22 0 -44 13q22 61 22 100q0 53 -40 53q-50 0 -92.5 -87t-42.5 -185q0 -61 24 -92.5t67 -31.5q67 0 142 78 l9 -7q-37 -70 -92 -110.5t-120 -40.5q-72 0 -112.5 48t-40.5 131q0 133 83.5 236t189.5 103z" />
<glyph unicode="&#x10a;" horiz-adv-x="628" d="M607 862q0 -35 -26 -60t-63 -25q-29 0 -46.5 15.5t-16.5 40.5q1 35 26.5 59t61.5 24q29 0 46.5 -15t17.5 -39zM389 -10q-134 0 -209.5 74t-75.5 207q0 86 32.5 165t87 136.5t129.5 91.5t156 34q103 0 164 -29q-5 -97 -45 -194h-24q-33 131 -44 166q-24 7 -49 7 q-113 0 -196.5 -112t-83.5 -266q0 -106 48 -168.5t123 -62.5q20 0 53 7q52 62 122 161h24q-8 -91 -43 -192q-80 -25 -169 -25z" />
<glyph unicode="&#x10b;" horiz-adv-x="426" d="M356 590q-25 0 -41 15.5t-16 42.5q0 36 26.5 62.5t61.5 26.5q24 0 40.5 -15.5t16.5 -40.5q0 -37 -26.5 -64t-61.5 -27zM344 508q57 0 92 -31t35 -79q0 -42 -23.5 -70t-56.5 -28q-22 0 -44 13q22 61 22 100q0 53 -40 53q-50 0 -92.5 -87t-42.5 -185q0 -61 24 -92.5 t67 -31.5q67 0 142 78l9 -7q-37 -70 -92 -110.5t-120 -40.5q-72 0 -112.5 48t-40.5 131q0 133 83.5 236t189.5 103z" />
<glyph unicode="&#x10c;" horiz-adv-x="628" d="M559 778l-10 -6h-71q-38 57 -82 147l18 11q58 -46 112 -79q90 43 175 79l10 -13q-89 -76 -152 -139zM389 -10q-134 0 -209.5 74t-75.5 207q0 86 32.5 165t87 136.5t129.5 91.5t156 34q103 0 164 -29q-5 -97 -45 -194h-24q-33 131 -44 166q-24 7 -49 7q-113 0 -196.5 -112 t-83.5 -266q0 -106 48 -168.5t123 -62.5q20 0 53 7q52 62 122 161h24q-8 -91 -43 -192q-80 -25 -169 -25z" />
<glyph unicode="&#x10d;" horiz-adv-x="426" d="M399 581l-10 -6h-72q-43 89 -71 172l17 10q52 -54 106 -99q102 65 163 99l11 -13q-90 -94 -144 -163zM344 508q57 0 92 -31t35 -79q0 -42 -23.5 -70t-56.5 -28q-22 0 -44 13q22 61 22 100q0 53 -40 53q-50 0 -92.5 -87t-42.5 -185q0 -61 24 -92.5t67 -31.5q67 0 142 78 l9 -7q-37 -70 -92 -110.5t-120 -40.5q-72 0 -112.5 48t-40.5 131q0 133 83.5 236t189.5 103z" />
<glyph unicode="&#x10e;" horiz-adv-x="709" d="M555 778l-10 -6h-71q-45 69 -81 147l17 11q58 -46 112 -79q107 51 175 79l11 -13q-87 -73 -153 -139zM307 0h-258l-2 20l48 18q20 8 29 17t13 27l5 25l102 474h-1l13 59l-69 28l4 20h260q128 0 204.5 -68.5t76.5 -190.5q0 -83 -28 -159t-80 -136.5t-134.5 -97 t-182.5 -36.5zM366 581l-101 -474l-14 -65h55q87 0 157 59t106 151t36 196q0 95 -43.5 146.5t-130.5 51.5h-51z" />
<glyph unicode="&#x10f;" horiz-adv-x="553" d="M473 154q-11 -49 -11 -64q0 -23 17 -23q27 0 84 68l9 -8q-28 -56 -69 -96.5t-87 -40.5q-36 0 -55.5 21.5t-19.5 59.5q0 25 12 83l19 80q-26 -60 -56 -111t-73 -92t-82 -41q-43 0 -70 37t-27 101q0 98 40 184.5t113 141t162 54.5q26 0 50 -3l29 121l13 61l-92 25v12 q93 25 218 33l8 -9l-28 -122zM766 701q0 -44 -39 -91t-95 -72l-7 8q43 48 61 96q-38 7 -38 45q0 28 20 47t49 19q22 0 35.5 -14.5t13.5 -37.5zM187 147q0 -65 31 -65q37 0 91 93t83 179l23 92q-24 21 -59 21q-41 0 -80.5 -49.5t-64 -124t-24.5 -146.5z" />
<glyph unicode="&#x110;" horiz-adv-x="709" d="M307 0h-258l-2 20l48 18q20 8 29 17t13 27l5 25l48 223h-101l8 41h102l45 210h-1l13 59l-69 28l4 20h260q128 0 204.5 -68.5t76.5 -190.5q0 -83 -28 -159t-80 -136.5t-134.5 -97t-182.5 -36.5zM468 330h-155l-48 -223l-14 -65h55q87 0 157 59t106 151t36 196 q0 95 -43.5 146.5t-130.5 51.5h-51l-14 -65l-44 -210h155z" />
<glyph unicode="&#x111;" horiz-adv-x="553" d="M473 154q-11 -49 -11 -64q0 -23 17 -23q27 0 84 68l9 -8q-28 -56 -69 -96.5t-87 -40.5q-36 0 -55.5 21.5t-19.5 59.5q0 25 12 83l19 80q-26 -60 -56 -111t-73 -92t-82 -41q-43 0 -70 37t-27 101q0 98 40 184.5t113 141t162 54.5q26 0 50 -3l19 78h-156l9 41h157v2l13 61 l-92 25v12q93 25 218 33l8 -9l-28 -122v-2h113l-9 -41h-113zM187 147q0 -65 31 -65q37 0 91 93t83 179l23 92q-24 21 -59 21q-41 0 -80.5 -49.5t-64 -124t-24.5 -146.5z" />
<glyph unicode="&#x112;" horiz-adv-x="605" d="M320 818l14 61h302l-13 -61h-303zM366 581l-46 -217l195 7l-14 -56l-190 8l-46 -216l-14 -66h120q56 0 85 5q10 14 22 33t34.5 55.5t45.5 72.5h24q-2 -110 -42 -207h-491l-2 20l48 18q20 8 29 17t13 27l5 25l101 474l12 59l-68 28l4 20h468q-1 -90 -46 -208h-24 q-25 125 -34 162q-34 4 -83 4h-92z" />
<glyph unicode="&#x113;" horiz-adv-x="433" d="M208 630l14 61h290l-14 -61h-290zM434 141q-37 -70 -92 -110.5t-120 -40.5q-70 0 -110 49.5t-40 133.5q0 129 83 232t188 103q54 0 88.5 -29.5t34.5 -77.5q0 -77 -75 -126.5t-194 -48.5v9q-2 -30 -2 -46q0 -57 23.5 -88t65.5 -31q66 0 141 78zM329 466q-42 0 -79 -61 t-50 -146q70 4 116.5 51t46.5 109q0 47 -34 47z" />
<glyph unicode="&#x114;" horiz-adv-x="605" d="M597 917l6 2l16 -6q-49 -132 -168 -132q-55 0 -80 38t-17 97l20 3q4 -28 28.5 -44.5t65.5 -16.5q90 0 129 59zM366 581l-46 -217l195 7l-14 -56l-190 8l-46 -216l-14 -66h120q56 0 85 5q10 14 22 33t34.5 55.5t45.5 72.5h24q-2 -110 -42 -207h-491l-2 20l48 18 q20 8 29 17t13 27l5 25l101 474l12 59l-68 28l4 20h468q-1 -90 -46 -208h-24q-25 125 -34 162q-34 4 -83 4h-92z" />
<glyph unicode="&#x115;" horiz-adv-x="433" d="M499 743l5 2l17 -4q-22 -70 -68 -111t-102 -41q-53 0 -78 43t-18 110l21 3q4 -35 28.5 -55.5t64.5 -20.5q91 0 130 74zM434 141q-37 -70 -92 -110.5t-120 -40.5q-70 0 -110 49.5t-40 133.5q0 129 83 232t188 103q54 0 88.5 -29.5t34.5 -77.5q0 -77 -75 -126.5t-194 -48.5 v9q-2 -30 -2 -46q0 -57 23.5 -88t65.5 -31q66 0 141 78zM329 466q-42 0 -79 -61t-50 -146q70 4 116.5 51t46.5 109q0 47 -34 47z" />
<glyph unicode="&#x116;" horiz-adv-x="605" d="M554 861q0 -34 -26.5 -59t-62.5 -25q-29 0 -46.5 15t-17.5 41q1 34 27 58.5t62 24.5q29 0 46.5 -15t17.5 -40zM366 581l-46 -217l195 7l-14 -56l-190 8l-46 -216l-14 -66h120q56 0 85 5q10 14 22 33t34.5 55.5t45.5 72.5h24q-2 -110 -42 -207h-491l-2 20l48 18 q20 8 29 17t13 27l5 25l101 474l12 59l-68 28l4 20h468q-1 -90 -46 -208h-24q-25 125 -34 162q-34 4 -83 4h-92z" />
<glyph unicode="&#x117;" horiz-adv-x="433" d="M345 590q-25 0 -41 16t-16 42q0 36 26 62.5t62 26.5q25 0 41 -15.5t16 -40.5q0 -37 -26.5 -64t-61.5 -27zM434 141q-37 -70 -92 -110.5t-120 -40.5q-70 0 -110 49.5t-40 133.5q0 129 83 232t188 103q54 0 88.5 -29.5t34.5 -77.5q0 -77 -75 -126.5t-194 -48.5v9 q-2 -30 -2 -46q0 -57 23.5 -88t65.5 -31q66 0 141 78zM329 466q-42 0 -79 -61t-50 -146q70 4 116.5 51t46.5 109q0 47 -34 47z" />
<glyph unicode="&#x118;" horiz-adv-x="605" d="M537 0q-49 -23 -81 -59.5t-32 -70.5q0 -32 24 -32q26 0 69 53l9 -8q-21 -55 -55 -88.5t-79 -33.5q-71 0 -71 75q0 49 43 95t110 69h-425l-2 20l48 18q20 8 29 17t13 27l5 25l101 474l12 59l-68 28l4 20h468q-1 -90 -46 -208h-24q-25 125 -34 162q-34 4 -83 4h-92l-14 -65 l-46 -217l195 7l-14 -56l-190 8l-46 -216l-14 -66h120q56 0 85 5q10 14 22 33t34.5 55.5t45.5 72.5h24q-2 -110 -42 -207h-3z" />
<glyph unicode="&#x119;" horiz-adv-x="433" d="M434 141q-26 -49 -60 -83q-26 -28 -61 -63.5t-51.5 -52.5t-29.5 -38t-13 -38q0 -28 24 -28t65 53l9 -8q-20 -55 -54 -88.5t-78 -33.5q-31 0 -50 19.5t-19 51.5q0 23 11 44t33.5 41t44 34.5t53.5 35.5q11 7 16 10q-24 -7 -52 -7q-70 0 -110 49.5t-40 133.5q0 129 83 232 t188 103q54 0 88.5 -29.5t34.5 -77.5q0 -77 -75 -126.5t-194 -48.5v9q-2 -30 -2 -46q0 -57 23.5 -88t65.5 -31q66 0 141 78zM329 466q-42 0 -79 -61t-50 -146q70 4 116.5 51t46.5 109q0 47 -34 47z" />
<glyph unicode="&#x11a;" horiz-adv-x="605" d="M507 777l-10 -6h-72q-46 72 -81 148l17 10q63 -48 113 -79q115 55 174 79l11 -13q-108 -92 -152 -139zM366 581l-46 -217l195 7l-14 -56l-190 8l-46 -216l-14 -66h120q56 0 85 5q10 14 22 33t34.5 55.5t45.5 72.5h24q-2 -110 -42 -207h-491l-2 20l48 18q20 8 29 17t13 27 l5 25l101 474l12 59l-68 28l4 20h468q-1 -90 -46 -208h-24q-25 125 -34 162q-34 4 -83 4h-92z" />
<glyph unicode="&#x11b;" horiz-adv-x="433" d="M396 581l-10 -6h-72q-43 89 -71 172l17 10q52 -54 106 -99q102 65 163 99l10 -13q-92 -98 -143 -163zM434 141q-37 -70 -92 -110.5t-120 -40.5q-70 0 -110 49.5t-40 133.5q0 129 83 232t188 103q54 0 88.5 -29.5t34.5 -77.5q0 -77 -75 -126.5t-194 -48.5v9q-2 -30 -2 -46 q0 -57 23.5 -88t65.5 -31q66 0 141 78zM329 466q-42 0 -79 -61t-50 -146q70 4 116.5 51t46.5 109q0 47 -34 47z" />
<glyph unicode="&#x11c;" horiz-adv-x="683" d="M699 784l-17 -10q-78 51 -127 78q-127 -62 -162 -78l-10 13q94 83 143 137l10 6h70q52 -69 93 -146zM407 39q43 0 76 10l35 164l13 59l-69 28l4 20h263l2 -20l-49 -15q-33 -12 -41 -47l-6 -25l-41 -192q-82 -31 -199 -31q-137 0 -214.5 73.5t-77.5 206.5 q0 177 125.5 302.5t295.5 125.5q103 0 179 -29q-5 -85 -51 -194h-23q-33 128 -45 166q-27 7 -61 7q-114 0 -203.5 -110.5t-89.5 -269.5q0 -101 48.5 -165t128.5 -64z" />
<glyph unicode="&#x11d;" horiz-adv-x="452" d="M470 584l-17 -11q-71 67 -115 99q-91 -64 -149 -99l-10 14q88 103 130 163l10 6h72q46 -85 79 -172zM303 508q180 0 229 13q8 -11 8 -32q0 -19 -11 -32t-33 -13q-23 0 -114 29q66 -39 66 -115q0 -53 -22 -97t-54 -70.5t-63.5 -47.5t-53.5 -37t-22 -29q0 -12 12 -21 t37 -21l3 -1.5t3 -1t3 -1.5q27 -14 39 -20.5t32 -19.5t28.5 -23.5t15.5 -27t7 -35.5q0 -66 -69 -114.5t-177 -48.5q-93 0 -148.5 32.5t-55.5 80.5q0 65 107 114l12 -10q-23 -27 -23 -52q0 -54 38 -90.5t97 -36.5q48 0 80 23.5t32 59.5q0 17 -14 32.5t-29.5 25.5t-50.5 29 q-24 13 -35 20t-26.5 19t-22 24t-6.5 26q0 25 26 48t86 55q-68 2 -110 42t-42 103q0 91 64 156t157 65zM194 287q0 -104 54 -104q36 0 62 66.5t26 143.5t-48 77q-39 0 -66.5 -58.5t-27.5 -124.5z" />
<glyph unicode="&#x11e;" horiz-adv-x="683" d="M678 917l5 2l17 -6q-23 -63 -66.5 -97t-101.5 -34q-56 0 -81 38t-16 96l20 4q4 -29 28.5 -45t64.5 -16q89 0 130 58zM407 39q43 0 76 10l35 164l13 59l-69 28l4 20h263l2 -20l-49 -15q-33 -12 -41 -47l-6 -25l-41 -192q-82 -31 -199 -31q-137 0 -214.5 73.5t-77.5 206.5 q0 177 125.5 302.5t295.5 125.5q103 0 179 -29q-5 -85 -51 -194h-23q-33 128 -45 166q-27 7 -61 7q-114 0 -203.5 -110.5t-89.5 -269.5q0 -101 48.5 -165t128.5 -64z" />
<glyph unicode="&#x11f;" horiz-adv-x="452" d="M472 741l5 2l17 -3q-23 -71 -68.5 -111.5t-102.5 -40.5q-54 0 -78.5 43t-16.5 109l20 4q5 -36 29.5 -56t64.5 -20q90 0 130 73zM303 508q180 0 229 13q8 -11 8 -32q0 -19 -11 -32t-33 -13q-23 0 -114 29q66 -39 66 -115q0 -53 -22 -97t-54 -70.5t-63.5 -47.5t-53.5 -37 t-22 -29q0 -12 12 -21t37 -21l3 -1.5t3 -1t3 -1.5q27 -14 39 -20.5t32 -19.5t28.5 -23.5t15.5 -27t7 -35.5q0 -66 -69 -114.5t-177 -48.5q-93 0 -148.5 32.5t-55.5 80.5q0 65 107 114l12 -10q-23 -27 -23 -52q0 -54 38 -90.5t97 -36.5q48 0 80 23.5t32 59.5q0 17 -14 32.5 t-29.5 25.5t-50.5 29q-24 13 -35 20t-26.5 19t-22 24t-6.5 26q0 25 26 48t86 55q-68 2 -110 42t-42 103q0 91 64 156t157 65zM194 287q0 -104 54 -104q36 0 62 66.5t26 143.5t-48 77q-39 0 -66.5 -58.5t-27.5 -124.5z" />
<glyph unicode="&#x120;" horiz-adv-x="683" d="M624 862q0 -35 -26 -60t-63 -25q-28 0 -45.5 15.5t-17.5 40.5q1 35 26.5 59t62.5 24q28 0 45.5 -15t17.5 -39zM407 39q43 0 76 10l35 164l13 59l-69 28l4 20h263l2 -20l-49 -15q-33 -12 -41 -47l-6 -25l-41 -192q-82 -31 -199 -31q-137 0 -214.5 73.5t-77.5 206.5 q0 177 125.5 302.5t295.5 125.5q103 0 179 -29q-5 -85 -51 -194h-23q-33 128 -45 166q-27 7 -61 7q-114 0 -203.5 -110.5t-89.5 -269.5q0 -101 48.5 -165t128.5 -64z" />
<glyph unicode="&#x121;" horiz-adv-x="452" d="M328 589q-25 0 -41 15.5t-16 42.5q0 36 26 62.5t61 26.5q25 0 41.5 -15.5t16.5 -40.5q0 -37 -26.5 -64t-61.5 -27zM303 508q180 0 229 13q8 -11 8 -32q0 -19 -11 -32t-33 -13q-23 0 -114 29q66 -39 66 -115q0 -53 -22 -97t-54 -70.5t-63.5 -47.5t-53.5 -37t-22 -29 q0 -12 12 -21t37 -21l3 -1.5t3 -1t3 -1.5q27 -14 39 -20.5t32 -19.5t28.5 -23.5t15.5 -27t7 -35.5q0 -66 -69 -114.5t-177 -48.5q-93 0 -148.5 32.5t-55.5 80.5q0 65 107 114l12 -10q-23 -27 -23 -52q0 -54 38 -90.5t97 -36.5q48 0 80 23.5t32 59.5q0 17 -14 32.5 t-29.5 25.5t-50.5 29q-24 13 -35 20t-26.5 19t-22 24t-6.5 26q0 25 26 48t86 55q-68 2 -110 42t-42 103q0 91 64 156t157 65zM194 287q0 -104 54 -104q36 0 62 66.5t26 143.5t-48 77q-39 0 -66.5 -58.5t-27.5 -124.5z" />
<glyph unicode="&#x122;" horiz-adv-x="683" d="M407 39q43 0 76 10l35 164l13 59l-69 28l4 20h263l2 -20l-49 -15q-33 -12 -41 -47l-6 -25l-41 -192q-82 -31 -199 -31q-137 0 -214.5 73.5t-77.5 206.5q0 177 125.5 302.5t295.5 125.5q103 0 179 -29q-5 -85 -51 -194h-23q-33 128 -45 166q-27 7 -61 7 q-114 0 -203.5 -110.5t-89.5 -269.5q0 -101 48.5 -165t128.5 -64zM427 -153q0 -50 -43.5 -105t-105.5 -83l-9 9q47 54 66 110q-41 8 -41 52q0 33 23 55.5t55 22.5q25 0 40 -17t15 -44z" />
<glyph unicode="&#x123;" horiz-adv-x="452" d="M274 650q0 50 43.5 105.5t106.5 83.5l9 -10q-49 -57 -66 -109q41 -9 41 -53q0 -32 -23 -55t-55 -23q-25 0 -40.5 17t-15.5 44zM303 508q180 0 229 13q8 -11 8 -32q0 -19 -11 -32t-33 -13q-23 0 -114 29q66 -39 66 -115q0 -53 -22 -97t-54 -70.5t-63.5 -47.5t-53.5 -37 t-22 -29q0 -12 12 -21t37 -21l3 -1.5t3 -1t3 -1.5q27 -14 39 -20.5t32 -19.5t28.5 -23.5t15.5 -27t7 -35.5q0 -66 -69 -114.5t-177 -48.5q-93 0 -148.5 32.5t-55.5 80.5q0 65 107 114l12 -10q-23 -27 -23 -52q0 -54 38 -90.5t97 -36.5q48 0 80 23.5t32 59.5q0 17 -14 32.5 t-29.5 25.5t-50.5 29q-24 13 -35 20t-26.5 19t-22 24t-6.5 26q0 25 26 48t86 55q-68 2 -110 42t-42 103q0 91 64 156t157 65zM194 287q0 -104 54 -104q36 0 62 66.5t26 143.5t-48 77q-39 0 -66.5 -58.5t-27.5 -124.5z" />
<glyph unicode="&#x124;" horiz-adv-x="792" d="M717 784l-17 -10q-78 51 -128 78q-108 -54 -161 -78l-10 13q102 92 143 137l10 6h70q52 -69 93 -146zM252 48l69 -28l-4 -20h-268l-2 20l48 18q19 8 28 17t13 27l7 25h-1l100 474l13 59l-69 28l4 20h269l2 -20l-49 -18q-19 -9 -28.5 -18t-12.5 -26l-6 -25l-44 -209h287 l44 209l13 59l-69 28l4 20h268l2 -20l-48 -18q-19 -8 -28.5 -17t-13.5 -27l-6 -25h1l-100 -474l-13 -59l69 -28l-4 -20h-269l-2 20l48 18q19 8 29 17.5t13 26.5l6 25l46 217h-287l-46 -217z" />
<glyph unicode="&#x125;" horiz-adv-x="562" d="M436 804l-17 -11q-83 54 -127 79q-98 -50 -162 -79l-10 13q85 75 143 137l10 6h70q56 -74 93 -145zM67 16l30 138l102 473l14 61l-73 25v11q78 22 198 34l8 -9l-28 -122q-39 -177 -93 -368q119 249 234 249q39 0 60.5 -24t21.5 -60q0 -27 -9.5 -71.5t-27.5 -111.5 t-23 -87q-10 -54 -10 -64q0 -23 17 -23q28 0 83 68l10 -8q-28 -55 -69 -96t-87 -41q-37 0 -56 21.5t-19 59.5q0 32 12 83q6 24 21.5 83t24 96t8.5 56q0 32 -24 32q-26 0 -62.5 -46t-66 -102.5t-42.5 -99.5l-5 -19l-33 -155l-54 -4q-45 -3 -52 -3q-13 0 -10 24z" />
<glyph unicode="&#x126;" horiz-adv-x="792" d="M252 48l69 -28l-4 -20h-268l-2 20l48 18q19 8 28 17t13 27l7 25h-1l81 382h-82l7 41h84l10 51l13 59l-69 28l4 20h269l2 -20l-49 -18q-19 -9 -28.5 -18t-12.5 -26l-6 -25l-10 -51h286l11 51l13 59l-69 28l4 20h268l2 -20l-48 -18q-19 -8 -28.5 -17t-13.5 -27l-6 -25h1 l-11 -51h78l-7 -41h-80l-80 -382l-13 -59l69 -28l-4 -20h-269l-2 20l48 18q19 8 29 17.5t13 26.5l6 25l46 217h-287l-46 -217zM321 372h287l24 117h-286z" />
<glyph unicode="&#x127;" horiz-adv-x="562" d="M67 16l30 138l93 429h-122l9 41h122v3l14 61l-73 25v11q78 22 198 34l8 -9l-28 -122v-3h148l-9 -41h-149q-42 -178 -83 -324q119 249 234 249q39 0 60.5 -24t21.5 -60q0 -27 -9.5 -71.5t-27.5 -111.5t-23 -87q-10 -54 -10 -64q0 -23 17 -23q28 0 83 68l10 -8 q-28 -55 -69 -96t-87 -41q-37 0 -56 21.5t-19 59.5q0 32 12 83q6 24 21.5 83t24 96t8.5 56q0 32 -24 32q-26 0 -62.5 -46t-66 -102.5t-42.5 -99.5l-5 -19l-33 -155l-54 -4q-45 -3 -52 -3q-13 0 -10 24z" />
<glyph unicode="&#x128;" horiz-adv-x="386" d="M237 840q-21 -11 -75 -60l-14 7q47 136 144 136q38 0 102.5 -28.5t89.5 -30.5q19 10 75 60l13 -6q-21 -65 -58.5 -100.5t-85.5 -35.5q-37 0 -101 28.5t-90 29.5zM252 48l69 -28l-4 -20h-268l-2 20l48 18q19 8 28 17t13 27l7 25h-1l100 474l13 59l-69 28l4 20h269l2 -20 l-49 -18q-19 -9 -28.5 -18t-12.5 -26l-6 -25l-100 -474z" />
<glyph unicode="&#x129;" horiz-adv-x="326" d="M183 655q-18 -11 -70 -63l-10 5q20 68 54.5 105t79.5 37q26 0 69 -29.5t57 -31.5q18 11 70 63l11 -5q-20 -68 -55 -105t-80 -37q-26 0 -69 29.5t-57 31.5zM242 154q-11 -49 -11 -64q0 -23 17 -23q27 0 84 68l9 -8q-28 -55 -69 -96t-87 -41q-36 0 -55.5 21.5t-19.5 59.5 q0 25 12 83q11 53 44 190q10 52 10 64q0 22 -17 22q-27 0 -83 -67l-10 8q28 55 69 96t87 41q36 0 55.5 -21.5t19.5 -60.5q0 -31 -12 -82q-6 -29 -21.5 -94.5t-21.5 -95.5z" />
<glyph unicode="&#x12a;" horiz-adv-x="386" d="M203 818l13 62h303l-13 -62h-303zM252 48l69 -28l-4 -20h-268l-2 20l48 18q19 8 28 17t13 27l7 25h-1l100 474l13 59l-69 28l4 20h269l2 -20l-49 -18q-19 -9 -28.5 -18t-12.5 -26l-6 -25l-100 -474z" />
<glyph unicode="&#x12b;" horiz-adv-x="326" d="M153 630l14 61h231l-14 -61h-231zM242 154q-11 -49 -11 -64q0 -23 17 -23q27 0 84 68l9 -8q-28 -55 -69 -96t-87 -41q-36 0 -55.5 21.5t-19.5 59.5q0 25 12 83q11 53 44 190q10 52 10 64q0 22 -17 22q-27 0 -83 -67l-10 8q28 55 69 96t87 41q36 0 55.5 -21.5t19.5 -60.5 q0 -31 -12 -82q-6 -29 -21.5 -94.5t-21.5 -95.5z" />
<glyph unicode="&#x12c;" horiz-adv-x="386" d="M489 917l6 2l16 -6q-23 -63 -66.5 -97t-101.5 -34q-55 0 -80 38t-17 96l20 4q4 -29 28.5 -45t64.5 -16q90 0 130 58zM252 48l69 -28l-4 -20h-268l-2 20l48 18q19 8 28 17t13 27l7 25h-1l100 474l13 59l-69 28l4 20h269l2 -20l-49 -18q-19 -9 -28.5 -18t-12.5 -26l-6 -25 l-100 -474z" />
<glyph unicode="&#x12d;" horiz-adv-x="326" d="M382 743l5 2l17 -4q-18 -70 -61 -111t-96 -41q-47 0 -69 43.5t-13 109.5l21 3q1 -35 23 -55.5t57 -20.5q38 0 69.5 19.5t46.5 54.5zM242 154q-11 -49 -11 -64q0 -23 17 -23q27 0 84 68l9 -8q-28 -55 -69 -96t-87 -41q-36 0 -55.5 21.5t-19.5 59.5q0 25 12 83 q11 53 44 190q10 52 10 64q0 22 -17 22q-27 0 -83 -67l-10 8q28 55 69 96t87 41q36 0 55.5 -21.5t19.5 -60.5q0 -31 -12 -82q-6 -29 -21.5 -94.5t-21.5 -95.5z" />
<glyph unicode="&#x12e;" horiz-adv-x="386" d="M252 48l69 -28l-4 -20q-49 -23 -81 -59.5t-32 -70.5q0 -32 25 -32q27 0 68 53l9 -8q-21 -55 -55 -88.5t-79 -33.5q-71 0 -71 75q0 49 43 95t110 69h-205l-2 20l48 18q19 8 28 17t13 27l7 25h-1l100 474l13 59l-69 28l4 20h269l2 -20l-49 -18q-19 -9 -28.5 -18t-12.5 -26 l-6 -25l-100 -474z" />
<glyph unicode="&#x12f;" horiz-adv-x="326" d="M261 590q-25 0 -41 16t-16 42q0 36 26 62.5t62 26.5q25 0 41 -15.5t16 -40.5q0 -37 -26.5 -64t-61.5 -27zM242 154q-11 -49 -11 -64q0 -23 17 -23q27 0 84 68l9 -8q-18 -37 -44 -69l3 2q-23 -29 -54.5 -66t-46 -55t-26 -38.5t-11.5 -36.5q0 -26 24 -26q22 0 65 53l9 -8 q-21 -54 -55 -88t-77 -34q-30 0 -49.5 18.5t-19.5 49.5q0 30 22.5 61t46 50t69.5 51q-4 -1 -12 -1q-36 0 -55.5 21.5t-19.5 59.5q0 25 12 83q11 53 44 190q10 52 10 64q0 22 -17 22q-27 0 -83 -67l-10 8q28 55 69 96t87 41q36 0 55.5 -21.5t19.5 -60.5q0 -31 -12 -82 q-6 -29 -21.5 -94.5t-21.5 -95.5z" />
<glyph unicode="&#x130;" horiz-adv-x="386" d="M435 862q0 -35 -26 -60t-63 -25q-28 0 -45.5 15.5t-17.5 40.5q1 35 26.5 59t62.5 24q28 0 45.5 -15t17.5 -39zM252 48l69 -28l-4 -20h-268l-2 20l48 18q19 8 28 17t13 27l7 25h-1l100 474l13 59l-69 28l4 20h269l2 -20l-49 -18q-19 -9 -28.5 -18t-12.5 -26l-6 -25 l-100 -474z" />
<glyph unicode="&#x131;" horiz-adv-x="326" d="M242 154q-11 -49 -11 -64q0 -23 17 -23q27 0 84 68l9 -8q-28 -55 -69 -96t-87 -41q-36 0 -55.5 21.5t-19.5 59.5q0 25 12 83q11 53 44 190q10 52 10 64q0 22 -17 22q-27 0 -83 -67l-10 8q28 55 69 96t87 41q36 0 55.5 -21.5t19.5 -60.5q0 -31 -12 -82q-6 -29 -21.5 -94.5 t-21.5 -95.5z" />
<glyph unicode="&#x132;" horiz-adv-x="756" d="M252 48l69 -28l-4 -20h-268l-2 20l48 18q19 8 28 17t13 27l7 25h-1l100 474l13 59l-69 28l4 20h269l2 -20l-49 -18q-19 -9 -28.5 -18t-12.5 -26l-6 -25l-100 -474zM639 640l-69 28l4 20h269l2 -20l-48 -18q-19 -8 -29 -17.5t-13 -26.5l-6 -25h1l-107 -503 q-20 -91 -86.5 -154t-153.5 -94l-12 19q53 54 85 114.5t51 149.5l100 468z" />
<glyph unicode="&#x133;" horiz-adv-x="604" d="M261 590q-25 0 -41 16t-16 42q0 36 26 62.5t62 26.5q25 0 41 -15.5t16 -40.5q0 -37 -26.5 -64t-61.5 -27zM547 590q-25 0 -41 15.5t-16 42.5q0 36 26 62.5t61 26.5q25 0 41.5 -15.5t16.5 -40.5q0 -37 -26.5 -64t-61.5 -27zM242 154q-11 -49 -11 -64q0 -23 17 -23 q27 0 84 68l9 -8q-28 -55 -69 -96t-87 -41q-36 0 -55.5 21.5t-19.5 59.5q0 25 12 83q11 53 44 190q10 52 10 64q0 22 -17 22q-27 0 -83 -67l-10 8q28 55 69 96t87 41q36 0 55.5 -21.5t19.5 -60.5q0 -31 -12 -82q-6 -29 -21.5 -94.5t-21.5 -95.5zM454 344q10 52 10 64 q0 22 -17 22q-26 0 -84 -67l-9 8q28 55 69 96t87 41q36 0 55.5 -21.5t19.5 -60.5q0 -24 -12 -82l-70 -336q-26 -125 -92.5 -195.5t-153.5 -70.5q-47 0 -76.5 19.5t-29.5 49.5q0 32 28 44q35 -46 79 -46t73 43.5t48 133.5z" />
<glyph unicode="&#x134;" horiz-adv-x="374" d="M506 784l-17 -10q-78 51 -128 78q-108 -54 -161 -78l-10 13q94 83 143 137l10 6h70q52 -69 93 -146zM256 640l-69 28l4 20h269l2 -20l-49 -18q-19 -9 -28.5 -18t-12.5 -26l-6 -25l-107 -503q-19 -91 -85.5 -154t-153.5 -94l-12 19q52 54 84.5 114t51.5 150l99 468z" />
<glyph unicode="&#x135;" horiz-adv-x="290" d="M340 585l-17 -10q-44 51 -80 90q-55 -44 -118 -90l-10 13q96 150 102 163l10 6h72q22 -82 41 -172zM155 344q10 52 10 64q0 22 -17 22q-25 0 -83 -67l-9 8q27 55 68.5 96t87.5 41q36 0 55 -21.5t19 -60.5q0 -31 -12 -82l-70 -336q-26 -126 -92 -196t-154 -70 q-47 0 -76.5 19.5t-29.5 49.5q0 32 28 44q35 -46 79 -46q45 0 73.5 43t47.5 134z" />
<glyph unicode="&#x136;" horiz-adv-x="701" d="M252 48l69 -28l-4 -20h-268l-2 20l48 18q19 8 28 17t13 27l7 25h-1l100 474l13 59l-69 28l4 20h269l2 -20l-49 -18q-19 -9 -28.5 -18t-12.5 -26l-6 -25l-45 -216l89 1l244 274l-80 28l4 20h231l2 -20l-64 -23q-31 -10 -65 -47l-185 -193l76 -220q25 -73 43.5 -105.5 t46.5 -45.5l31 -14l-5 -20l-123 -3q-38 0 -56 15.5t-29 50.5l-82 256h-88l-45 -212zM409 -153q0 -50 -44 -105t-106 -83l-9 9q48 53 67 110q-19 4 -30.5 17.5t-11.5 34.5q0 33 23 55.5t55 22.5q25 0 40.5 -17t15.5 -44z" />
<glyph unicode="&#x137;" horiz-adv-x="542" d="M67 16l30 138l102 472l14 62l-73 24v12q84 23 198 33l8 -9l-28 -122q-38 -172 -93 -367q50 110 111.5 179.5t131.5 69.5q43 -1 66.5 -24.5t23.5 -59.5q0 -61 -51.5 -113t-115.5 -86q33 -84 53 -121t38 -37q25 0 82 68l9 -8q-27 -55 -69 -96t-87 -41q-49 0 -74.5 43.5 t-64.5 163.5l4 11q65 32 110.5 82.5t45.5 97.5q0 35 -31 35q-43 0 -96 -74t-90 -176l-5 -19l-33 -155l-54 -4q-45 -3 -52 -3q-13 0 -10 24zM310 -153q0 -50 -43.5 -105t-106.5 -83l-8 9q47 54 66 110q-19 4 -30.5 17.5t-11.5 34.5q0 33 23 55.5t55 22.5q25 0 40.5 -17 t15.5 -44z" />
<glyph unicode="&#x138;" horiz-adv-x="581" d="M96 16l30 138l41 192q10 54 10 64q0 23 -17 23q-28 0 -83 -68l-10 8q28 55 69 96t87 41q36 0 55.5 -21.5t19.5 -59.5q0 -32 -12 -83l-18 -84h51q73 121 130 183.5t112 62.5q24 0 37.5 -14.5t13.5 -36.5q0 -45 -27 -82q-22 29 -54 29q-52 0 -126 -91l14 -44 q63 -202 102 -202q26 0 81 68l9 -8q-27 -55 -68 -96t-86 -41q-19 0 -33.5 5.5t-27.5 21.5t-22 31t-20 46.5t-18.5 55.5t-20.5 70h-56l-14 -66l-33 -155l-54 -4q-45 -3 -52 -3q-13 0 -10 24z" />
<glyph unicode="&#x139;" horiz-adv-x="581" d="M434 924l11 2q51 -24 51 -53q0 -37 -81 -64t-198 -32l-6 18q151 70 223 129zM255 640l-69 28l4 20h269l2 -20l-49 -18q-19 -9 -28.5 -18t-12.5 -26l-6 -25l-100 -474l-14 -66h106q47 0 85 5q11 15 23.5 35t35.5 58.5t44 72.5h23q-3 -112 -42 -212h-477l-2 20l48 18 q20 8 29 17t13 27l5 25l100 474z" />
<glyph unicode="&#x13a;" horiz-adv-x="296" d="M380 984l11 2q50 -23 50 -53q0 -37 -80.5 -64t-198.5 -32l-5 18q151 70 223 129zM216 154q-10 -54 -10 -64q0 -23 17 -23q28 0 83 68l9 -8q-27 -55 -68 -96t-88 -41q-36 0 -55 21.5t-19 59.5q0 32 12 83l102 472l14 62l-73 24v12q84 23 198 33l8 -9l-28 -122z" />
<glyph unicode="&#x13b;" horiz-adv-x="581" d="M255 640l-69 28l4 20h269l2 -20l-49 -18q-19 -9 -28.5 -18t-12.5 -26l-6 -25l-100 -474l-14 -66h106q47 0 85 5q11 15 23.5 35t35.5 58.5t44 72.5h23q-3 -112 -42 -212h-477l-2 20l48 18q20 8 29 17t13 27l5 25l100 474zM355 -153q0 -50 -43.5 -105t-105.5 -83l-9 9 q49 57 66 110q-41 9 -41 52q0 33 23 55.5t55 22.5q25 0 40 -17t15 -44z" />
<glyph unicode="&#x13c;" horiz-adv-x="296" d="M216 154q-10 -54 -10 -64q0 -23 17 -23q28 0 83 68l9 -8q-27 -55 -68 -96t-88 -41q-36 0 -55 21.5t-19 59.5q0 32 12 83l102 472l14 62l-73 24v12q84 23 198 33l8 -9l-28 -122zM193 -153q0 -50 -44 -105t-106 -83l-9 9q48 53 67 110q-19 4 -30.5 17.5t-11.5 34.5 q0 33 23 55.5t55 22.5q25 0 40.5 -17t15.5 -44z" />
<glyph unicode="&#x13d;" horiz-adv-x="581" d="M663 648q0 -44 -39 -91.5t-94 -72.5l-8 8q46 51 61 97q-17 2 -27.5 14t-10.5 30q0 28 20 47.5t49 19.5q22 0 35.5 -14.5t13.5 -37.5zM255 640l-69 28l4 20h269l2 -20l-49 -18q-19 -9 -28.5 -18t-12.5 -26l-6 -25l-100 -474l-14 -66h106q47 0 85 5q11 15 23.5 35 t35.5 58.5t44 72.5h23q-3 -112 -42 -212h-477l-2 20l48 18q20 8 29 17t13 27l5 25l100 474z" />
<glyph unicode="&#x13e;" horiz-adv-x="399" d="M519 706q0 -44 -39 -91.5t-94 -72.5l-8 8q46 50 61 96q-38 7 -38 45q0 28 20 47.5t49 19.5q22 0 35.5 -14.5t13.5 -37.5zM216 154q-10 -54 -10 -64q0 -23 17 -23q28 0 83 68l9 -8q-27 -55 -68 -96t-88 -41q-36 0 -55 21.5t-19 59.5q0 32 12 83l102 472l14 62l-73 24v12 q84 23 198 33l8 -9l-28 -122z" />
<glyph unicode="&#x13f;" horiz-adv-x="581" d="M255 640l-69 28l4 20h269l2 -20l-49 -18q-19 -9 -28.5 -18t-12.5 -26l-6 -25l-100 -474l-14 -66h106q47 0 85 5q11 15 23.5 35t35.5 58.5t44 72.5h23q-3 -112 -42 -212h-477l-2 20l48 18q20 8 29 17t13 27l5 25l100 474zM528 323q-25 0 -41 16t-16 42q0 37 26 63.5 t61 26.5q25 0 41.5 -16t16.5 -41q0 -37 -26.5 -64t-61.5 -27z" />
<glyph unicode="&#x140;" horiz-adv-x="435" d="M216 154q-10 -54 -10 -64q0 -23 17 -23q28 0 83 68l9 -8q-27 -55 -68 -96t-88 -41q-36 0 -55 21.5t-19 59.5q0 32 12 83l102 472l14 62l-73 24v12q84 23 198 33l8 -9l-28 -122zM408 311q-25 0 -41.5 16t-16.5 42q0 36 26.5 62.5t61.5 26.5q25 0 41 -15.5t16 -40.5 q0 -37 -26 -64t-61 -27z" />
<glyph unicode="&#x141;" horiz-adv-x="581" d="M444 420l-127 -68l-52 -245l-14 -66h106q47 0 85 5q11 15 23.5 35t35.5 58.5t44 72.5h23q-3 -112 -42 -212h-477l-2 20l48 18q20 8 29 17t13 27l5 25l36 171l-97 -52l-15 44l125 66l51 245l13 59l-69 28l4 20h269l2 -20l-49 -18q-19 -9 -28.5 -18t-12.5 -26l-6 -25 l-36 -170l100 53z" />
<glyph unicode="&#x142;" horiz-adv-x="296" d="M216 154q-10 -54 -10 -64q0 -23 17 -23q28 0 83 68l9 -8q-27 -55 -68 -96t-88 -41q-36 0 -55 21.5t-19 59.5q0 32 12 83l40 187l-99 -53l-14 44l126 67l49 227l14 62l-73 24v12q84 23 198 33l8 -9l-28 -122l-33 -154l102 55l15 -44l-130 -70z" />
<glyph unicode="&#x143;" horiz-adv-x="724" d="M622 924l10 2q51 -23 51 -53q0 -37 -80.5 -64t-198.5 -32l-5 18q151 70 223 129zM179 52l82 -29l-4 -23h-216l-3 23l52 17q23 9 32.5 17t13.5 25l6 25l111 527l-73 31l5 23h173l228 -530l90 423l13 55l-85 29l4 23h219l2 -23l-51 -17q-24 -9 -34 -17t-13 -25l-6 -25 l-123 -581h-78l-239 552l-94 -445z" />
<glyph unicode="&#x144;" horiz-adv-x="589" d="M462 759l10 4q7 0 21 -2q59 -9 59 -39q0 -36 -76.5 -83t-167.5 -69l-10 16q49 42 95 90.5t69 82.5zM95 16l29 138q7 32 21 94.5t21 91.5q11 52 11 67q0 23 -18 23q-26 0 -83 -67l-9 8q28 56 68 96.5t85 40.5q34 0 52.5 -19.5t18.5 -53.5q0 -27 -36 -171q121 244 229 244 q39 0 60.5 -24t21.5 -60q0 -21 -6.5 -58t-14 -66.5t-20 -78.5t-16.5 -67q-11 -49 -11 -64q0 -23 18 -23q26 0 83 68l9 -8q-28 -56 -69 -96.5t-87 -40.5q-36 0 -55.5 21.5t-19.5 59.5q0 25 12 83q6 26 22 83.5t24.5 95t8.5 56.5q0 32 -25 32q-37 0 -91.5 -86.5t-79.5 -160.5 l-4 -20l-33 -155l-54 -4q-45 -3 -52 -3q-15 0 -10 24z" />
<glyph unicode="&#x145;" horiz-adv-x="724" d="M179 52l82 -29l-4 -23h-216l-3 23l52 17q23 9 32.5 17t13.5 25l6 25l111 527l-73 31l5 23h173l228 -530l90 423l13 55l-85 29l4 23h219l2 -23l-51 -17q-24 -9 -34 -17t-13 -25l-6 -25l-123 -581h-78l-239 552l-94 -445zM404 -153q0 -50 -43.5 -105t-105.5 -83l-9 9 q47 54 66 110q-41 8 -41 52q0 33 23 55.5t55 22.5q25 0 40 -17t15 -44z" />
<glyph unicode="&#x146;" horiz-adv-x="589" d="M95 16l29 138q7 32 21 94.5t21 91.5q11 52 11 67q0 23 -18 23q-26 0 -83 -67l-9 8q28 56 68 96.5t85 40.5q34 0 52.5 -19.5t18.5 -53.5q0 -27 -36 -171q121 244 229 244q39 0 60.5 -24t21.5 -60q0 -21 -6.5 -58t-14 -66.5t-20 -78.5t-16.5 -67q-11 -49 -11 -64 q0 -23 18 -23q26 0 83 68l9 -8q-28 -56 -69 -96.5t-87 -40.5q-36 0 -55.5 21.5t-19.5 59.5q0 25 12 83q6 26 22 83.5t24.5 95t8.5 56.5q0 32 -25 32q-37 0 -91.5 -86.5t-79.5 -160.5l-4 -20l-33 -155l-54 -4q-45 -3 -52 -3q-15 0 -10 24zM348 -153q0 -50 -44 -105t-106 -83 l-9 9q49 57 66 110q-41 9 -41 52q0 33 23 55.5t55 22.5q25 0 40.5 -17t15.5 -44z" />
<glyph unicode="&#x147;" horiz-adv-x="724" d="M568 778l-10 -6h-71q-45 69 -81 147l17 11q58 -46 112 -79q107 51 175 79l10 -13q-89 -76 -152 -139zM179 52l82 -29l-4 -23h-216l-3 23l52 17q23 9 32.5 17t13.5 25l6 25l111 527l-73 31l5 23h173l228 -530l90 423l13 55l-85 29l4 23h219l2 -23l-51 -17q-24 -9 -34 -17 t-13 -25l-6 -25l-123 -581h-78l-239 552l-94 -445z" />
<glyph unicode="&#x148;" horiz-adv-x="589" d="M449 581l-10 -6h-71q-37 74 -72 172l17 10q63 -63 106 -99q93 60 163 99l11 -13q-98 -104 -144 -163zM95 16l29 138q7 32 21 94.5t21 91.5q11 52 11 67q0 23 -18 23q-26 0 -83 -67l-9 8q28 56 68 96.5t85 40.5q34 0 52.5 -19.5t18.5 -53.5q0 -27 -36 -171 q121 244 229 244q39 0 60.5 -24t21.5 -60q0 -21 -6.5 -58t-14 -66.5t-20 -78.5t-16.5 -67q-11 -49 -11 -64q0 -23 18 -23q26 0 83 68l9 -8q-28 -56 -69 -96.5t-87 -40.5q-36 0 -55.5 21.5t-19.5 59.5q0 25 12 83q6 26 22 83.5t24.5 95t8.5 56.5q0 32 -25 32 q-37 0 -91.5 -86.5t-79.5 -160.5l-4 -20l-33 -155l-54 -4q-45 -3 -52 -3q-15 0 -10 24z" />
<glyph unicode="&#x14a;" horiz-adv-x="723" d="M178 52l83 -29l-5 -23h-216l-2 23l51 17q24 9 34 17t13 25l6 25l109 518q-7 17 -27 24l-45 16l6 23h172l229 -530l90 423l12 55l-85 29l5 23h218l3 -23l-52 -17q-23 -9 -32.5 -17t-13.5 -25l-6 -25l-108 -506q-20 -89 -56 -137.5t-116 -107.5l-13 16q34 37 47 51.5t32 43 t32 59.5h-20l-238 552l-94 -445z" />
<glyph unicode="&#x14b;" horiz-adv-x="574" d="M95 16l29 138q7 32 21 94.5t21 91.5q11 52 11 67q0 23 -18 23q-26 0 -83 -67l-9 8q28 56 68 96.5t85 40.5q34 0 52.5 -19.5t18.5 -53.5q0 -30 -35 -170q119 243 229 243q39 0 60.5 -25t21.5 -62q0 -46 -81 -413q-28 -126 -94.5 -196t-153.5 -70q-47 0 -76.5 19.5 t-29.5 49.5q0 32 29 44q35 -46 78 -46q45 0 74 43t49 134q9 40 25.5 114.5t23.5 108t16.5 78.5t13 68t3.5 34q0 32 -25 32q-37 0 -91.5 -86.5t-79.5 -160.5l-4 -20l-33 -155l-54 -4q-45 -3 -52 -3q-15 0 -10 24z" />
<glyph unicode="&#x14c;" horiz-adv-x="647" d="M333 818l14 62h303l-14 -62h-303zM673 446q0 -116 -46 -220.5t-127.5 -170t-176.5 -65.5q-100 0 -162 68t-62 183q0 114 46.5 219t129 171.5t177.5 66.5q104 0 162.5 -68.5t58.5 -183.5zM226 183q0 -67 26.5 -107t74.5 -40q60 0 112.5 84t79.5 192t27 196q0 144 -97 144 q-62 0 -115 -79.5t-80.5 -186.5t-27.5 -203z" />
<glyph unicode="&#x14d;" horiz-adv-x="489" d="M211 630l13 61h290l-14 -61h-289zM500 320q0 -141 -77.5 -235.5t-179.5 -94.5q-76 0 -122.5 51.5t-46.5 137.5q0 133 78 230.5t180 97.5q79 0 123.5 -50.5t44.5 -136.5zM197 136q0 -107 52 -107q33 0 64 59.5t47.5 138.5t16.5 144q0 98 -51 98q-34 0 -64.5 -57 t-47.5 -133.5t-17 -142.5z" />
<glyph unicode="&#x14e;" horiz-adv-x="647" d="M623 917l5 2l16 -6q-22 -63 -65.5 -97t-101.5 -34q-56 0 -81 37.5t-17 96.5l20 4q10 -61 94 -61q89 0 130 58zM673 446q0 -116 -46 -220.5t-127.5 -170t-176.5 -65.5q-100 0 -162 68t-62 183q0 114 46.5 219t129 171.5t177.5 66.5q104 0 162.5 -68.5t58.5 -183.5z M226 183q0 -67 26.5 -107t74.5 -40q60 0 112.5 84t79.5 192t27 196q0 144 -97 144q-62 0 -115 -79.5t-80.5 -186.5t-27.5 -203z" />
<glyph unicode="&#x14f;" horiz-adv-x="489" d="M493 743l5 2l17 -4q-22 -70 -68 -111t-102 -41q-53 0 -78 43t-18 110l21 3q4 -35 28.5 -55.5t64.5 -20.5q91 0 130 74zM500 320q0 -141 -77.5 -235.5t-179.5 -94.5q-76 0 -122.5 51.5t-46.5 137.5q0 133 78 230.5t180 97.5q79 0 123.5 -50.5t44.5 -136.5zM197 136 q0 -107 52 -107q33 0 64 59.5t47.5 138.5t16.5 144q0 98 -51 98q-34 0 -64.5 -57t-47.5 -133.5t-17 -142.5z" />
<glyph unicode="&#x150;" horiz-adv-x="647" d="M463 925l11 2q25 -5 41 -17.5t16 -29.5q0 -37 -71.5 -64t-193.5 -38l-7 17q106 50 204 130zM719 925l11 2q25 -5 41 -17.5t16 -29.5q0 -37 -71.5 -64t-192.5 -38l-7 17q106 50 203 130zM673 446q0 -116 -46 -220.5t-127.5 -170t-176.5 -65.5q-100 0 -162 68t-62 183 q0 114 46.5 219t129 171.5t177.5 66.5q104 0 162.5 -68.5t58.5 -183.5zM226 183q0 -67 26.5 -107t74.5 -40q60 0 112.5 84t79.5 192t27 196q0 144 -97 144q-62 0 -115 -79.5t-80.5 -186.5t-27.5 -203z" />
<glyph unicode="&#x151;" horiz-adv-x="489" d="M319 759l10 4q7 0 21 -2q48 -9 48 -39q0 -36 -73.5 -83t-159.5 -69l-10 16q105 89 164 173zM509 759l10 4q14 0 21 -2q47 -10 47 -39q0 -36 -73 -83t-160 -69l-9 16q108 93 164 173zM500 320q0 -141 -77.5 -235.5t-179.5 -94.5q-76 0 -122.5 51.5t-46.5 137.5 q0 133 78 230.5t180 97.5q79 0 123.5 -50.5t44.5 -136.5zM197 136q0 -107 52 -107q33 0 64 59.5t47.5 138.5t16.5 144q0 98 -51 98q-34 0 -64.5 -57t-47.5 -133.5t-17 -142.5z" />
<glyph unicode="&#x152;" horiz-adv-x="913" d="M848 0h-392q-41 -10 -90 -10q-123 0 -198 76t-75 204q0 177 122 302.5t289 125.5q44 0 87 -10h376q-2 -95 -46 -208h-24q-23 116 -33 162q-34 4 -84 4h-92l-60 -282l195 7l-14 -56l-190 8l-60 -282h120q56 0 85 5q4 5 103 161h23q0 -105 -42 -207zM220 239 q0 -92 39.5 -147.5t110.5 -55.5q37 0 70 20l123 580q-27 16 -61 16q-78 0 -144 -60.5t-102 -155t-36 -197.5z" />
<glyph unicode="&#x153;" horiz-adv-x="714" d="M318 508q102 0 137 -98q80 98 177 98q51 0 83 -29.5t32 -77.5q0 -77 -75 -126.5t-195 -48.5q-1 -12 -1 -37q0 -56 23.5 -87.5t64.5 -31.5q68 0 141 78l10 -7q-35 -70 -88 -110.5t-115 -40.5q-88 0 -123 84q-70 -84 -160 -84q-69 0 -112 51.5t-43 137.5q0 133 74 231 t170 98zM326 469q-34 0 -65 -57t-48 -133.5t-17 -142.5q0 -50 13.5 -78.5t38.5 -28.5q50 0 89 117.5t39 224.5q0 98 -50 98zM609 466q-41 0 -78 -61t-50 -146q70 4 116 51t46 109q0 47 -34 47zM478 235q0 -1 -0.5 -3.5t-0.5 -3.5z" />
<glyph unicode="&#x154;" horiz-adv-x="689" d="M575 924l11 2q51 -24 51 -53q0 -37 -81 -64t-198 -32l-6 18q151 70 223 129zM252 48l69 -28l-4 -20h-268l-2 20l48 18q19 8 28 17t13 27l7 25h-1l101 474l12 59l-68 28l4 20h255q110 0 170.5 -44t60.5 -122q0 -64 -44 -117t-114 -84l45 -136q21 -64 41 -100t48 -51 l30 -14l-5 -20l-122 -3q-38 0 -56.5 15.5t-28.5 50.5l-69 227q-10 -1 -29 -1h-69l-39 -182zM366 581l-53 -247h48q87 0 138.5 56t51.5 136q0 56 -32 86t-89 30h-51z" />
<glyph unicode="&#x155;" horiz-adv-x="447" d="M408 759l10 4q7 0 21 -2q59 -9 59 -39q0 -36 -76.5 -83t-167.5 -69l-10 16q105 89 164 173zM95 16l29 138q53 241 53 253q0 23 -18 23q-26 0 -83 -67l-9 8q28 56 68 96.5t85 40.5q34 0 52.5 -19.5t18.5 -53.5q0 -31 -35 -167q21 46 40 80.5t45 75t54.5 62.5t56.5 22 q24 0 37.5 -14.5t13.5 -36.5q0 -29 -12 -59t-26 -47q-36 30 -65 30t-64 -41.5t-57.5 -89t-30.5 -79.5l-4 -17l-33 -155l-54 -4q-45 -3 -52 -3q-15 0 -10 24z" />
<glyph unicode="&#x156;" horiz-adv-x="689" d="M252 48l69 -28l-4 -20h-268l-2 20l48 18q19 8 28 17t13 27l7 25h-1l101 474l12 59l-68 28l4 20h255q110 0 170.5 -44t60.5 -122q0 -64 -44 -117t-114 -84l45 -136q21 -64 41 -100t48 -51l30 -14l-5 -20l-122 -3q-38 0 -56.5 15.5t-28.5 50.5l-69 227q-10 -1 -29 -1h-69 l-39 -182zM366 581l-53 -247h48q87 0 138.5 56t51.5 136q0 56 -32 86t-89 30h-51zM414 -153q0 -50 -43.5 -105t-105.5 -83l-9 9q47 54 66 110q-41 8 -41 52q0 33 22.5 55.5t54.5 22.5q25 0 40.5 -17t15.5 -44z" />
<glyph unicode="&#x157;" horiz-adv-x="447" d="M95 16l29 138q53 241 53 253q0 23 -18 23q-26 0 -83 -67l-9 8q28 56 68 96.5t85 40.5q34 0 52.5 -19.5t18.5 -53.5q0 -31 -35 -167q21 46 40 80.5t45 75t54.5 62.5t56.5 22q24 0 37.5 -14.5t13.5 -36.5q0 -29 -12 -59t-26 -47q-36 30 -65 30t-64 -41.5t-57.5 -89 t-30.5 -79.5l-4 -17l-33 -155l-54 -4q-45 -3 -52 -3q-15 0 -10 24zM186 -153q0 -50 -43.5 -105t-105.5 -83l-9 9q49 57 66 110q-41 9 -41 52q0 33 23 55.5t55 22.5q25 0 40 -17t15 -44z" />
<glyph unicode="&#x158;" horiz-adv-x="689" d="M518 778l-10 -6h-71q-38 57 -82 147l18 11q58 -46 112 -79q90 43 175 79l10 -13q-89 -76 -152 -139zM252 48l69 -28l-4 -20h-268l-2 20l48 18q19 8 28 17t13 27l7 25h-1l101 474l12 59l-68 28l4 20h255q110 0 170.5 -44t60.5 -122q0 -64 -44 -117t-114 -84l45 -136 q21 -64 41 -100t48 -51l30 -14l-5 -20l-122 -3q-38 0 -56.5 15.5t-28.5 50.5l-69 227q-10 -1 -29 -1h-69l-39 -182zM366 581l-53 -247h48q87 0 138.5 56t51.5 136q0 56 -32 86t-89 30h-51z" />
<glyph unicode="&#x159;" horiz-adv-x="447" d="M392 581l-10 -6h-71q-37 74 -72 172l17 10q63 -63 106 -99q93 60 163 99l11 -13q-98 -104 -144 -163zM95 16l29 138q53 241 53 253q0 23 -18 23q-26 0 -83 -67l-9 8q28 56 68 96.5t85 40.5q34 0 52.5 -19.5t18.5 -53.5q0 -31 -35 -167q21 46 40 80.5t45 75t54.5 62.5 t56.5 22q24 0 37.5 -14.5t13.5 -36.5q0 -29 -12 -59t-26 -47q-36 30 -65 30t-64 -41.5t-57.5 -89t-30.5 -79.5l-4 -17l-33 -155l-54 -4q-45 -3 -52 -3q-15 0 -10 24z" />
<glyph unicode="&#x15a;" horiz-adv-x="509" d="M503 924l10 2q51 -24 51 -53q0 -37 -81 -64t-198 -32l-5 18q151 70 223 129zM240 -10q-66 0 -119.5 10.5t-63.5 26.5q-6 9 -6 27q0 30 15 71t38 74l24 -2q-1 -8 -1 -23q0 -71 22 -103q27 -38 96 -38q59 0 97 37.5t38 92.5q0 38 -25 72t-60.5 61t-71 55.5t-60.5 68.5 t-25 86q0 85 76.5 138.5t179.5 53.5q61 0 105.5 -11.5t58.5 -24.5q8 -6 8 -21q0 -27 -16.5 -72t-39.5 -79l-24 1q1 11 1 29q0 62 -13 88q-26 46 -91 46q-53 0 -89.5 -34t-36.5 -85q0 -38 25 -72t60.5 -61.5t71 -56.5t60.5 -68t25 -83q0 -89 -71 -146.5t-188 -57.5z" />
<glyph unicode="&#x15b;" horiz-adv-x="419" d="M385 759l10 4q9 0 21 -2q60 -9 60 -39q0 -36 -77 -83t-168 -69l-9 16q110 95 163 173zM398 139q0 -67 -51.5 -108t-142.5 -41q-68 0 -113 25t-45 68q0 31 22 54.5t56 35.5l10 -8q-5 -28 -2 -54q8 -39 29 -61.5t54 -22.5q31 0 50.5 19t19.5 52q0 27 -17.5 53t-43 48 t-50.5 45.5t-42.5 55.5t-17.5 67q0 61 53 101t131 40q70 0 108.5 -25.5t38.5 -64.5q0 -29 -19.5 -53t-49.5 -36l-10 8q1 28 -2 56q-12 78 -69 78q-29 0 -48 -18.5t-19 -47.5q0 -27 17.5 -53.5t42.5 -49.5t50 -47t42.5 -54t17.5 -62z" />
<glyph unicode="&#x15c;" horiz-adv-x="509" d="M580 784l-17 -10q-78 51 -127 78q-127 -62 -162 -78l-10 13q94 83 143 137l10 6h70q52 -69 93 -146zM240 -10q-66 0 -119.5 10.5t-63.5 26.5q-6 9 -6 27q0 30 15 71t38 74l24 -2q-1 -8 -1 -23q0 -71 22 -103q27 -38 96 -38q59 0 97 37.5t38 92.5q0 38 -25 72t-60.5 61 t-71 55.5t-60.5 68.5t-25 86q0 85 76.5 138.5t179.5 53.5q61 0 105.5 -11.5t58.5 -24.5q8 -6 8 -21q0 -27 -16.5 -72t-39.5 -79l-24 1q1 11 1 29q0 62 -13 88q-26 46 -91 46q-53 0 -89.5 -34t-36.5 -85q0 -38 25 -72t60.5 -61.5t71 -56.5t60.5 -68t25 -83q0 -89 -71 -146.5 t-188 -57.5z" />
<glyph unicode="&#x15d;" horiz-adv-x="419" d="M459 585l-17 -10q-55 53 -114 99q-96 -67 -149 -99l-10 13q98 118 129 163l10 6h72q48 -89 79 -172zM398 139q0 -67 -51.5 -108t-142.5 -41q-68 0 -113 25t-45 68q0 31 22 54.5t56 35.5l10 -8q-5 -28 -2 -54q8 -39 29 -61.5t54 -22.5q31 0 50.5 19t19.5 52q0 27 -17.5 53 t-43 48t-50.5 45.5t-42.5 55.5t-17.5 67q0 61 53 101t131 40q70 0 108.5 -25.5t38.5 -64.5q0 -29 -19.5 -53t-49.5 -36l-10 8q1 28 -2 56q-12 78 -69 78q-29 0 -48 -18.5t-19 -47.5q0 -27 17.5 -53.5t42.5 -49.5t50 -47t42.5 -54t17.5 -62z" />
<glyph unicode="&#x15e;" horiz-adv-x="509" d="M335 -125q0 -43 -56.5 -74.5t-147.5 -39.5l-2 13q43 13 70.5 36t27.5 46q0 29 -42 35l-3 8l36 91q-61 2 -106.5 12t-54.5 25q-6 9 -6 27q0 30 15 71t38 74l24 -2q-1 -8 -1 -23q0 -71 22 -103q27 -38 96 -38q59 0 97 37.5t38 92.5q0 38 -25 72t-60.5 61t-71 55.5 t-60.5 68.5t-25 86q0 85 76.5 138.5t179.5 53.5q61 0 105.5 -11.5t58.5 -24.5q8 -6 8 -21q0 -27 -16.5 -72t-39.5 -79l-24 1q1 11 1 29q0 62 -13 88q-26 46 -91 46q-53 0 -89.5 -34t-36.5 -85q0 -38 25 -72t60.5 -61.5t71 -56.5t60.5 -68t25 -83q0 -84 -63.5 -140 t-169.5 -63l-21 -52q90 -9 90 -64z" />
<glyph unicode="&#x15f;" horiz-adv-x="419" d="M296 -125q0 -43 -57 -74.5t-147 -39.5l-2 13q43 14 70.5 37t27.5 45q0 29 -42 35l-4 8l37 92q-59 5 -96 29t-37 63q0 31 22 54.5t56 35.5l10 -8q-5 -28 -2 -54q8 -39 29 -61.5t54 -22.5q31 0 50.5 19t19.5 52q0 27 -17.5 53t-43 48t-50.5 45.5t-42.5 55.5t-17.5 67 q0 61 53 101t131 40q70 0 108.5 -25.5t38.5 -64.5q0 -29 -19.5 -53t-49.5 -36l-10 8q1 28 -2 56q-12 78 -69 78q-29 0 -48 -18.5t-19 -47.5q0 -27 17.5 -53.5t42.5 -49.5t50 -47t42.5 -54t17.5 -62q0 -63 -45.5 -103t-126.5 -45l-20 -52q90 -9 90 -64z" />
<glyph unicode="&#x160;" horiz-adv-x="509" d="M451 778l-10 -6h-71q-41 61 -81 147l17 11q58 -46 112 -79q107 51 175 79l10 -13q-89 -76 -152 -139zM240 -10q-66 0 -119.5 10.5t-63.5 26.5q-6 9 -6 27q0 30 15 71t38 74l24 -2q-1 -8 -1 -23q0 -71 22 -103q27 -38 96 -38q59 0 97 37.5t38 92.5q0 38 -25 72t-60.5 61 t-71 55.5t-60.5 68.5t-25 86q0 85 76.5 138.5t179.5 53.5q61 0 105.5 -11.5t58.5 -24.5q8 -6 8 -21q0 -27 -16.5 -72t-39.5 -79l-24 1q1 11 1 29q0 62 -13 88q-26 46 -91 46q-53 0 -89.5 -34t-36.5 -85q0 -38 25 -72t60.5 -61.5t71 -56.5t60.5 -68t25 -83q0 -89 -71 -146.5 t-188 -57.5z" />
<glyph unicode="&#x161;" horiz-adv-x="419" d="M373 581l-10 -6h-72q-37 74 -72 172l17 10q63 -63 106 -99q93 60 163 99l11 -13q-92 -98 -143 -163zM398 139q0 -67 -51.5 -108t-142.5 -41q-68 0 -113 25t-45 68q0 31 22 54.5t56 35.5l10 -8q-5 -28 -2 -54q8 -39 29 -61.5t54 -22.5q31 0 50.5 19t19.5 52q0 27 -17.5 53 t-43 48t-50.5 45.5t-42.5 55.5t-17.5 67q0 61 53 101t131 40q70 0 108.5 -25.5t38.5 -64.5q0 -29 -19.5 -53t-49.5 -36l-10 8q1 28 -2 56q-12 78 -69 78q-29 0 -48 -18.5t-19 -47.5q0 -27 17.5 -53.5t42.5 -49.5t50 -47t42.5 -54t17.5 -62z" />
<glyph unicode="&#x162;" horiz-adv-x="613" d="M366 48l69 -28l-4 -20h-112l-24 -61q89 -9 89 -64q0 -43 -56.5 -74.5t-147.5 -39.5l-2 13q43 13 70.5 36t27.5 46q0 29 -42 35l-3 8l40 101h-108l-2 20l48 18q19 8 28 17t13 27l7 25h-1l114 536h-42q-54 0 -89 -7q-31 -41 -56 -88l-41 -68h-24q1 99 42 208h561 q-5 -107 -46 -208h-23l-13 68q-7 52 -19 88q-32 7 -86 7h-41l-114 -536z" />
<glyph unicode="&#x163;" horiz-adv-x="373" d="M291 -125q0 -43 -57 -74.5t-148 -39.5l-2 13q43 13 71 36t28 46q0 29 -43 35l-3 8l37 93q-36 7 -55 35.5t-19 71.5q0 26 6 56l61 288h-73l2 17l83 38l133 142l16 -2l-33 -154h139l-9 -41h-138l-59 -274q-5 -27 -5 -44q0 -55 43 -55q51 0 127 78l9 -7q-71 -133 -180 -149 l-21 -53q43 -5 66.5 -21.5t23.5 -42.5z" />
<glyph unicode="&#x164;" horiz-adv-x="613" d="M500 778l-10 -6h-72q-36 55 -81 148l17 10q83 -61 113 -79q97 47 174 79l11 -13q-108 -92 -152 -139zM366 48l69 -28l-4 -20h-268l-2 20l48 18q19 8 28 17t13 27l7 25h-1l114 536h-42q-54 0 -89 -7q-31 -41 -56 -88l-41 -68h-24q1 99 42 208h561q-5 -107 -46 -208h-23 l-13 68q-7 52 -19 88q-32 7 -86 7h-41l-114 -536z" />
<glyph unicode="&#x165;" horiz-adv-x="373" d="M526 701q0 -44 -38.5 -91t-94.5 -72l-7 8q44 49 60 96q-37 7 -37 45q0 28 20 47t49 19q22 0 35 -14.5t13 -37.5zM195 -10q-46 0 -70.5 29.5t-24.5 79.5q0 26 6 56l61 288h-73l2 17l83 38l133 142l16 -2l-33 -154h139l-9 -41h-138l-59 -274q-5 -27 -5 -44q0 -55 43 -55 q51 0 127 78l9 -7q-36 -66 -89 -108.5t-118 -42.5z" />
<glyph unicode="&#x166;" horiz-adv-x="613" d="M366 48l69 -28l-4 -20h-268l-2 20l48 18q19 8 28 17t13 27l7 25h-1l48 228h-130l9 42h130l57 266h-42q-54 0 -89 -7q-31 -41 -56 -88l-41 -68h-24q1 99 42 208h561q-5 -107 -46 -208h-23l-13 68q-7 52 -19 88q-32 7 -86 7h-41l-57 -266h136l-8 -42h-137l-48 -228z" />
<glyph unicode="&#x167;" horiz-adv-x="373" d="M195 -10q-46 0 -70.5 29.5t-24.5 79.5q0 26 6 56l28 132h-63l8 42h64l24 114h-73l2 17l83 38l133 142l16 -2l-33 -154h139l-9 -41h-138l-25 -114h147l-7 -42h-149l-25 -118q-5 -27 -5 -44q0 -55 43 -55q51 0 127 78l9 -7q-36 -66 -89 -108.5t-118 -42.5z" />
<glyph unicode="&#x168;" horiz-adv-x="679" d="M408 840q-16 -8 -75 -60l-13 7q46 136 143 136q38 0 102.5 -28.5t90.5 -30.5q16 8 75 60l13 -6q-46 -136 -144 -136q-37 0 -101.5 28.5t-90.5 29.5zM624 246q-27 -128 -93 -192t-178 -64q-99 0 -157.5 50.5t-58.5 141.5q0 40 7 72l69 327l13 59l-69 28l4 20h269l2 -20 l-49 -18q-19 -9 -28.5 -18t-12.5 -26l-6 -25l-70 -332q-7 -34 -7 -68q0 -67 34 -104.5t94 -37.5q142 0 187 206l73 342l11 49l-84 29l4 23h219l2 -23l-92 -29l-11 -49z" />
<glyph unicode="&#x169;" horiz-adv-x="595" d="M289 655q-19 -11 -71 -63l-11 5q21 68 58 105t84 37q36 0 93.5 -29.5t81.5 -31.5q18 11 70 63l11 -5q-21 -68 -58 -105t-84 -37q-36 0 -94 29.5t-80 31.5zM170 344q10 52 10 64q0 22 -17 22q-26 0 -84 -67l-9 8q28 55 69 96t87 41q36 0 55.5 -21.5t19.5 -60.5 q0 -24 -12 -82q-6 -24 -17.5 -68t-17.5 -68.5t-11 -51t-5 -39.5q0 -35 24 -35q37 0 92.5 91t86.5 190l29 138l54 4q48 3 52 3q15 0 10 -23l-29 -139l-42 -192q-11 -49 -11 -64q0 -23 18 -23q26 0 83 68l9 -8q-27 -55 -68 -96t-88 -41q-36 0 -55.5 21.5t-19.5 59.5 q0 28 13 83l13 61h-3q-38 -90 -94 -157.5t-113 -67.5q-39 0 -61 25.5t-22 68.5q0 25 8.5 66.5t24 102.5t21.5 91z" />
<glyph unicode="&#x16a;" horiz-adv-x="679" d="M384 818l13 62h303l-13 -62h-303zM624 246q-27 -128 -93 -192t-178 -64q-99 0 -157.5 50.5t-58.5 141.5q0 40 7 72l69 327l13 59l-69 28l4 20h269l2 -20l-49 -18q-19 -9 -28.5 -18t-12.5 -26l-6 -25l-70 -332q-7 -34 -7 -68q0 -67 34 -104.5t94 -37.5q142 0 187 206 l73 342l11 49l-84 29l4 23h219l2 -23l-92 -29l-11 -49z" />
<glyph unicode="&#x16b;" horiz-adv-x="595" d="M251 630l14 61h289l-14 -61h-289zM170 344q10 52 10 64q0 22 -17 22q-26 0 -84 -67l-9 8q28 55 69 96t87 41q36 0 55.5 -21.5t19.5 -60.5q0 -24 -12 -82q-6 -24 -17.5 -68t-17.5 -68.5t-11 -51t-5 -39.5q0 -35 24 -35q37 0 92.5 91t86.5 190l29 138l54 4q48 3 52 3 q15 0 10 -23l-29 -139l-42 -192q-11 -49 -11 -64q0 -23 18 -23q26 0 83 68l9 -8q-27 -55 -68 -96t-88 -41q-36 0 -55.5 21.5t-19.5 59.5q0 28 13 83l13 61h-3q-38 -90 -94 -157.5t-113 -67.5q-39 0 -61 25.5t-22 68.5q0 25 8.5 66.5t24 102.5t21.5 91z" />
<glyph unicode="&#x16c;" horiz-adv-x="679" d="M665 917l5 2l17 -6q-23 -63 -66.5 -97t-101.5 -34q-56 0 -81 38t-16 96l20 4q4 -29 28.5 -45t64.5 -16q90 0 130 58zM624 246q-27 -128 -93 -192t-178 -64q-99 0 -157.5 50.5t-58.5 141.5q0 40 7 72l69 327l13 59l-69 28l4 20h269l2 -20l-49 -18q-19 -9 -28.5 -18 t-12.5 -26l-6 -25l-70 -332q-7 -34 -7 -68q0 -67 34 -104.5t94 -37.5q142 0 187 206l73 342l11 49l-84 29l4 23h219l2 -23l-92 -29l-11 -49z" />
<glyph unicode="&#x16d;" horiz-adv-x="595" d="M542 743l5 2l17 -4q-22 -70 -68 -111t-102 -41q-53 0 -78 43t-18 110l21 3q4 -35 28.5 -55.5t64.5 -20.5q91 0 130 74zM170 344q10 52 10 64q0 22 -17 22q-26 0 -84 -67l-9 8q28 55 69 96t87 41q36 0 55.5 -21.5t19.5 -60.5q0 -24 -12 -82q-6 -24 -17.5 -68t-17.5 -68.5 t-11 -51t-5 -39.5q0 -35 24 -35q37 0 92.5 91t86.5 190l29 138l54 4q48 3 52 3q15 0 10 -23l-29 -139l-42 -192q-11 -49 -11 -64q0 -23 18 -23q26 0 83 68l9 -8q-27 -55 -68 -96t-88 -41q-36 0 -55.5 21.5t-19.5 59.5q0 28 13 83l13 61h-3q-38 -90 -94 -157.5t-113 -67.5 q-39 0 -61 25.5t-22 68.5q0 25 8.5 66.5t24 102.5t21.5 91z" />
<glyph unicode="&#x16e;" horiz-adv-x="679" d="M645 868q0 -43 -35.5 -73t-87.5 -30q-38 0 -60.5 19t-22.5 52q0 43 36 72t87 29q38 0 60.5 -18.5t22.5 -50.5zM492 836q0 -17 10.5 -28t27.5 -11q26 0 44 20t18 49q0 18 -10.5 28.5t-27.5 10.5q-26 0 -44 -20t-18 -49zM624 246q-27 -128 -93 -192t-178 -64 q-99 0 -157.5 50.5t-58.5 141.5q0 40 7 72l69 327l13 59l-69 28l4 20h269l2 -20l-49 -18q-19 -9 -28.5 -18t-12.5 -26l-6 -25l-70 -332q-7 -34 -7 -68q0 -67 34 -104.5t94 -37.5q142 0 187 206l73 342l11 49l-84 29l4 23h219l2 -23l-92 -29l-11 -49z" />
<glyph unicode="&#x16f;" horiz-adv-x="595" d="M511 683q0 -43 -36 -73t-88 -30q-38 0 -60 19t-22 52q0 43 35.5 72.5t87.5 29.5q38 0 60.5 -19t22.5 -51zM358 652q0 -18 10.5 -29t27.5 -11q26 0 44 20.5t18 49.5q0 17 -10.5 28t-28.5 11q-25 0 -43 -20t-18 -49zM170 344q10 52 10 64q0 22 -17 22q-26 0 -84 -67l-9 8 q28 55 69 96t87 41q36 0 55.5 -21.5t19.5 -60.5q0 -24 -12 -82q-6 -24 -17.5 -68t-17.5 -68.5t-11 -51t-5 -39.5q0 -35 24 -35q37 0 92.5 91t86.5 190l29 138l54 4q48 3 52 3q15 0 10 -23l-29 -139l-42 -192q-11 -49 -11 -64q0 -23 18 -23q26 0 83 68l9 -8q-27 -55 -68 -96 t-88 -41q-36 0 -55.5 21.5t-19.5 59.5q0 28 13 83l13 61h-3q-38 -90 -94 -157.5t-113 -67.5q-39 0 -61 25.5t-22 68.5q0 25 8.5 66.5t24 102.5t21.5 91z" />
<glyph unicode="&#x170;" horiz-adv-x="679" d="M501 925l11 2q25 -5 41 -17.5t16 -29.5q0 -37 -71.5 -64t-192.5 -38l-7 17q106 50 203 130zM757 925l11 2q25 -5 41 -17.5t16 -29.5q0 -37 -71.5 -64t-192.5 -38l-7 17q106 50 203 130zM624 246q-27 -128 -93 -192t-178 -64q-99 0 -157.5 50.5t-58.5 141.5q0 40 7 72 l69 327l13 59l-69 28l4 20h269l2 -20l-49 -18q-19 -9 -28.5 -18t-12.5 -26l-6 -25l-70 -332q-7 -34 -7 -68q0 -67 34 -104.5t94 -37.5q142 0 187 206l73 342l11 49l-84 29l4 23h219l2 -23l-92 -29l-11 -49z" />
<glyph unicode="&#x171;" horiz-adv-x="595" d="M362 759l10 4q7 0 21 -2q48 -9 48 -39q0 -36 -73.5 -83t-159.5 -69l-10 16q49 42 95 90.5t69 82.5zM552 759l10 4q14 0 21 -2q48 -11 48 -39q0 -36 -73.5 -83t-159.5 -69l-10 16q108 93 164 173zM170 344q10 52 10 64q0 22 -17 22q-26 0 -84 -67l-9 8q28 55 69 96t87 41 q36 0 55.5 -21.5t19.5 -60.5q0 -24 -12 -82q-6 -24 -17.5 -68t-17.5 -68.5t-11 -51t-5 -39.5q0 -35 24 -35q37 0 92.5 91t86.5 190l29 138l54 4q48 3 52 3q15 0 10 -23l-29 -139l-42 -192q-11 -49 -11 -64q0 -23 18 -23q26 0 83 68l9 -8q-27 -55 -68 -96t-88 -41 q-36 0 -55.5 21.5t-19.5 59.5q0 28 13 83l13 61h-3q-38 -90 -94 -157.5t-113 -67.5q-39 0 -61 25.5t-22 68.5q0 25 8.5 66.5t24 102.5t21.5 91z" />
<glyph unicode="&#x172;" horiz-adv-x="679" d="M624 246q-35 -166 -136 -224q-80 -52 -116.5 -87t-36.5 -68q0 -29 25 -29q27 0 68 53l10 -8q-21 -54 -56 -88t-77 -34q-33 0 -53 20t-20 55q0 90 149 155q-9 -1 -28 -1q-99 0 -157.5 50.5t-58.5 141.5q0 40 7 72l69 327l13 59l-69 28l4 20h269l2 -20l-49 -18 q-19 -9 -28.5 -18t-12.5 -26l-6 -25l-70 -332q-7 -34 -7 -68q0 -67 34 -104.5t94 -37.5q142 0 187 206l73 342l11 49l-84 29l4 23h219l2 -23l-92 -29l-11 -49z" />
<glyph unicode="&#x173;" horiz-adv-x="595" d="M170 344q10 52 10 64q0 22 -17 22q-26 0 -84 -67l-9 8q28 55 69 96t87 41q36 0 55.5 -21.5t19.5 -60.5q0 -24 -12 -82q-6 -24 -17.5 -68t-17.5 -68.5t-11 -51t-5 -39.5q0 -35 24 -35q37 0 92.5 91t86.5 190l29 138l54 4q48 3 52 3q15 0 10 -23l-29 -139l-42 -192 q-11 -49 -11 -64q0 -23 18 -23q26 0 83 68l9 -8q-18 -37 -44 -69l3 2q-23 -29 -54 -66t-45.5 -55t-26 -38.5t-11.5 -36.5q0 -26 23 -26q22 0 65 53l9 -8q-20 -54 -54 -88t-77 -34q-31 0 -50.5 18.5t-19.5 49.5q0 30 22.5 61t46 50t69.5 51q-4 -1 -12 -1q-36 0 -55.5 21.5 t-19.5 59.5q0 28 13 83l13 61h-3q-38 -90 -94 -157.5t-113 -67.5q-39 0 -61 25.5t-22 68.5q0 25 8.5 66.5t24 102.5t21.5 91z" />
<glyph unicode="&#x174;" horiz-adv-x="1048" d="M844 784l-17 -10q-72 49 -127 78q-98 -49 -162 -78l-10 13q101 89 143 137l11 6h70q57 -78 92 -146zM361 0h-75l-66 604q-2 22 -9.5 32.5t-24.5 16.5l-42 15l2 20h270l4 -20l-81 -27l51 -500l210 389l-9 74q-2 22 -9.5 32.5t-24.5 16.5l-44 15l4 20h270l4 -20l-81 -27 l55 -500l266 501l-80 26l4 20h212l3 -20l-57 -20q-31 -11 -48 -43l-329 -605h-75l-52 451z" />
<glyph unicode="&#x175;" horiz-adv-x="720" d="M596 585l-17 -10q-55 53 -114 99q-102 -71 -149 -99l-10 13q98 118 129 163l10 6h72q48 -89 79 -172zM763 437q0 -79 -92 -210t-204 -233l-70 5q13 191 13 232v40q-72 -171 -190 -277l-69 5q12 206 12 232q0 115 -8.5 157t-31.5 42q-29 0 -81 -68l-11 9q29 56 70.5 96.5 t87.5 40.5q44 0 65.5 -37.5t21.5 -119.5q0 -118 -20 -280q68 97 104.5 197.5t40.5 179.5q0 22 -6 48q22 12 51 12q43 0 60 -33.5t17 -116.5q0 -110 -20 -287q66 94 104.5 195t38.5 174q0 27 -6 55q22 13 50 13q34 0 53.5 -18.5t19.5 -52.5z" />
<glyph unicode="&#x176;" horiz-adv-x="663" d="M652 784l-17 -10q-78 51 -127 78q-127 -62 -162 -78l-10 13q94 83 143 137l10 6h70q52 -69 93 -146zM381 48l69 -28l-4 -20h-269l-2 20l48 18q19 8 29 17.5t13 26.5l6 25l22 106q11 73 2.5 163.5t-35.5 167t-55 76.5q-29 0 -79 -73l-17 12q31 63 71 101t83 38 q72 0 111.5 -104.5t42.5 -262.5q183 367 277 367q34 0 53.5 -40t24.5 -97l-18 -6q-26 65 -57 65q-36 0 -98.5 -76t-117.5 -181t-72 -183l-15 -73z" />
<glyph unicode="&#x177;" horiz-adv-x="493" d="M483 585l-17 -10q-55 53 -114 99q-102 -71 -149 -99l-10 13q90 106 129 163l11 6h71q44 -79 79 -172zM193 508q98 0 98 -162q0 -156 -59 -325q87 90 130.5 196.5t43.5 205.5q0 37 -8 71q20 14 49 14q75 0 75 -91q0 -115 -82 -237.5t-231 -216.5q-43 -100 -100.5 -160.5 t-124.5 -60.5q-42 0 -68.5 18.5t-26.5 46.5q0 31 29 43q29 -39 61 -39q81 0 140 201q24 79 38 166.5t14 142.5q0 109 -44 109q-27 0 -76 -68l-10 9q24 55 65.5 96t86.5 41z" />
<glyph unicode="&#x178;" horiz-adv-x="663" d="M679 860q0 -32 -22.5 -54t-53.5 -22q-27 0 -43 15t-16 39q0 30 22.5 52.5t55.5 22.5q24 0 40.5 -14.5t16.5 -38.5zM456 860q0 -32 -22 -54t-54 -22q-27 0 -43.5 15t-16.5 39q0 30 23 52.5t56 22.5q24 0 40.5 -14.5t16.5 -38.5zM381 48l69 -28l-4 -20h-269l-2 20l48 18 q19 8 29 17.5t13 26.5l6 25l22 106q11 73 2.5 163.5t-35.5 167t-55 76.5q-29 0 -79 -73l-17 12q31 63 71 101t83 38q72 0 111.5 -104.5t42.5 -262.5q183 367 277 367q34 0 53.5 -40t24.5 -97l-18 -6q-26 65 -57 65q-36 0 -98.5 -76t-117.5 -181t-72 -183l-15 -73z" />
<glyph unicode="&#x179;" horiz-adv-x="626" d="M560 924l11 2q51 -24 51 -53q0 -37 -81 -64t-199 -32l-5 18q151 70 223 129zM550 0h-497l1 41l489 603h-161q-45 0 -87 -5l-105 -159h-24q0 104 41 208h489l-1 -41l-488 -603h169q46 0 86 5l106 158h24q0 -91 -42 -207z" />
<glyph unicode="&#x17a;" horiz-adv-x="431" d="M375 759l10 4q9 0 21 -2q60 -9 60 -39q0 -36 -77 -83t-168 -69l-9 16q110 95 163 173zM139 17q-52 0 -92 -27l-26 33q18 20 63.5 68.5t67.5 72.5t56.5 62.5t62.5 71t54 65.5q-90 30 -143 30q-28 0 -45 -15t-39 -56l-13 4q18 95 40.5 138.5t65.5 43.5q81 0 171 -96 q42 54 69 96q46 -15 46 -48q0 -17 -9.5 -31t-34.5 -37q-43 -45 -89.5 -91t-107 -105.5t-92.5 -90.5q28 7 77 7q21 0 69.5 -5.5t62.5 -5.5q22 0 45 32q14 20 27 40l12 -5q-17 -69 -33 -106q-32 -72 -69 -72q-18 0 -93 13.5t-103 13.5z" />
<glyph unicode="&#x17b;" horiz-adv-x="626" d="M560 862q0 -35 -26 -60t-63 -25q-29 0 -46.5 15.5t-16.5 40.5q0 34 26 58.5t62 24.5q29 0 46.5 -15t17.5 -39zM550 0h-497l1 41l489 603h-161q-45 0 -87 -5l-105 -159h-24q0 104 41 208h489l-1 -41l-488 -603h169q46 0 86 5l106 158h24q0 -91 -42 -207z" />
<glyph unicode="&#x17c;" horiz-adv-x="431" d="M319 590q-25 0 -41 15.5t-16 42.5q0 36 26 62.5t61 26.5q25 0 41.5 -15.5t16.5 -40.5q0 -37 -26.5 -64t-61.5 -27zM139 17q-52 0 -92 -27l-26 33q18 20 63.5 68.5t67.5 72.5t56.5 62.5t62.5 71t54 65.5q-90 30 -143 30q-28 0 -45 -15t-39 -56l-13 4q18 95 40.5 138.5 t65.5 43.5q81 0 171 -96q42 54 69 96q46 -15 46 -48q0 -17 -9.5 -31t-34.5 -37q-43 -45 -89.5 -91t-107 -105.5t-92.5 -90.5q28 7 77 7q21 0 69.5 -5.5t62.5 -5.5q22 0 45 32q14 20 27 40l12 -5q-17 -69 -33 -106q-32 -72 -69 -72q-18 0 -93 13.5t-103 13.5z" />
<glyph unicode="&#x17d;" horiz-adv-x="626" d="M509 778l-10 -6h-72q-45 69 -81 147l17 11q60 -47 113 -79q97 47 174 79l11 -13q-100 -86 -152 -139zM550 0h-497l1 41l489 603h-161q-45 0 -87 -5l-105 -159h-24q0 104 41 208h489l-1 -41l-488 -603h169q46 0 86 5l106 158h24q0 -91 -42 -207z" />
<glyph unicode="&#x17e;" horiz-adv-x="431" d="M363 581l-10 -6h-72q-37 74 -72 172l18 10q57 -59 105 -99q95 61 164 99l10 -13q-92 -98 -143 -163zM139 17q-52 0 -92 -27l-26 33q18 20 63.5 68.5t67.5 72.5t56.5 62.5t62.5 71t54 65.5q-90 30 -143 30q-28 0 -45 -15t-39 -56l-13 4q18 95 40.5 138.5t65.5 43.5 q81 0 171 -96q42 54 69 96q46 -15 46 -48q0 -17 -9.5 -31t-34.5 -37q-43 -45 -89.5 -91t-107 -105.5t-92.5 -90.5q28 7 77 7q21 0 69.5 -5.5t62.5 -5.5q22 0 45 32q14 20 27 40l12 -5q-17 -69 -33 -106q-32 -72 -69 -72q-18 0 -93 13.5t-103 13.5z" />
<glyph unicode="&#x18f;" horiz-adv-x="608" d="M629 449q0 -192 -106.5 -325.5t-259.5 -133.5q-91 0 -144.5 59t-53.5 162q0 53 19 116l17 15h383q18 86 18 167q0 141 -106 141q-67 0 -110.5 -52.5t-43.5 -120.5q0 -7 1 -10q-32 -16 -64 -16q-24 0 -39 10.5t-15 30.5q0 79 86 142.5t194 63.5q105 0 164.5 -68t59.5 -181 zM187 183q0 -146 93 -146q62 0 113.5 75.5t81.5 190.5l-272 -9q-16 -59 -16 -111z" />
<glyph unicode="&#x192;" horiz-adv-x="487" d="M231 -9q-27 -112 -93 -180.5t-153 -68.5q-39 0 -63.5 19.5t-24.5 49.5q0 42 49 63q19 -40 38 -60t45 -20q41 0 63 45.5t41 146.5l58 309h-114l12 54h112l19 100q20 120 86.5 184.5t159.5 64.5q57 0 92 -28t35 -66q0 -28 -19 -46t-46 -23q-22 117 -75 117q-39 0 -63 -48 t-49 -150l-25 -105h178l-12 -54h-179z" />
<glyph unicode="&#x19d;" horiz-adv-x="723" d="M11 -170l-13 16q45 48 64 71.5t41.5 72t36.5 114.5l111 521q-7 17 -28 24l-44 16l6 23h172l229 -530l90 423l12 55l-85 29l5 23h218l3 -23l-52 -17q-23 -9 -32.5 -17t-13.5 -25l-6 -25l-124 -581h-78l-238 552l-101 -477q-19 -89 -55.5 -137t-117.5 -108z" />
<glyph unicode="&#x1cd;" horiz-adv-x="691" d="M543 778l-10 -6h-71q-38 57 -82 147l18 11q58 -46 112 -79q90 43 175 79l10 -13q-89 -76 -152 -139zM447 689h75l75 -605q2 -23 9.5 -33t24.5 -16l42 -15l-2 -20h-270l-4 20l81 27l-21 176l-225 -4l-94 -172l78 -27l-4 -20h-206l-3 20l57 20q30 10 48 43zM255 262l198 -1 l-36 297z" />
<glyph unicode="&#x1ce;" horiz-adv-x="553" d="M433 581l-10 -6h-72q-37 74 -72 172l18 10q57 -59 105 -99q95 61 164 99l10 -13q-92 -98 -143 -163zM473 154q-11 -49 -11 -64q0 -23 17 -23q27 0 84 68l9 -8q-28 -56 -69 -96.5t-87 -40.5q-36 0 -55.5 21.5t-19.5 59.5q0 25 12 83l16 69h-2q-42 -94 -96.5 -163.5 t-109.5 -69.5q-43 0 -70 37t-27 101q0 98 40 184.5t113 141t162 54.5q98 0 168 -36l-15 -45zM187 147q0 -65 31 -65q26 0 63.5 51.5t67 114t45.5 113.5l21 85q-24 21 -59 21q-41 0 -80.5 -49.5t-64 -124t-24.5 -146.5z" />
<glyph unicode="&#x1cf;" horiz-adv-x="386" d="M386 778l-10 -6h-71q-38 57 -82 147l17 11q63 -48 113 -79q99 48 175 79l10 -13q-89 -76 -152 -139zM252 48l69 -28l-4 -20h-268l-2 20l48 18q19 8 28 17t13 27l7 25h-1l100 474l13 59l-69 28l4 20h269l2 -20l-49 -18q-19 -9 -28.5 -18t-12.5 -26l-6 -25l-100 -474z" />
<glyph unicode="&#x1d0;" horiz-adv-x="326" d="M291 581l-10 -6h-71q-15 60 -37 172l17 10q42 -57 73 -93q76 59 125 93l11 -13q-75 -106 -108 -163zM242 154q-11 -49 -11 -64q0 -23 17 -23q27 0 84 68l9 -8q-28 -55 -69 -96t-87 -41q-36 0 -55.5 21.5t-19.5 59.5q0 25 12 83q11 53 44 190q10 52 10 64q0 22 -17 22 q-27 0 -83 -67l-10 8q28 55 69 96t87 41q36 0 55.5 -21.5t19.5 -60.5q0 -31 -12 -82q-6 -29 -21.5 -94.5t-21.5 -95.5z" />
<glyph unicode="&#x1d1;" horiz-adv-x="647" d="M516 778l-10 -6h-72q-38 58 -81 147l17 11q63 -48 113 -79q99 48 175 79l10 -13q-89 -76 -152 -139zM673 446q0 -116 -46 -220.5t-127.5 -170t-176.5 -65.5q-100 0 -162 68t-62 183q0 114 46.5 219t129 171.5t177.5 66.5q104 0 162.5 -68.5t58.5 -183.5zM226 183 q0 -67 26.5 -107t74.5 -40q60 0 112.5 84t79.5 192t27 196q0 144 -97 144q-62 0 -115 -79.5t-80.5 -186.5t-27.5 -203z" />
<glyph unicode="&#x1d2;" horiz-adv-x="489" d="M387 581l-10 -6h-72q-37 77 -71 172l17 10q52 -54 106 -99q102 65 163 99l11 -13q-90 -94 -144 -163zM500 320q0 -141 -77.5 -235.5t-179.5 -94.5q-76 0 -122.5 51.5t-46.5 137.5q0 133 78 230.5t180 97.5q79 0 123.5 -50.5t44.5 -136.5zM197 136q0 -107 52 -107 q33 0 64 59.5t47.5 138.5t16.5 144q0 98 -51 98q-34 0 -64.5 -57t-47.5 -133.5t-17 -142.5z" />
<glyph unicode="&#x1d3;" horiz-adv-x="679" d="M566 778l-10 -6h-72q-38 58 -81 147l17 11q63 -48 113 -79q99 48 175 79l10 -13q-89 -76 -152 -139zM624 246q-27 -128 -93 -192t-178 -64q-99 0 -157.5 50.5t-58.5 141.5q0 40 7 72l69 327l13 59l-69 28l4 20h269l2 -20l-49 -18q-19 -9 -28.5 -18t-12.5 -26l-6 -25 l-70 -332q-7 -34 -7 -68q0 -67 34 -104.5t94 -37.5q142 0 187 206l73 342l11 49l-84 29l4 23h219l2 -23l-92 -29l-11 -49z" />
<glyph unicode="&#x1d4;" horiz-adv-x="595" d="M438 581l-10 -6h-71q-37 74 -72 172l17 10q52 -54 106 -99q102 65 163 99l11 -13q-98 -104 -144 -163zM170 344q10 52 10 64q0 22 -17 22q-26 0 -84 -67l-9 8q28 55 69 96t87 41q36 0 55.5 -21.5t19.5 -60.5q0 -24 -12 -82q-6 -24 -17.5 -68t-17.5 -68.5t-11 -51 t-5 -39.5q0 -35 24 -35q37 0 92.5 91t86.5 190l29 138l54 4q48 3 52 3q15 0 10 -23l-29 -139l-42 -192q-11 -49 -11 -64q0 -23 18 -23q26 0 83 68l9 -8q-27 -55 -68 -96t-88 -41q-36 0 -55.5 21.5t-19.5 59.5q0 28 13 83l13 61h-3q-38 -90 -94 -157.5t-113 -67.5 q-39 0 -61 25.5t-22 68.5q0 25 8.5 66.5t24 102.5t21.5 91z" />
<glyph unicode="&#x1d5;" horiz-adv-x="679" d="M423 1023l13 62h303l-13 -62h-303zM714 860q0 -32 -22 -54t-53 -22q-27 0 -43.5 15t-16.5 39q0 30 23 52.5t55 22.5q25 0 41 -14.5t16 -38.5zM491 860q0 -32 -22.5 -54t-53.5 -22q-27 0 -43.5 15t-16.5 39q0 30 23 52.5t56 22.5q24 0 40.5 -14.5t16.5 -38.5zM624 246 q-27 -128 -93 -192t-178 -64q-99 0 -157.5 50.5t-58.5 141.5q0 40 7 72l69 327l13 59l-69 28l4 20h269l2 -20l-49 -18q-19 -9 -28.5 -18t-12.5 -26l-6 -25l-70 -332q-7 -34 -7 -68q0 -67 34 -104.5t94 -37.5q142 0 187 206l73 342l11 49l-84 29l4 23h219l2 -23l-92 -29 l-11 -49z" />
<glyph unicode="&#x1d6;" horiz-adv-x="595" d="M300 865l14 62h289l-13 -62h-290zM583 678q0 -33 -21.5 -56.5t-52.5 -23.5q-26 0 -42 16t-16 42q0 31 22.5 55t54.5 24q24 0 39.5 -16t15.5 -41zM364 678q0 -33 -21.5 -56.5t-52.5 -23.5q-26 0 -42 16t-16 42q0 31 22.5 55t54.5 24q24 0 39.5 -16t15.5 -41zM170 344 q10 52 10 64q0 22 -17 22q-26 0 -84 -67l-9 8q28 55 69 96t87 41q36 0 55.5 -21.5t19.5 -60.5q0 -24 -12 -82q-6 -24 -17.5 -68t-17.5 -68.5t-11 -51t-5 -39.5q0 -35 24 -35q37 0 92.5 91t86.5 190l29 138l54 4q48 3 52 3q15 0 10 -23l-29 -139l-42 -192q-11 -49 -11 -64 q0 -23 18 -23q26 0 83 68l9 -8q-27 -55 -68 -96t-88 -41q-36 0 -55.5 21.5t-19.5 59.5q0 28 13 83l13 61h-3q-38 -90 -94 -157.5t-113 -67.5q-39 0 -61 25.5t-22 68.5q0 25 8.5 66.5t24 102.5t21.5 91z" />
<glyph unicode="&#x1d7;" horiz-adv-x="679" d="M661 1129l11 2q50 -23 50 -53q0 -37 -80.5 -64t-198.5 -32l-5 18q147 66 223 129zM491 860q0 -32 -22.5 -54t-53.5 -22q-27 0 -43.5 15t-16.5 39q0 30 23 52.5t56 22.5q24 0 40.5 -14.5t16.5 -38.5zM714 860q0 -32 -22 -54t-53 -22q-27 0 -43.5 15t-16.5 39q0 30 23 52.5 t55 22.5q25 0 41 -14.5t16 -38.5zM624 246q-27 -128 -93 -192t-178 -64q-99 0 -157.5 50.5t-58.5 141.5q0 40 7 72l69 327l13 59l-69 28l4 20h269l2 -20l-49 -18q-19 -9 -28.5 -18t-12.5 -26l-6 -25l-70 -332q-7 -34 -7 -68q0 -67 34 -104.5t94 -37.5q142 0 187 206l73 342 l11 49l-84 29l4 23h219l2 -23l-92 -29l-11 -49z" />
<glyph unicode="&#x1d8;" horiz-adv-x="595" d="M499 994l10 5q3 0 6.5 -0.5t8 -1.5t6.5 -1q59 -9 59 -38q0 -36 -77 -83.5t-168 -69.5l-9 16q108 93 164 173zM583 678q0 -33 -21.5 -56.5t-52.5 -23.5q-26 0 -42 16t-16 42q0 31 22.5 55t54.5 24q24 0 39.5 -16t15.5 -41zM364 678q0 -33 -21.5 -56.5t-52.5 -23.5 q-26 0 -42 16t-16 42q0 31 22.5 55t54.5 24q24 0 39.5 -16t15.5 -41zM170 344q10 52 10 64q0 22 -17 22q-26 0 -84 -67l-9 8q28 55 69 96t87 41q36 0 55.5 -21.5t19.5 -60.5q0 -24 -12 -82q-6 -24 -17.5 -68t-17.5 -68.5t-11 -51t-5 -39.5q0 -35 24 -35q37 0 92.5 91 t86.5 190l29 138l54 4q48 3 52 3q15 0 10 -23l-29 -139l-42 -192q-11 -49 -11 -64q0 -23 18 -23q26 0 83 68l9 -8q-27 -55 -68 -96t-88 -41q-36 0 -55.5 21.5t-19.5 59.5q0 28 13 83l13 61h-3q-38 -90 -94 -157.5t-113 -67.5q-39 0 -61 25.5t-22 68.5q0 25 8.5 66.5 t24 102.5t21.5 91z" />
<glyph unicode="&#x1d9;" horiz-adv-x="679" d="M600 983l-10 -6h-72q-45 69 -81 147l17 11q60 -47 113 -79q97 47 174 79l11 -13q-100 -86 -152 -139zM714 860q0 -32 -22 -54t-53 -22q-27 0 -43.5 15t-16.5 39q0 30 23 52.5t55 22.5q25 0 41 -14.5t16 -38.5zM491 860q0 -32 -22.5 -54t-53.5 -22q-27 0 -43.5 15 t-16.5 39q0 30 23 52.5t56 22.5q24 0 40.5 -14.5t16.5 -38.5zM624 246q-27 -128 -93 -192t-178 -64q-99 0 -157.5 50.5t-58.5 141.5q0 40 7 72l69 327l13 59l-69 28l4 20h269l2 -20l-49 -18q-19 -9 -28.5 -18t-12.5 -26l-6 -25l-70 -332q-7 -34 -7 -68q0 -67 34 -104.5 t94 -37.5q142 0 187 206l73 342l11 49l-84 29l4 23h219l2 -23l-92 -29l-11 -49z" />
<glyph unicode="&#x1da;" horiz-adv-x="595" d="M475 817l-10 -7h-71q-37 74 -72 172l17 11q69 -69 106 -99q93 60 163 99l11 -13q-91 -96 -144 -163zM583 678q0 -33 -21.5 -56.5t-52.5 -23.5q-26 0 -42 16t-16 42q0 31 22.5 55t54.5 24q24 0 39.5 -16t15.5 -41zM364 678q0 -33 -21.5 -56.5t-52.5 -23.5q-26 0 -42 16 t-16 42q0 31 22.5 55t54.5 24q24 0 39.5 -16t15.5 -41zM170 344q10 52 10 64q0 22 -17 22q-26 0 -84 -67l-9 8q28 55 69 96t87 41q36 0 55.5 -21.5t19.5 -60.5q0 -24 -12 -82q-6 -24 -17.5 -68t-17.5 -68.5t-11 -51t-5 -39.5q0 -35 24 -35q37 0 92.5 91t86.5 190l29 138 l54 4q48 3 52 3q15 0 10 -23l-29 -139l-42 -192q-11 -49 -11 -64q0 -23 18 -23q26 0 83 68l9 -8q-27 -55 -68 -96t-88 -41q-36 0 -55.5 21.5t-19.5 59.5q0 28 13 83l13 61h-3q-38 -90 -94 -157.5t-113 -67.5q-39 0 -61 25.5t-22 68.5q0 25 8.5 66.5t24 102.5t21.5 91z" />
<glyph unicode="&#x1db;" horiz-adv-x="679" d="M700 1001l-10 -18q-40 1 -79.5 6.5t-76 15.5t-59 26.5t-22.5 37.5t20.5 38t44.5 25l10 -2q24 -28 72.5 -64.5t99.5 -64.5zM714 860q0 -32 -22 -54t-53 -22q-27 0 -43.5 15t-16.5 39q0 30 23 52.5t55 22.5q25 0 41 -14.5t16 -38.5zM491 860q0 -32 -22.5 -54t-53.5 -22 q-27 0 -43.5 15t-16.5 39q0 30 23 52.5t56 22.5q24 0 40.5 -14.5t16.5 -38.5zM624 246q-27 -128 -93 -192t-178 -64q-99 0 -157.5 50.5t-58.5 141.5q0 40 7 72l69 327l13 59l-69 28l4 20h269l2 -20l-49 -18q-19 -9 -28.5 -18t-12.5 -26l-6 -25l-70 -332q-7 -34 -7 -68 q0 -67 34 -104.5t94 -37.5q142 0 187 206l73 342l11 49l-84 29l4 23h219l2 -23l-92 -29l-11 -49z" />
<glyph unicode="&#x1dc;" horiz-adv-x="595" d="M519 819l-13 -13q-78 33 -131.5 75t-51.5 75q1 42 70 42q14 0 21 -1l8 -5q28 -72 97 -173zM583 678q0 -33 -21.5 -56.5t-52.5 -23.5q-26 0 -42 16t-16 42q0 31 22.5 55t54.5 24q24 0 39.5 -16t15.5 -41zM364 678q0 -33 -21.5 -56.5t-52.5 -23.5q-26 0 -42 16t-16 42 q0 31 22.5 55t54.5 24q24 0 39.5 -16t15.5 -41zM170 344q10 52 10 64q0 22 -17 22q-26 0 -84 -67l-9 8q28 55 69 96t87 41q36 0 55.5 -21.5t19.5 -60.5q0 -24 -12 -82q-6 -24 -17.5 -68t-17.5 -68.5t-11 -51t-5 -39.5q0 -35 24 -35q37 0 92.5 91t86.5 190l29 138l54 4 q48 3 52 3q15 0 10 -23l-29 -139l-42 -192q-11 -49 -11 -64q0 -23 18 -23q26 0 83 68l9 -8q-27 -55 -68 -96t-88 -41q-36 0 -55.5 21.5t-19.5 59.5q0 28 13 83l13 61h-3q-38 -90 -94 -157.5t-113 -67.5q-39 0 -61 25.5t-22 68.5q0 25 8.5 66.5t24 102.5t21.5 91z" />
<glyph unicode="&#x1e6;" horiz-adv-x="683" d="M586 778l-10 -6h-72q-45 69 -81 147l17 11q60 -47 113 -79q97 47 174 79l11 -13q-100 -86 -152 -139zM407 39q43 0 76 10l35 164l13 59l-69 28l4 20h263l2 -20l-49 -15q-33 -12 -41 -47l-6 -25l-41 -192q-82 -31 -199 -31q-137 0 -214.5 73.5t-77.5 206.5 q0 177 125.5 302.5t295.5 125.5q103 0 179 -29q-5 -85 -51 -194h-23q-33 128 -45 166q-27 7 -61 7q-114 0 -203.5 -110.5t-89.5 -269.5q0 -101 48.5 -165t128.5 -64z" />
<glyph unicode="&#x1e7;" horiz-adv-x="452" d="M363 580l-10 -7h-71q-37 74 -72 172l17 11q63 -63 106 -99q93 59 163 99l11 -13q-78 -82 -144 -163zM303 508q180 0 229 13q8 -11 8 -32q0 -19 -11 -32t-33 -13q-23 0 -114 29q66 -39 66 -115q0 -53 -22 -97t-54 -70.5t-63.5 -47.5t-53.5 -37t-22 -29q0 -12 12 -21 t37 -21l3 -1.5t3 -1t3 -1.5q27 -14 39 -20.5t32 -19.5t28.5 -23.5t15.5 -27t7 -35.5q0 -66 -69 -114.5t-177 -48.5q-93 0 -148.5 32.5t-55.5 80.5q0 65 107 114l12 -10q-23 -27 -23 -52q0 -54 38 -90.5t97 -36.5q48 0 80 23.5t32 59.5q0 17 -14 32.5t-29.5 25.5t-50.5 29 q-24 13 -35 20t-26.5 19t-22 24t-6.5 26q0 25 26 48t86 55q-68 2 -110 42t-42 103q0 91 64 156t157 65zM194 287q0 -104 54 -104q36 0 62 66.5t26 143.5t-48 77q-39 0 -66.5 -58.5t-27.5 -124.5z" />
<glyph unicode="&#x1ea;" horiz-adv-x="647" d="M468 31q-88 -53 -127.5 -91.5t-39.5 -72.5q0 -29 24 -29q28 0 69 53l9 -8q-20 -54 -54 -88t-76 -34q-35 0 -55 20t-20 54q0 91 149 156q-8 -1 -24 -1q-100 0 -162 68t-62 183q0 114 46.5 219t129 171.5t177.5 66.5q104 0 162.5 -68.5t58.5 -183.5q0 -132 -59.5 -247.5 t-155.5 -170.5zM226 183q0 -67 26.5 -107t74.5 -40q60 0 112.5 84t79.5 192t27 196q0 144 -97 144q-62 0 -115 -79.5t-80.5 -186.5t-27.5 -203z" />
<glyph unicode="&#x1eb;" horiz-adv-x="489" d="M399 56q-21 -22 -51.5 -51.5t-45 -44.5t-31 -33.5t-22.5 -32.5t-6 -28q0 -28 24 -28t65 53l9 -8q-21 -56 -54.5 -89t-77.5 -33q-31 0 -50 19.5t-19 51.5q0 23 10.5 43.5t35.5 42t42.5 33.5t55.5 37q11 7 17 11q-29 -9 -58 -9q-76 0 -122.5 51.5t-46.5 137.5 q0 133 78 230.5t180 97.5q79 0 123.5 -50.5t44.5 -136.5q0 -83 -29 -152t-77 -114zM197 136q0 -107 52 -107q33 0 64 59.5t47.5 138.5t16.5 144q0 98 -51 98q-34 0 -64.5 -57t-47.5 -133.5t-17 -142.5z" />
<glyph unicode="&#x1f4;" horiz-adv-x="683" d="M623 924l11 2q50 -23 50 -53q0 -37 -80.5 -64t-198.5 -32l-5 18q151 70 223 129zM407 39q43 0 76 10l35 164l13 59l-69 28l4 20h263l2 -20l-49 -15q-33 -12 -41 -47l-6 -25l-41 -192q-82 -31 -199 -31q-137 0 -214.5 73.5t-77.5 206.5q0 177 125.5 302.5t295.5 125.5 q103 0 179 -29q-5 -85 -51 -194h-23q-33 128 -45 166q-27 7 -61 7q-114 0 -203.5 -110.5t-89.5 -269.5q0 -101 48.5 -165t128.5 -64z" />
<glyph unicode="&#x1f5;" horiz-adv-x="452" d="M391 758l10 4q3 -1 10.5 -1.5t10.5 -0.5q59 -9 59 -39q0 -36 -76.5 -83t-167.5 -69l-10 16q105 89 164 173zM303 508q180 0 229 13q8 -11 8 -32q0 -19 -11 -32t-33 -13q-23 0 -114 29q66 -39 66 -115q0 -53 -22 -97t-54 -70.5t-63.5 -47.5t-53.5 -37t-22 -29 q0 -12 12 -21t37 -21l3 -1.5t3 -1t3 -1.5q27 -14 39 -20.5t32 -19.5t28.5 -23.5t15.5 -27t7 -35.5q0 -66 -69 -114.5t-177 -48.5q-93 0 -148.5 32.5t-55.5 80.5q0 65 107 114l12 -10q-23 -27 -23 -52q0 -54 38 -90.5t97 -36.5q48 0 80 23.5t32 59.5q0 17 -14 32.5 t-29.5 25.5t-50.5 29q-24 13 -35 20t-26.5 19t-22 24t-6.5 26q0 25 26 48t86 55q-68 2 -110 42t-42 103q0 91 64 156t157 65zM194 287q0 -104 54 -104q36 0 62 66.5t26 143.5t-48 77q-39 0 -66.5 -58.5t-27.5 -124.5z" />
<glyph unicode="&#x1fa;" horiz-adv-x="691" d="M646 1150l11 1q51 -24 51 -52q0 -37 -80.5 -64t-198.5 -33l-6 18q148 68 223 130zM617 868q0 -43 -35.5 -73t-87.5 -30q-38 0 -60.5 19t-22.5 52q0 43 36 72t87 29q38 0 60.5 -18.5t22.5 -50.5zM464 836q0 -17 10.5 -28t27.5 -11q26 0 44 20t18 49q0 18 -10.5 28.5 t-27.5 10.5q-26 0 -44 -20t-18 -49zM447 689h75l75 -605q2 -23 9.5 -33t24.5 -16l42 -15l-2 -20h-270l-4 20l81 27l-21 176l-225 -4l-94 -172l78 -27l-4 -20h-206l-3 20l57 20q30 10 48 43zM255 262l198 -1l-36 297z" />
<glyph unicode="&#x1fb;" horiz-adv-x="553" d="M506 1000l10 5q1 0 9 -1t12 -2q59 -9 59 -38q0 -36 -77 -83.5t-168 -68.5l-9 15q108 93 164 173zM511 683q0 -43 -36 -73t-88 -30q-38 0 -60 19t-22 52q0 43 35.5 72.5t87.5 29.5q38 0 60.5 -19t22.5 -51zM358 652q0 -18 10.5 -29t27.5 -11q26 0 44 20.5t18 49.5 q0 17 -10.5 28t-28.5 11q-25 0 -43 -20t-18 -49zM473 154q-11 -49 -11 -64q0 -23 17 -23q27 0 84 68l9 -8q-28 -56 -69 -96.5t-87 -40.5q-36 0 -55.5 21.5t-19.5 59.5q0 25 12 83l16 69h-2q-42 -94 -96.5 -163.5t-109.5 -69.5q-43 0 -70 37t-27 101q0 98 40 184.5t113 141 t162 54.5q98 0 168 -36l-15 -45zM187 147q0 -65 31 -65q26 0 63.5 51.5t67 114t45.5 113.5l21 85q-24 21 -59 21q-41 0 -80.5 -49.5t-64 -124t-24.5 -146.5z" />
<glyph unicode="&#x1fc;" horiz-adv-x="915" d="M777 924l11 2q51 -24 51 -53q0 -37 -81 -64t-198 -32l-6 18q151 70 223 129zM423 636l-73 29l7 23h611q-2 -95 -46 -208h-24q-23 116 -33 162q-44 4 -84 4h-97l-60 -282l200 7l-14 -56l-195 8l-46 -216l-14 -66h125q47 0 85 5q4 5 103 161h23q0 -105 -42 -207h-496l-2 20 l48 18q19 8 29 17.5t13 26.5l5 25l46 215l-202 -3l-150 -271l73 -25l-6 -23h-199l3 23q39 13 56 20q26 9 43 40zM560 644h-91l-155 -282l186 -1z" />
<glyph unicode="&#x1fd;" horiz-adv-x="713" d="M574 759l10 4q9 0 21 -2q60 -9 60 -39q0 -36 -77 -83t-168 -69l-9 16q110 95 163 173zM714 141q-37 -70 -92 -110.5t-119 -40.5q-71 0 -111 49t-40 134q0 4 0.5 10.5t0.5 9.5q-42 -85 -92 -144t-100 -59q-43 0 -70 37t-27 101q0 98 40 184.5t113 141t162 54.5 q79 0 147 -26q49 26 97 26q55 0 89 -29.5t34 -77.5q0 -77 -74.5 -126.5t-194.5 -48.5l1 9q-3 -23 -3 -46q0 -56 24 -87.5t65 -31.5q66 0 141 78zM187 147q0 -65 31 -65q32 0 77 70.5t80 155.5l39 139q-25 20 -58 20q-41 0 -80.5 -49.5t-64 -124t-24.5 -146.5zM609 466 q-41 0 -78 -61t-50 -146q70 4 116 51t46 109q0 47 -34 47z" />
<glyph unicode="&#x1fe;" horiz-adv-x="647" d="M524 949l10 4q9 0 21 -2q60 -9 60 -39q0 -36 -77 -83t-168 -69l-9 16q110 95 163 173zM673 446q0 -116 -46 -220.5t-127.5 -170t-176.5 -65.5q-116 0 -177 87l-72 -72l-29 30l79 80q-25 55 -25 126q0 114 46.5 219t129 171.5t177.5 66.5q112 0 172 -80l65 65l29 -29 l-72 -73q27 -57 27 -135zM449 652q-58 0 -109 -71t-79 -168.5t-34 -193.5l318 319q-11 114 -96 114zM327 36q57 0 107.5 76t78 176t32.5 191l-318 -320q5 -57 30.5 -90t69.5 -33z" />
<glyph unicode="&#x1ff;" horiz-adv-x="489" d="M389 759l10 4q9 0 21 -2q60 -9 60 -39q0 -36 -77 -83t-168 -69l-9 16q110 95 163 173zM500 320q0 -141 -77.5 -235.5t-179.5 -94.5q-87 0 -134 66l-56 -53l-27 32l62 59q-14 39 -14 85q0 133 78 230.5t180 97.5q86 0 130 -58l49 46l28 -31l-56 -53q17 -40 17 -91z M326 469q-42 0 -77.5 -84t-47.5 -184l176 166v4q0 98 -51 98zM197 136q0 -107 52 -107q42 0 77 87t47 190l-176 -167v-3z" />
<glyph unicode="&#x218;" horiz-adv-x="509" d="M240 -10q-66 0 -119.5 10.5t-63.5 26.5q-6 9 -6 27q0 30 15 71t38 74l24 -2q-1 -8 -1 -23q0 -71 22 -103q27 -38 96 -38q59 0 97 37.5t38 92.5q0 38 -25 72t-60.5 61t-71 55.5t-60.5 68.5t-25 86q0 85 76.5 138.5t179.5 53.5q61 0 105.5 -11.5t58.5 -24.5q8 -6 8 -21 q0 -27 -16.5 -72t-39.5 -79l-24 1q1 11 1 29q0 62 -13 88q-26 46 -91 46q-53 0 -89.5 -34t-36.5 -85q0 -38 25 -72t60.5 -61.5t71 -56.5t60.5 -68t25 -83q0 -89 -71 -146.5t-188 -57.5zM283 -153q0 -50 -43.5 -105t-106.5 -83l-8 9q47 54 66 110q-41 8 -41 52 q0 33 22.5 55.5t54.5 22.5q25 0 40.5 -17t15.5 -44z" />
<glyph unicode="&#x219;" horiz-adv-x="419" d="M398 139q0 -67 -51.5 -108t-142.5 -41q-68 0 -113 25t-45 68q0 31 22 54.5t56 35.5l10 -8q-5 -28 -2 -54q8 -39 29 -61.5t54 -22.5q31 0 50.5 19t19.5 52q0 27 -17.5 53t-43 48t-50.5 45.5t-42.5 55.5t-17.5 67q0 61 53 101t131 40q70 0 108.5 -25.5t38.5 -64.5 q0 -29 -19.5 -53t-49.5 -36l-10 8q1 28 -2 56q-12 78 -69 78q-29 0 -48 -18.5t-19 -47.5q0 -27 17.5 -53.5t42.5 -49.5t50 -47t42.5 -54t17.5 -62zM241 -153q0 -50 -43.5 -105t-106.5 -83l-8 9q47 54 66 110q-19 4 -30.5 17.5t-11.5 34.5q0 33 23 55.5t55 22.5 q25 0 40.5 -17t15.5 -44z" />
<glyph unicode="&#x21a;" horiz-adv-x="613" d="M366 48l69 -28l-4 -20h-268l-2 20l48 18q19 8 28 17t13 27l7 25h-1l114 536h-42q-54 0 -89 -7q-31 -41 -56 -88l-41 -68h-24q1 99 42 208h561q-5 -107 -46 -208h-23l-13 68q-7 52 -19 88q-32 7 -86 7h-41l-114 -536zM330 -153q0 -50 -43.5 -105t-106.5 -83l-8 9 q47 54 66 110q-19 4 -30.5 17.5t-11.5 34.5q0 33 23 55.5t55 22.5q25 0 40.5 -17t15.5 -44z" />
<glyph unicode="&#x21b;" horiz-adv-x="373" d="M195 -10q-46 0 -70.5 29.5t-24.5 79.5q0 26 6 56l61 288h-73l2 17l83 38l133 142l16 -2l-33 -154h139l-9 -41h-138l-59 -274q-5 -27 -5 -44q0 -55 43 -55q51 0 127 78l9 -7q-36 -66 -89 -108.5t-118 -42.5zM246 -153q0 -50 -43.5 -105t-105.5 -83l-9 9q49 57 66 110 q-41 9 -41 52q0 33 23 55.5t55 22.5q25 0 40 -17t15 -44z" />
<glyph unicode="&#x232;" horiz-adv-x="663" d="M345 818l14 62h303l-14 -62h-303zM381 48l69 -28l-4 -20h-269l-2 20l48 18q19 8 29 17.5t13 26.5l6 25l22 106q11 73 2.5 163.5t-35.5 167t-55 76.5q-29 0 -79 -73l-17 12q31 63 71 101t83 38q72 0 111.5 -104.5t42.5 -262.5q183 367 277 367q34 0 53.5 -40t24.5 -97 l-18 -6q-26 65 -57 65q-36 0 -98.5 -76t-117.5 -181t-72 -183l-15 -73z" />
<glyph unicode="&#x233;" horiz-adv-x="493" d="M201 630l13 61h290l-14 -61h-289zM193 508q98 0 98 -162q0 -156 -59 -325q87 90 130.5 196.5t43.5 205.5q0 37 -8 71q20 14 49 14q75 0 75 -91q0 -115 -82 -237.5t-231 -216.5q-43 -100 -100.5 -160.5t-124.5 -60.5q-42 0 -68.5 18.5t-26.5 46.5q0 31 29 43 q29 -39 61 -39q81 0 140 201q24 79 38 166.5t14 142.5q0 109 -44 109q-27 0 -76 -68l-10 9q24 55 65.5 96t86.5 41z" />
<glyph unicode="&#x237;" horiz-adv-x="290" d="M155 344q10 52 10 64q0 22 -17 22q-25 0 -83 -67l-9 8q27 55 68.5 96t87.5 41q36 0 55 -21.5t19 -60.5q0 -31 -12 -82l-70 -336q-26 -126 -92 -196t-154 -70q-47 0 -76.5 19.5t-29.5 49.5q0 32 28 44q35 -46 79 -46q45 0 73.5 43t47.5 134z" />
<glyph unicode="&#x259;" horiz-adv-x="447" d="M461 325q0 -129 -83 -232t-188 -103q-55 0 -89 26.5t-34 70.5q0 77 76 127.5t194 48.5q7 51 7 90q0 113 -56 113q-34 0 -57.5 -34.5t-32.5 -91.5q-30 -13 -52 -13q-41 0 -41 34q0 52 63.5 99.5t140.5 47.5q71 0 111.5 -49.5t40.5 -133.5zM170 74q0 -19 9.5 -30.5 t26.5 -11.5q41 0 75 56t51 142q-70 -7 -116 -52t-46 -104z" />
<glyph unicode="&#x272;" horiz-adv-x="589" d="M65 371q28 55 69 96t85 41q34 0 52.5 -19.5t18.5 -53.5q0 -21 -35 -171q121 244 229 244q39 0 60.5 -24t21.5 -60q0 -21 -6.5 -58t-14 -66.5t-20 -78.5t-16.5 -67q-11 -49 -11 -64q0 -23 18 -23q26 0 83 68l9 -8q-28 -56 -69 -96.5t-87 -40.5q-36 0 -55.5 21.5 t-19.5 59.5q0 25 12 83q6 26 22 83.5t24.5 95t8.5 56.5q0 32 -25 32q-37 0 -91.5 -86.5t-78.5 -159.5l-35 -167q-26 -126 -92.5 -196t-153.5 -70q-47 0 -76.5 19.5t-29.5 49.5q0 32 28 44q35 -46 79 -46t73 43.5t48 133.5l75 358q11 57 11 63q0 23 -18 23q-26 0 -83 -67z " />
<glyph unicode="&#x2c6;" horiz-adv-x="458" d="M449 585l-17 -10q-55 53 -114 99q-96 -67 -149 -99l-10 13q98 118 129 163l10 6h72q48 -89 79 -172z" />
<glyph unicode="&#x2c7;" horiz-adv-x="459" d="M340 581l-10 -6h-72q-37 77 -71 172l17 10q52 -54 106 -99q102 65 163 99l11 -13q-90 -94 -144 -163z" />
<glyph unicode="&#x2d8;" horiz-adv-x="424" d="M428 743l5 2l17 -4q-22 -70 -68 -111t-102 -41q-54 0 -79 43.5t-17 109.5l21 3q4 -35 28.5 -55.5t64.5 -20.5q91 0 130 74z" />
<glyph unicode="&#x2d9;" horiz-adv-x="303" d="M225 590q-25 0 -41 15.5t-16 42.5q0 36 26 62.5t61 26.5q25 0 41.5 -15.5t16.5 -40.5q0 -37 -26.5 -64t-61.5 -27z" />
<glyph unicode="&#x2da;" horiz-adv-x="495" d="M374 683q0 -43 -35.5 -73t-87.5 -30q-38 0 -60.5 19t-22.5 52q0 43 36 72.5t87 29.5q38 0 60.5 -19t22.5 -51zM221 652q0 -18 10.5 -29t27.5 -11q26 0 44 20.5t18 49.5q0 17 -10.5 28t-27.5 11q-26 0 -44 -20t-18 -49z" />
<glyph unicode="&#x2db;" horiz-adv-x="385" d="M238 0q-49 -23 -81.5 -59.5t-32.5 -70.5q0 -32 25 -32q27 0 68 53l9 -8q-20 -55 -54 -88.5t-79 -33.5q-72 0 -72 75q0 59 60 111t147 67z" />
<glyph unicode="&#x2dc;" horiz-adv-x="548" d="M248 655q-21 -13 -71 -63l-11 5q21 68 58 105t84 37q36 0 93.5 -29.5t81.5 -31.5q21 13 71 63l11 -5q-21 -68 -58 -105t-85 -37q-35 0 -93.5 29.5t-80.5 31.5z" />
<glyph unicode="&#x2dd;" horiz-adv-x="566" d="M316 759l10 4q7 0 21 -2q48 -9 48 -39q0 -36 -73.5 -83t-159.5 -69l-10 16q49 42 95 90.5t69 82.5zM506 759l10 4q14 0 21 -2q48 -11 48 -39q0 -36 -73.5 -83t-159.5 -69l-10 16q105 89 164 173z" />
<glyph unicode="&#x326;" horiz-adv-x="295" d="M129 -153q0 -50 -43.5 -105t-105.5 -83l-9 9q47 54 66 110q-41 8 -41 52q0 33 22.5 55.5t54.5 22.5q25 0 40.5 -17t15.5 -44z" />
<glyph unicode="&#x394;" horiz-adv-x="608" d="M579 0h-567l-1 14l390 674h76l104 -674zM77 43h367l-73 517z" />
<glyph unicode="&#x3bc;" horiz-adv-x="611" d="M153 -225q0 -5 -2 -8.5t-5.5 -6t-7.5 -4.5t-11 -4t-13 -3t-16 -2t-18 -1.5t-21 -1.5t-23 -2l-5 8q19 94 132 596q6 26 17 78t17 77l54 4q45 3 52 3q15 0 10 -23q-10 -48 -32 -135.5t-34 -144.5t-12 -88q0 -35 26 -35q38 0 93.5 90.5t86.5 190.5l29 138l54 4q48 3 52 3 q15 0 11 -23l-30 -139l-42 -192q-10 -54 -10 -64q0 -23 17 -23q26 0 83 68l9 -8q-27 -55 -68 -96t-88 -41q-36 0 -55 21.5t-19 59.5q0 32 12 83l14 61h-2q-30 -88 -76 -156.5t-93 -68.5q-51 0 -56 72h-4q0 -110 -16 -216q-1 -10 -4.5 -33.5t-5.5 -37.5z" />
<glyph unicode="&#x3c0;" horiz-adv-x="622" d="M212 47q-15 -33 -31.5 -45t-43.5 -12q-23 0 -43 7l-6 8q103 180 168 402h-67q-29 0 -48 -14t-39 -47l-20 2q27 92 62 157q45 5 117 5q36 0 178.5 -5.5t170.5 -5.5q35 0 49.5 7t28.5 29l19 -2q-23 -72 -61 -142q-33 3 -102 7q-59 -202 -59 -292q0 -39 24 -39t81 68l9 -8 q-25 -55 -63 -96t-80 -41q-32 0 -48.5 20.5t-16.5 56.5q0 82 75 335q-48 2 -136 4q-66 -247 -118 -359z" />
<glyph unicode="&#x1e0c;" horiz-adv-x="709" d="M307 0h-258l-2 20l48 18q20 8 29 17t13 27l5 25l102 474h-1l13 59l-69 28l4 20h260q128 0 204.5 -68.5t76.5 -190.5q0 -83 -28 -159t-80 -136.5t-134.5 -97t-182.5 -36.5zM366 581l-101 -474l-14 -65h55q87 0 157 59t106 151t36 196q0 95 -43.5 146.5t-130.5 51.5h-51z M297 -239q-25 0 -41.5 15.5t-16.5 41.5q0 36 26.5 63t61.5 27q25 0 41 -15.5t16 -41.5q0 -37 -26 -63.5t-61 -26.5z" />
<glyph unicode="&#x1e0d;" horiz-adv-x="553" d="M473 154q-11 -49 -11 -64q0 -23 17 -23q27 0 84 68l9 -8q-28 -56 -69 -96.5t-87 -40.5q-36 0 -55.5 21.5t-19.5 59.5q0 25 12 83l19 80q-26 -60 -56 -111t-73 -92t-82 -41q-43 0 -70 37t-27 101q0 98 40 184.5t113 141t162 54.5q26 0 50 -3l29 121l13 61l-92 25v12 q93 25 218 33l8 -9l-28 -122zM187 147q0 -65 31 -65q37 0 91 93t83 179l23 92q-24 21 -59 21q-41 0 -80.5 -49.5t-64 -124t-24.5 -146.5zM243 -239q-25 0 -41.5 15.5t-16.5 41.5q0 36 26.5 63t61.5 27q25 0 41 -15.5t16 -41.5q0 -37 -26 -63.5t-61 -26.5z" />
<glyph unicode="&#x1e24;" horiz-adv-x="792" d="M252 48l69 -28l-4 -20h-268l-2 20l48 18q19 8 28 17t13 27l7 25h-1l100 474l13 59l-69 28l4 20h269l2 -20l-49 -18q-19 -9 -28.5 -18t-12.5 -26l-6 -25l-44 -209h287l44 209l13 59l-69 28l4 20h268l2 -20l-48 -18q-19 -8 -28.5 -17t-13.5 -27l-6 -25h1l-100 -474l-13 -59 l69 -28l-4 -20h-269l-2 20l48 18q19 8 29 17.5t13 26.5l6 25l46 217h-287l-46 -217zM338 -239q-25 0 -41 15.5t-16 41.5q0 37 26 63.5t61 26.5q25 0 41.5 -15.5t16.5 -41.5q0 -37 -26.5 -63.5t-61.5 -26.5z" />
<glyph unicode="&#x1e25;" horiz-adv-x="562" d="M67 16l30 138l102 473l14 61l-73 25v11q78 22 198 34l8 -9l-28 -122q-39 -177 -93 -368q119 249 234 249q39 0 60.5 -24t21.5 -60q0 -27 -9.5 -71.5t-27.5 -111.5t-23 -87q-10 -54 -10 -64q0 -23 17 -23q28 0 83 68l10 -8q-28 -55 -69 -96t-87 -41q-37 0 -56 21.5 t-19 59.5q0 32 12 83q6 24 21.5 83t24 96t8.5 56q0 32 -24 32q-26 0 -62.5 -46t-66 -102.5t-42.5 -99.5l-5 -19l-33 -155l-54 -4q-45 -3 -52 -3q-13 0 -10 24zM239 -239q-25 0 -41 15.5t-16 41.5q0 37 26.5 63.5t61.5 26.5q25 0 41 -15.5t16 -41.5q0 -37 -26.5 -63.5 t-61.5 -26.5z" />
<glyph unicode="&#x1e44;" horiz-adv-x="724" d="M617 862q0 -35 -26 -60t-63 -25q-28 0 -45.5 15.5t-17.5 40.5q1 35 26.5 59t62.5 24q28 0 45.5 -15t17.5 -39zM179 52l82 -29l-4 -23h-216l-3 23l52 17q23 9 32.5 17t13.5 25l6 25l111 527l-73 31l5 23h173l228 -530l90 423l13 55l-85 29l4 23h219l2 -23l-51 -17 q-24 -9 -34 -17t-13 -25l-6 -25l-123 -581h-78l-239 552l-94 -445z" />
<glyph unicode="&#x1e45;" horiz-adv-x="589" d="M411 590q-25 0 -41 15.5t-16 42.5q0 36 26 62.5t62 26.5q24 0 40.5 -15.5t16.5 -40.5q0 -37 -26.5 -64t-61.5 -27zM95 16l29 138q7 32 21 94.5t21 91.5q11 52 11 67q0 23 -18 23q-26 0 -83 -67l-9 8q28 56 68 96.5t85 40.5q34 0 52.5 -19.5t18.5 -53.5q0 -27 -36 -171 q121 244 229 244q39 0 60.5 -24t21.5 -60q0 -21 -6.5 -58t-14 -66.5t-20 -78.5t-16.5 -67q-11 -49 -11 -64q0 -23 18 -23q26 0 83 68l9 -8q-28 -56 -69 -96.5t-87 -40.5q-36 0 -55.5 21.5t-19.5 59.5q0 25 12 83q6 26 22 83.5t24.5 95t8.5 56.5q0 32 -25 32 q-37 0 -91.5 -86.5t-79.5 -160.5l-4 -20l-33 -155l-54 -4q-45 -3 -52 -3q-15 0 -10 24z" />
<glyph unicode="&#x1e5a;" horiz-adv-x="689" d="M252 48l69 -28l-4 -20h-268l-2 20l48 18q19 8 28 17t13 27l7 25h-1l101 474l12 59l-68 28l4 20h255q110 0 170.5 -44t60.5 -122q0 -64 -44 -117t-114 -84l45 -136q21 -64 41 -100t48 -51l30 -14l-5 -20l-122 -3q-38 0 -56.5 15.5t-28.5 50.5l-69 227q-10 -1 -29 -1h-69 l-39 -182zM366 581l-53 -247h48q87 0 138.5 56t51.5 136q0 56 -32 86t-89 30h-51zM331 -239q-25 0 -41.5 15.5t-16.5 41.5q0 36 26.5 63t61.5 27q25 0 41 -15.5t16 -41.5q0 -37 -26 -63.5t-61 -26.5z" />
<glyph unicode="&#x1e5b;" horiz-adv-x="447" d="M95 16l29 138q53 241 53 253q0 23 -18 23q-26 0 -83 -67l-9 8q28 56 68 96.5t85 40.5q34 0 52.5 -19.5t18.5 -53.5q0 -31 -35 -167q21 46 40 80.5t45 75t54.5 62.5t56.5 22q24 0 37.5 -14.5t13.5 -36.5q0 -29 -12 -59t-26 -47q-36 30 -65 30t-64 -41.5t-57.5 -89 t-30.5 -79.5l-4 -17l-33 -155l-54 -4q-45 -3 -52 -3q-15 0 -10 24zM102 -239q-25 0 -41.5 15.5t-16.5 41.5q0 36 26.5 63t61.5 27q25 0 41 -15.5t16 -41.5q0 -37 -26 -63.5t-61 -26.5z" />
<glyph unicode="&#x1e62;" horiz-adv-x="509" d="M240 -10q-66 0 -119.5 10.5t-63.5 26.5q-6 9 -6 27q0 30 15 71t38 74l24 -2q-1 -8 -1 -23q0 -71 22 -103q27 -38 96 -38q59 0 97 37.5t38 92.5q0 38 -25 72t-60.5 61t-71 55.5t-60.5 68.5t-25 86q0 85 76.5 138.5t179.5 53.5q61 0 105.5 -11.5t58.5 -24.5q8 -6 8 -21 q0 -27 -16.5 -72t-39.5 -79l-24 1q1 11 1 29q0 62 -13 88q-26 46 -91 46q-53 0 -89.5 -34t-36.5 -85q0 -38 25 -72t60.5 -61.5t71 -56.5t60.5 -68t25 -83q0 -89 -71 -146.5t-188 -57.5zM200 -239q-25 0 -41.5 15.5t-16.5 41.5q0 37 26.5 63.5t61.5 26.5q25 0 41 -15.5 t16 -41.5q0 -37 -26 -63.5t-61 -26.5z" />
<glyph unicode="&#x1e63;" horiz-adv-x="419" d="M398 139q0 -67 -51.5 -108t-142.5 -41q-68 0 -113 25t-45 68q0 31 22 54.5t56 35.5l10 -8q-5 -28 -2 -54q8 -39 29 -61.5t54 -22.5q31 0 50.5 19t19.5 52q0 27 -17.5 53t-43 48t-50.5 45.5t-42.5 55.5t-17.5 67q0 61 53 101t131 40q70 0 108.5 -25.5t38.5 -64.5 q0 -29 -19.5 -53t-49.5 -36l-10 8q1 28 -2 56q-12 78 -69 78q-29 0 -48 -18.5t-19 -47.5q0 -27 17.5 -53.5t42.5 -49.5t50 -47t42.5 -54t17.5 -62zM158 -239q-25 0 -41.5 15.5t-16.5 41.5q0 37 26.5 63.5t61.5 26.5q25 0 41 -15.5t16 -41.5q0 -37 -26 -63.5t-61 -26.5z" />
<glyph unicode="&#x1e6c;" horiz-adv-x="613" d="M366 48l69 -28l-4 -20h-268l-2 20l48 18q19 8 28 17t13 27l7 25h-1l114 536h-42q-54 0 -89 -7q-31 -41 -56 -88l-41 -68h-24q1 99 42 208h561q-5 -107 -46 -208h-23l-13 68q-7 52 -19 88q-32 7 -86 7h-41l-114 -536zM250 -239q-25 0 -41.5 15.5t-16.5 41.5 q0 37 26.5 63.5t61.5 26.5q25 0 41 -15.5t16 -41.5q0 -37 -26 -63.5t-61 -26.5z" />
<glyph unicode="&#x1e6d;" horiz-adv-x="373" d="M195 -10q-46 0 -70.5 29.5t-24.5 79.5q0 26 6 56l61 288h-73l2 17l83 38l133 142l16 -2l-33 -154h139l-9 -41h-138l-59 -274q-5 -27 -5 -44q0 -55 43 -55q51 0 127 78l9 -7q-36 -66 -89 -108.5t-118 -42.5zM162 -239q-25 0 -41 15.5t-16 41.5q0 37 26 63.5t61 26.5 q25 0 41.5 -15.5t16.5 -41.5q0 -37 -26.5 -63.5t-61.5 -26.5z" />
<glyph unicode="&#x1e80;" horiz-adv-x="1048" d="M806 796l-10 -18q-40 1 -79.5 6.5t-76 15.5t-59 26.5t-22.5 37.5t20.5 38t45.5 25l10 -2q23 -28 71.5 -64.5t99.5 -64.5zM361 0h-75l-66 604q-2 22 -9.5 32.5t-24.5 16.5l-42 15l2 20h270l4 -20l-81 -27l51 -500l210 389l-9 74q-2 22 -9.5 32.5t-24.5 16.5l-44 15l4 20 h270l4 -20l-81 -27l55 -500l266 501l-80 26l4 20h212l3 -20l-57 -20q-31 -11 -48 -43l-329 -605h-75l-52 451z" />
<glyph unicode="&#x1e81;" horiz-adv-x="720" d="M531 584l-13 -14q-78 33 -131.5 75.5t-51.5 74.5q1 42 69 42h21l9 -6q30 -75 97 -172zM763 437q0 -79 -92 -210t-204 -233l-70 5q13 191 13 232v40q-72 -171 -190 -277l-69 5q12 206 12 232q0 115 -8.5 157t-31.5 42q-29 0 -81 -68l-11 9q29 56 70.5 96.5t87.5 40.5 q44 0 65.5 -37.5t21.5 -119.5q0 -118 -20 -280q68 97 104.5 197.5t40.5 179.5q0 22 -6 48q22 12 51 12q43 0 60 -33.5t17 -116.5q0 -110 -20 -287q66 94 104.5 195t38.5 174q0 27 -6 55q22 13 50 13q34 0 53.5 -18.5t19.5 -52.5z" />
<glyph unicode="&#x1e82;" horiz-adv-x="1048" d="M773 924l10 2q51 -23 51 -53q0 -37 -80.5 -64t-198.5 -32l-5 18q151 70 223 129zM361 0h-75l-66 604q-2 22 -9.5 32.5t-24.5 16.5l-42 15l2 20h270l4 -20l-81 -27l51 -500l210 389l-9 74q-2 22 -9.5 32.5t-24.5 16.5l-44 15l4 20h270l4 -20l-81 -27l55 -500l266 501 l-80 26l4 20h212l3 -20l-57 -20q-31 -11 -48 -43l-329 -605h-75l-52 451z" />
<glyph unicode="&#x1e83;" horiz-adv-x="720" d="M510 759l10 4q7 0 21 -2q59 -9 59 -39q0 -36 -76.5 -83t-167.5 -69l-9 16q110 95 163 173zM763 437q0 -79 -92 -210t-204 -233l-70 5q13 191 13 232v40q-72 -171 -190 -277l-69 5q12 206 12 232q0 115 -8.5 157t-31.5 42q-29 0 -81 -68l-11 9q29 56 70.5 96.5t87.5 40.5 q44 0 65.5 -37.5t21.5 -119.5q0 -118 -20 -280q68 97 104.5 197.5t40.5 179.5q0 22 -6 48q22 12 51 12q43 0 60 -33.5t17 -116.5q0 -110 -20 -287q66 94 104.5 195t38.5 174q0 27 -6 55q22 13 50 13q34 0 53.5 -18.5t19.5 -52.5z" />
<glyph unicode="&#x1e84;" horiz-adv-x="1048" d="M865 860q0 -32 -22 -54t-53 -22q-27 0 -43.5 15t-16.5 39q0 30 23 52.5t55 22.5q25 0 41 -14.5t16 -38.5zM642 860q0 -32 -22 -54t-54 -22q-27 0 -43 15t-16 39q0 30 22.5 52.5t55.5 22.5q24 0 40.5 -14.5t16.5 -38.5zM361 0h-75l-66 604q-2 22 -9.5 32.5t-24.5 16.5 l-42 15l2 20h270l4 -20l-81 -27l51 -500l210 389l-9 74q-2 22 -9.5 32.5t-24.5 16.5l-44 15l4 20h270l4 -20l-81 -27l55 -500l266 501l-80 26l4 20h212l3 -20l-57 -20q-31 -11 -48 -43l-329 -605h-75l-52 451z" />
<glyph unicode="&#x1e85;" horiz-adv-x="720" d="M645 678q0 -33 -21.5 -56.5t-52.5 -23.5q-25 0 -41.5 16t-16.5 42q0 31 22.5 55t54.5 24q24 0 39.5 -16t15.5 -41zM426 678q0 -33 -21.5 -56.5t-52.5 -23.5q-25 0 -41 16t-16 42q0 31 22 55t54 24q24 0 39.5 -16t15.5 -41zM763 437q0 -79 -92 -210t-204 -233l-70 5 q13 191 13 232v40q-72 -171 -190 -277l-69 5q12 206 12 232q0 115 -8.5 157t-31.5 42q-29 0 -81 -68l-11 9q29 56 70.5 96.5t87.5 40.5q44 0 65.5 -37.5t21.5 -119.5q0 -118 -20 -280q68 97 104.5 197.5t40.5 179.5q0 22 -6 48q22 12 51 12q43 0 60 -33.5t17 -116.5 q0 -110 -20 -287q66 94 104.5 195t38.5 174q0 27 -6 55q22 13 50 13q34 0 53.5 -18.5t19.5 -52.5z" />
<glyph unicode="&#x1e92;" horiz-adv-x="626" d="M550 0h-497l1 41l489 603h-161q-45 0 -87 -5l-105 -159h-24q0 104 41 208h489l-1 -41l-488 -603h169q46 0 86 5l106 158h24q0 -91 -42 -207zM268 -239q-25 0 -41 15.5t-16 41.5q0 37 26 63.5t61 26.5q25 0 41.5 -15.5t16.5 -41.5q0 -36 -26.5 -63t-61.5 -27z" />
<glyph unicode="&#x1e93;" horiz-adv-x="431" d="M139 17q-52 0 -92 -27l-26 33q18 20 63.5 68.5t67.5 72.5t56.5 62.5t62.5 71t54 65.5q-90 30 -143 30q-28 0 -45 -15t-39 -56l-13 4q18 95 40.5 138.5t65.5 43.5q81 0 171 -96q42 54 69 96q46 -15 46 -48q0 -17 -9.5 -31t-34.5 -37q-43 -45 -89.5 -91t-107 -105.5 t-92.5 -90.5q28 7 77 7q21 0 69.5 -5.5t62.5 -5.5q22 0 45 32q14 20 27 40l12 -5q-17 -69 -33 -106q-32 -72 -69 -72q-18 0 -93 13.5t-103 13.5zM166 -239q-25 0 -41 15.5t-16 41.5q0 37 26.5 63.5t61.5 26.5q25 0 41 -15.5t16 -41.5q0 -37 -26.5 -63.5t-61.5 -26.5z" />
<glyph unicode="&#x1e9e;" horiz-adv-x="685" d="M699 173q0 -86 -65 -134.5t-171 -48.5q-45 0 -82 10t-49 26q-7 7 -7 27q0 30 15 70.5t37 68.5l24 -1q-5 -91 14 -125q17 -33 64 -33q48 0 75 33.5t27 84.5q0 21 -7 41t-15 34t-28 35t-30.5 30.5t-39.5 35t-40 34.5l4 29l179 179q-25 86 -104 86q-57 0 -102 -47t-61 -127 l-96 -453l-31 -28h-175l2 23l45 14q23 9 33.5 18t14.5 27l80 379q20 101 109 169t202 68q135 0 188 -90l-2 -28l-174 -168q85 -75 110 -104q56 -66 56 -135z" />
<glyph unicode="&#x1ea0;" horiz-adv-x="691" d="M447 689h75l75 -605q2 -23 9.5 -33t24.5 -16l42 -15l-2 -20h-270l-4 20l81 27l-21 176l-225 -4l-94 -172l78 -27l-4 -20h-206l-3 20l57 20q30 10 48 43zM255 262l198 -1l-36 297zM260 -239q-25 0 -41.5 15.5t-16.5 41.5q0 37 26.5 63.5t61.5 26.5q25 0 41 -15.5t16 -41.5 q0 -37 -26 -63.5t-61 -26.5z" />
<glyph unicode="&#x1ea1;" horiz-adv-x="553" d="M473 154q-11 -49 -11 -64q0 -23 17 -23q27 0 84 68l9 -8q-28 -56 -69 -96.5t-87 -40.5q-36 0 -55.5 21.5t-19.5 59.5q0 25 12 83l16 69h-2q-42 -94 -96.5 -163.5t-109.5 -69.5q-43 0 -70 37t-27 101q0 98 40 184.5t113 141t162 54.5q98 0 168 -36l-15 -45zM187 147 q0 -65 31 -65q26 0 63.5 51.5t67 114t45.5 113.5l21 85q-24 21 -59 21q-41 0 -80.5 -49.5t-64 -124t-24.5 -146.5zM234 -239q-25 0 -41 15.5t-16 41.5q0 37 26 63.5t61 26.5q25 0 41.5 -15.5t16.5 -41.5q0 -36 -26.5 -63t-61.5 -27z" />
<glyph unicode="&#x1eb8;" horiz-adv-x="605" d="M366 581l-46 -217l195 7l-14 -56l-190 8l-46 -216l-14 -66h120q56 0 85 5q10 14 22 33t34.5 55.5t45.5 72.5h24q-2 -110 -42 -207h-491l-2 20l48 18q20 8 29 17t13 27l5 25l101 474l12 59l-68 28l4 20h468q-1 -90 -46 -208h-24q-25 125 -34 162q-34 4 -83 4h-92z M272 -239q-25 0 -41 15.5t-16 41.5q0 37 26 63.5t61 26.5q25 0 41 -15.5t16 -41.5q0 -37 -26 -63.5t-61 -26.5z" />
<glyph unicode="&#x1eb9;" horiz-adv-x="433" d="M434 141q-37 -70 -92 -110.5t-120 -40.5q-70 0 -110 49.5t-40 133.5q0 129 83 232t188 103q54 0 88.5 -29.5t34.5 -77.5q0 -77 -75 -126.5t-194 -48.5v9q-2 -30 -2 -46q0 -57 23.5 -88t65.5 -31q66 0 141 78zM329 466q-42 0 -79 -61t-50 -146q70 4 116.5 51t46.5 109 q0 47 -34 47zM172 -239q-25 0 -41.5 15.5t-16.5 41.5q0 36 26.5 63t61.5 27q25 0 41 -15.5t16 -41.5q0 -37 -26 -63.5t-61 -26.5z" />
<glyph unicode="&#x1ebc;" horiz-adv-x="605" d="M351 840q-18 -10 -75 -61l-13 7q46 136 144 136q38 0 101.5 -28t90.5 -30q21 11 75 60l13 -7q-22 -65 -59 -100.5t-85 -35.5q-37 0 -101 28.5t-91 30.5zM366 581l-46 -217l195 7l-14 -56l-190 8l-46 -216l-14 -66h120q56 0 85 5q10 14 22 33t34.5 55.5t45.5 72.5h24 q-2 -110 -42 -207h-491l-2 20l48 18q20 8 29 17t13 27l5 25l101 474l12 59l-68 28l4 20h468q-1 -90 -46 -208h-24q-25 125 -34 162q-34 4 -83 4h-92z" />
<glyph unicode="&#x1ebd;" horiz-adv-x="433" d="M241 655q-16 -10 -71 -63l-10 5q21 68 57.5 105t84.5 37q35 0 93 -29.5t81 -31.5q19 11 71 63l11 -5q-21 -68 -58 -105t-84 -37q-36 0 -94 29.5t-81 31.5zM434 141q-37 -70 -92 -110.5t-120 -40.5q-70 0 -110 49.5t-40 133.5q0 129 83 232t188 103q54 0 88.5 -29.5 t34.5 -77.5q0 -77 -75 -126.5t-194 -48.5v9q-2 -30 -2 -46q0 -57 23.5 -88t65.5 -31q66 0 141 78zM329 466q-42 0 -79 -61t-50 -146q70 4 116.5 51t46.5 109q0 47 -34 47z" />
<glyph unicode="&#x1eca;" horiz-adv-x="386" d="M252 48l69 -28l-4 -20h-268l-2 20l48 18q19 8 28 17t13 27l7 25h-1l100 474l13 59l-69 28l4 20h269l2 -20l-49 -18q-19 -9 -28.5 -18t-12.5 -26l-6 -25l-100 -474zM129 -239q-25 0 -41.5 15.5t-16.5 41.5q0 37 26.5 63.5t61.5 26.5q25 0 41 -15.5t16 -41.5 q0 -37 -26 -63.5t-61 -26.5z" />
<glyph unicode="&#x1ecb;" horiz-adv-x="300" d="M263 590q-25 0 -41.5 16t-16.5 42q0 36 26.5 62.5t61.5 26.5q25 0 41 -15.5t16 -40.5q0 -37 -26 -64t-61 -27zM242 154q-11 -49 -11 -64q0 -23 17 -23q27 0 84 68l9 -8q-28 -55 -69 -96t-87 -41q-36 0 -55.5 21.5t-19.5 59.5q0 25 12 83q11 53 44 190q10 52 10 64 q0 22 -17 22q-27 0 -83 -67l-10 8q28 55 69 96t87 41q36 0 55.5 -21.5t19.5 -60.5q0 -31 -12 -82q-6 -29 -21.5 -94.5t-21.5 -95.5zM128 -239q-25 0 -41.5 15.5t-16.5 41.5q0 37 26.5 63.5t61.5 26.5q25 0 41 -15.5t16 -41.5q0 -37 -26 -63.5t-61 -26.5z" />
<glyph unicode="&#x1ecc;" horiz-adv-x="647" d="M673 446q0 -116 -46 -220.5t-127.5 -170t-176.5 -65.5q-100 0 -162 68t-62 183q0 114 46.5 219t129 171.5t177.5 66.5q104 0 162.5 -68.5t58.5 -183.5zM226 183q0 -67 26.5 -107t74.5 -40q60 0 112.5 84t79.5 192t27 196q0 144 -97 144q-62 0 -115 -79.5t-80.5 -186.5 t-27.5 -203zM260 -239q-25 0 -41 15.5t-16 41.5q0 37 26.5 63.5t61.5 26.5q25 0 41 -15.5t16 -41.5q0 -37 -26.5 -63.5t-61.5 -26.5z" />
<glyph unicode="&#x1ecd;" horiz-adv-x="489" d="M500 320q0 -141 -77.5 -235.5t-179.5 -94.5q-76 0 -122.5 51.5t-46.5 137.5q0 133 78 230.5t180 97.5q79 0 123.5 -50.5t44.5 -136.5zM197 136q0 -107 52 -107q33 0 64 59.5t47.5 138.5t16.5 144q0 98 -51 98q-34 0 -64.5 -57t-47.5 -133.5t-17 -142.5zM187 -239 q-25 0 -41 15.5t-16 41.5q0 37 26.5 63.5t61.5 26.5q25 0 41 -15.5t16 -41.5q0 -37 -26.5 -63.5t-61.5 -26.5z" />
<glyph unicode="&#x1ee4;" horiz-adv-x="679" d="M624 246q-27 -128 -93 -192t-178 -64q-99 0 -157.5 50.5t-58.5 141.5q0 40 7 72l69 327l13 59l-69 28l4 20h269l2 -20l-49 -18q-19 -9 -28.5 -18t-12.5 -26l-6 -25l-70 -332q-7 -34 -7 -68q0 -67 34 -104.5t94 -37.5q142 0 187 206l73 342l11 49l-84 29l4 23h219l2 -23 l-92 -29l-11 -49zM299 -239q-25 0 -41 15.5t-16 41.5q0 37 26.5 63.5t61.5 26.5q25 0 41 -15.5t16 -41.5q0 -37 -26.5 -63.5t-61.5 -26.5z" />
<glyph unicode="&#x1ee5;" horiz-adv-x="595" d="M170 344q10 52 10 64q0 22 -17 22q-26 0 -84 -67l-9 8q28 55 69 96t87 41q36 0 55.5 -21.5t19.5 -60.5q0 -24 -12 -82q-6 -24 -17.5 -68t-17.5 -68.5t-11 -51t-5 -39.5q0 -35 24 -35q37 0 92.5 91t86.5 190l29 138l54 4q48 3 52 3q15 0 10 -23l-29 -139l-42 -192 q-11 -49 -11 -64q0 -23 18 -23q26 0 83 68l9 -8q-27 -55 -68 -96t-88 -41q-36 0 -55.5 21.5t-19.5 59.5q0 28 13 83l13 61h-3q-38 -90 -94 -157.5t-113 -67.5q-39 0 -61 25.5t-22 68.5q0 25 8.5 66.5t24 102.5t21.5 91zM266 -239q-25 0 -41 15.5t-16 42.5q0 36 26 62.5 t61 26.5q25 0 41.5 -15.5t16.5 -40.5q0 -37 -26.5 -64t-61.5 -27z" />
<glyph unicode="&#x1ef2;" horiz-adv-x="663" d="M615 796l-10 -18q-40 1 -79.5 6.5t-76 15.5t-59 26.5t-22.5 37.5t20.5 37.5t45.5 25.5l10 -2q24 -28 72 -64.5t99 -64.5zM381 48l69 -28l-4 -20h-269l-2 20l48 18q19 8 29 17.5t13 26.5l6 25l22 106q11 73 2.5 163.5t-35.5 167t-55 76.5q-29 0 -79 -73l-17 12 q31 63 71 101t83 38q72 0 111.5 -104.5t42.5 -262.5q183 367 277 367q34 0 53.5 -40t24.5 -97l-18 -6q-26 65 -57 65q-36 0 -98.5 -76t-117.5 -181t-72 -183l-15 -73z" />
<glyph unicode="&#x1ef3;" horiz-adv-x="493" d="M413 584l-13 -14q-78 33 -131 75.5t-51 74.5q1 42 69 42h21l9 -6q29 -73 96 -172zM193 508q98 0 98 -162q0 -156 -59 -325q87 90 130.5 196.5t43.5 205.5q0 37 -8 71q20 14 49 14q75 0 75 -91q0 -115 -82 -237.5t-231 -216.5q-43 -100 -100.5 -160.5t-124.5 -60.5 q-42 0 -68.5 18.5t-26.5 46.5q0 31 29 43q29 -39 61 -39q81 0 140 201q24 79 38 166.5t14 142.5q0 109 -44 109q-27 0 -76 -68l-10 9q24 55 65.5 96t86.5 41z" />
<glyph unicode="&#x1ef8;" horiz-adv-x="663" d="M377 840q-21 -11 -75 -60l-13 7q46 136 143 136q38 0 102.5 -28.5t89.5 -30.5q19 10 75 60l14 -6q-46 -136 -145 -136q-36 0 -100 28.5t-91 29.5zM381 48l69 -28l-4 -20h-269l-2 20l48 18q19 8 29 17.5t13 26.5l6 25l22 106q11 73 2.5 163.5t-35.5 167t-55 76.5 q-29 0 -79 -73l-17 12q31 63 71 101t83 38q72 0 111.5 -104.5t42.5 -262.5q183 367 277 367q34 0 53.5 -40t24.5 -97l-18 -6q-26 65 -57 65q-36 0 -98.5 -76t-117.5 -181t-72 -183l-15 -73z" />
<glyph unicode="&#x1ef9;" horiz-adv-x="493" d="M241 655q-19 -11 -71 -63l-11 5q21 68 58 105t84 37q36 0 93.5 -29.5t81.5 -31.5q18 11 70 63l11 -5q-21 -68 -57.5 -105t-84.5 -37q-35 0 -93.5 29.5t-80.5 31.5zM193 508q98 0 98 -162q0 -156 -59 -325q87 90 130.5 196.5t43.5 205.5q0 37 -8 71q20 14 49 14 q75 0 75 -91q0 -115 -82 -237.5t-231 -216.5q-43 -100 -100.5 -160.5t-124.5 -60.5q-42 0 -68.5 18.5t-26.5 46.5q0 31 29 43q29 -39 61 -39q81 0 140 201q24 79 38 166.5t14 142.5q0 109 -44 109q-27 0 -76 -68l-10 9q24 55 65.5 96t86.5 41z" />
<glyph unicode="&#x2007;" />
<glyph unicode="&#x2013;" horiz-adv-x="559" d="M75 251l11 43h489l-9 -43h-491z" />
<glyph unicode="&#x2014;" horiz-adv-x="860" d="M76 251l9 43h790l-9 -43h-790z" />
<glyph unicode="&#x2018;" horiz-adv-x="279" d="M367 758l9 -9q-81 -79 -113 -171q40 -15 40 -62q0 -34 -26 -60t-62 -26q-30 0 -48.5 20.5t-18.5 53.5q0 63 65.5 139t153.5 115z" />
<glyph unicode="&#x2019;" horiz-adv-x="279" d="M140 430l-8 9q81 79 113 171q-40 15 -40 62q0 34 26 60t61 26q30 0 48.5 -20t18.5 -54q0 -63 -65.5 -139t-153.5 -115z" />
<glyph unicode="&#x201a;" horiz-adv-x="297" d="M19 -184l-9 9q80 77 113 170q-40 16 -40 62q0 34 26 60.5t62 26.5q29 0 48 -20.5t19 -53.5q0 -63 -66 -139t-153 -115z" />
<glyph unicode="&#x201c;" horiz-adv-x="501" d="M367 758l9 -9q-81 -79 -113 -171q40 -15 40 -62q0 -34 -26 -60t-62 -26q-30 0 -48.5 20.5t-18.5 53.5q0 63 65.5 139t153.5 115zM588 758l9 -9q-81 -79 -113 -171q40 -15 40 -62q0 -34 -26 -60t-62 -26q-30 0 -48.5 20.5t-18.5 53.5q0 63 65.5 139t153.5 115z" />
<glyph unicode="&#x201d;" horiz-adv-x="500" d="M361 430l-8 9q81 78 113 171q-40 15 -40 61q0 34 26 60.5t61 26.5q30 0 48.5 -20.5t18.5 -53.5q0 -63 -65.5 -139t-153.5 -115zM140 430l-8 9q81 78 113 171q-40 15 -40 61q0 34 26 60.5t61 26.5q30 0 48.5 -20.5t18.5 -53.5q0 -63 -65.5 -139t-153.5 -115z" />
<glyph unicode="&#x201e;" horiz-adv-x="500" d="M233 -173l-9 10q81 76 114 170q-40 16 -40 62q0 34 26 60.5t61 26.5q30 0 48.5 -20.5t18.5 -54.5q0 -63 -65.5 -139t-153.5 -115zM12 -173l-9 10q81 76 114 170q-40 16 -40 62q0 34 26 60.5t61 26.5q30 0 48.5 -20.5t18.5 -54.5q0 -63 -65.5 -139t-153.5 -115z" />
<glyph unicode="&#x2020;" horiz-adv-x="511" d="M324 26q-39 -29 -77 -29q-24 0 -38.5 13.5t-14.5 38.5q0 28 15.5 79t50.5 152t59 178q-93 -20 -141 -20q-37 0 -37 40q0 26 21 56l10 4q64 -24 157 -35q10 102 -10 177l3 5q30 13 62 13q21 0 34.5 -9t13.5 -26q0 -12 -7 -31t-24 -58.5t-28 -68.5q86 20 141 20 q36 0 36 -40q0 -29 -21 -56l-9 -3q-68 24 -159 34q-38 -268 -35 -429z" />
<glyph unicode="&#x2021;" horiz-adv-x="516" d="M311 3q-33 -13 -62 -13q-48 0 -48 35q0 12 6.5 30.5t23.5 59t28 67.5q-93 -20 -140 -20q-37 0 -37 41q0 27 21 55l10 4q68 -24 159 -34q-2 50 2 87q6 68 44 142q-89 -19 -135 -19q-38 0 -36 42q0 25 20 54l10 4q66 -24 157 -35q9 100 -9 177l2 5q32 13 62 13 q21 0 34.5 -9t13.5 -26q0 -12 -7 -31t-24 -58.5t-28 -68.5q84 20 141 20q36 0 36 -40q0 -28 -20 -56l-10 -3q-67 24 -160 34q0 -58 -3 -87q-4 -57 -45 -142q89 19 138 19q36 0 36 -40q0 -29 -21 -56l-9 -4q-68 24 -157 34q-9 -100 9 -176z" />
<glyph unicode="&#x2022;" horiz-adv-x="448" d="M400 276q0 -64 -44 -110.5t-107 -46.5q-54 0 -85.5 33t-31.5 82q0 61 45.5 108t108.5 47q51 0 82.5 -32t31.5 -81z" />
<glyph unicode="&#x2026;" horiz-adv-x="717" d="M207 80q0 -37 -25.5 -63.5t-61.5 -26.5q-31 0 -49.5 19t-18.5 47q0 34 26.5 61t63.5 27q29 0 47 -18t18 -46zM438 80q0 -37 -25.5 -63.5t-61.5 -26.5q-31 0 -49 19t-18 47q0 34 26.5 61t62.5 27q29 0 47 -18t18 -46zM670 80q0 -37 -25.5 -63.5t-61.5 -26.5 q-31 0 -49.5 19t-18.5 47q0 34 26.5 61t63.5 27q28 0 46.5 -18t18.5 -46z" />
<glyph unicode="&#x2030;" horiz-adv-x="1438" d="M517 543q0 -104 -69 -184.5t-162 -80.5q-67 0 -105.5 42t-38.5 113q0 106 69.5 185.5t162.5 79.5q67 0 105 -41.5t38 -113.5zM872 698l-574 -708h-57l573 708h58zM233 404q0 -42 15.5 -67.5t44.5 -25.5q56 0 95 87t39 177t-59 90q-56 0 -95.5 -85.5t-39.5 -175.5z M982 255q0 -104 -69.5 -184.5t-161.5 -80.5q-67 0 -106 42t-39 113q0 106 69.5 185.5t162.5 79.5q67 0 105.5 -41.5t38.5 -113.5zM1422 255q0 -104 -69 -184.5t-162 -80.5q-67 0 -106 42t-39 113q0 106 70 185.5t163 79.5q67 0 105 -41.5t38 -113.5zM697 116q0 -43 15.5 -68 t44.5 -25q56 0 95 87t39 177t-59 90q-56 0 -95.5 -85.5t-39.5 -175.5zM1138 116q0 -43 15.5 -68t44.5 -25q56 0 95 87t39 177t-59 90q-56 0 -95.5 -85.5t-39.5 -175.5z" />
<glyph unicode="&#x2039;" horiz-adv-x="336" d="M257 29l-17 -9q-65 115 -132 189l-4 8l15 68q125 103 220 198l14 -10q-58 -94 -156 -235q39 -120 60 -209z" />
<glyph unicode="&#x203a;" horiz-adv-x="336" d="M161 475l18 8q63 -114 131 -189l4 -8l-15 -68q-107 -87 -220 -198l-14 11q54 86 156 235q-44 139 -60 209z" />
<glyph unicode="&#x2044;" horiz-adv-x="261" d="M509 698l-574 -708h-57l573 708h58z" />
<glyph unicode="&#x2070;" horiz-adv-x="449" d="M519 603q0 -104 -69.5 -184.5t-161.5 -80.5q-67 0 -106 42t-39 113q0 106 70 185.5t163 79.5q67 0 105 -41.5t38 -113.5zM234 464q0 -42 15.5 -67.5t44.5 -25.5q38 0 70 44t48 103.5t16 116.5q0 90 -58 90q-38 0 -70.5 -43t-49 -102.5t-16.5 -115.5z" />
<glyph unicode="&#x2071;" horiz-adv-x="246" d="M283 819q-21 0 -34.5 13.5t-13.5 35.5q0 28 21.5 49t50.5 21q20 0 33 -13t13 -34q0 -29 -21 -50.5t-49 -21.5zM137 644l-8 6q21 43 54 75t69 32q61 0 61 -67q0 -25 -24 -134.5t-24 -123.5q0 -17 14 -17q20 0 63 50l8 -6q-21 -43 -54 -75t-70 -32q-61 0 -61 67 q0 26 24 132.5t24 124.5t-13 18q-17 0 -63 -50z" />
<glyph unicode="&#x2074;" horiz-adv-x="425" d="M407 758l63 -8l-55 -259l62 1l-14 -50l-59 1l-20 -95h-91l21 96l-180 2v31zM362 664l-173 -180l135 4z" />
<glyph unicode="&#x2075;" horiz-adv-x="352" d="M401 487q0 -64 -76.5 -102t-215.5 -47l-1 19q89 17 143.5 50.5t54.5 74.5q0 26 -20 41t-57 15q-35 0 -65 -8l-7 8l46 215q108 -5 187 -5q21 0 30.5 6t20.5 27l9 -1q-9 -58 -22.5 -82.5t-46.5 -24.5q-62 0 -144 13l-24 -110q23 4 55 4q62 0 97.5 -24.5t35.5 -68.5z" />
<glyph unicode="&#x2076;" horiz-adv-x="396" d="M445 488q0 -61 -48.5 -105.5t-120.5 -44.5q-61 0 -99 37.5t-38 99.5q0 117 95 197.5t230 85.5l3 -19q-83 -23 -143.5 -74.5t-89.5 -122.5q37 45 103 45q50 0 79 -27t29 -72zM221 441q0 -68 51 -68q36 0 59.5 34t23.5 80q0 28 -13.5 44.5t-37.5 16.5q-35 0 -59 -31 t-24 -76z" />
<glyph unicode="&#x2077;" horiz-adv-x="364" d="M296 364q-16 -25 -40 -25q-16 0 -32.5 11.5t-23.5 25.5q121 165 190 281q-102 24 -156 24q-23 0 -35 -9.5t-24 -34.5l-6 2q10 62 25.5 90.5t46.5 28.5q83 0 172 -63q2 2 35 61q20 -3 20 -17t-23 -70q-75 -178 -149 -305z" />
<glyph unicode="&#x2078;" horiz-adv-x="407" d="M449 460q1 -55 -49.5 -88.5t-131.5 -33.5q-64 0 -103.5 24.5t-39.5 65.5q0 43 39 71.5t101 37.5q-72 51 -72 102q0 54 50 86.5t117 32.5q54 0 87.5 -23t33.5 -60q0 -39 -30.5 -67t-82.5 -41q39 -26 60 -50.5t21 -56.5zM281 664q0 -23 16.5 -41.5t48.5 -40.5q63 42 63 97 q0 22 -14 35t-40 13q-32 0 -53 -17.5t-21 -45.5zM211 425q1 -26 19.5 -41.5t47.5 -15.5q35 0 59 19t24 47q0 17 -12 34t-24.5 27t-38.5 28q-33 -17 -54 -44.5t-21 -53.5z" />
<glyph unicode="&#x2079;" horiz-adv-x="398" d="M472 621q0 -117 -97.5 -197t-235.5 -86l-2 17q82 23 144 75t92 123q-37 -43 -103 -43q-49 0 -77.5 26t-28.5 70q0 61 49 106.5t122 45.5q63 0 100 -38t37 -99zM254 607q0 -61 50 -61q36 0 60.5 32t24.5 79q0 69 -50 69q-37 0 -61 -35.5t-24 -83.5z" />
<glyph unicode="&#x207f;" horiz-adv-x="473" d="M134 642l-8 6q22 44 53.5 76t67.5 32q28 0 43 -16.5t15 -44.5t-26 -128q95 189 180 189q32 0 50 -19t18 -47q0 -34 -25 -134t-25 -121q0 -20 14 -20q20 0 63 50l8 -6q-21 -43 -54.5 -75t-71.5 -32q-62 0 -62 66q0 29 24.5 120.5t24.5 118.5t-20 27q-28 0 -69.5 -67 t-58.5 -122l-28 -136l-46 -3q-15 -2 -43 -2q-10 0 -10 9q0 6 1 9q62 262 62 302q0 19 -14 19q-18 0 -63 -51z" />
<glyph unicode="&#x2080;" horiz-adv-x="449" d="M428 177q0 -105 -69 -185t-162 -80q-67 0 -106 41.5t-39 112.5q0 107 70 186t163 79q67 0 105 -41.5t38 -112.5zM143 38q0 -43 15.5 -68.5t44.5 -25.5q38 0 70 44t48.5 104.5t16.5 116.5q0 90 -59 90q-38 0 -70.5 -43t-49 -102.5t-16.5 -115.5z" />
<glyph unicode="&#x2081;" horiz-adv-x="294" d="M225 -78h-206l-1 11l30 6q36 10 43 37l63 292l-60 10l2 12l155 41l5 -5l-79 -373l51 -20z" />
<glyph unicode="&#x2082;" horiz-adv-x="379" d="M110 -72q-41 0 -75 -16l-11 51q133 76 191 131.5t58 103.5q0 27 -16 43.5t-45 16.5q-61 0 -110 -58l-12 6q23 55 69 90t99 35q51 0 81 -27.5t30 -74.5q0 -110 -156 -197q-17 -9 -83 -39q16 3 32 3q21 0 59 -5t49 -5q24 0 53 46l9 -4q-10 -46 -18 -65q-22 -51 -51 -51 q-18 0 -70 8t-83 8z" />
<glyph unicode="&#x2083;" horiz-adv-x="374" d="M330 51q0 -59 -81.5 -94.5t-228.5 -44.5l-2 19q95 18 153 49.5t58 70.5q0 24 -19.5 37.5t-52.5 13.5q-23 0 -36 -3l-4 28q66 7 102.5 30.5t36.5 58.5q0 50 -57 50q-56 0 -95 -47l-13 6q26 50 70 78t96 28q50 0 77.5 -22.5t27.5 -58.5q0 -45 -38 -75t-98 -45 q104 -9 104 -79z" />
<glyph unicode="&#x2084;" horiz-adv-x="424" d="M316 331l63 -7l-55 -260l62 2l-13 -50h-59l-21 -94h-90l20 95l-180 3v31zM271 238l-173 -180l135 4z" />
<glyph unicode="&#x2085;" horiz-adv-x="353" d="M311 60q0 -63 -77 -101t-215 -47l-1 19q89 17 143 50t54 75q0 26 -20 40.5t-56 14.5q-33 0 -65 -7l-7 7l46 216q130 -6 187 -6q21 0 30.5 6.5t19.5 26.5l9 -1q-9 -58 -22 -82t-46 -24q-69 0 -144 12l-24 -110q21 5 55 5q62 0 97.5 -24.5t35.5 -69.5z" />
<glyph unicode="&#x2086;" horiz-adv-x="397" d="M354 62q0 -61 -48 -105.5t-120 -44.5q-62 0 -100 37t-38 99q0 118 95 198t231 85l2 -19q-82 -22 -142.5 -74t-89.5 -123q36 45 103 45q49 0 78 -26.5t29 -71.5zM131 14q0 -68 50 -68q37 0 60.5 34.5t23.5 80.5q0 28 -13.5 44.5t-37.5 16.5q-36 0 -59.5 -31t-23.5 -77z " />
<glyph unicode="&#x2087;" horiz-adv-x="364" d="M205 -62q-15 -25 -40 -25q-16 0 -32.5 11t-23.5 26q114 153 191 280q-98 25 -157 25q-23 0 -35 -9.5t-24 -34.5l-6 1q10 62 25.5 90.5t47.5 28.5q84 0 171 -63q3 5 35 61q20 -3 20 -16q0 -16 -23 -70q-75 -178 -149 -305z" />
<glyph unicode="&#x2088;" horiz-adv-x="406" d="M358 33q1 -54 -49.5 -87.5t-131.5 -33.5q-64 0 -103.5 24t-39.5 65q0 43 39 72t101 38q-71 50 -71 102q0 54 49.5 86t116.5 32q55 0 88 -22.5t33 -59.5q0 -39 -30.5 -67t-82.5 -41q26 -18 40.5 -31t27.5 -34t13 -43zM191 238q0 -23 16.5 -41.5t47.5 -40.5q64 41 64 96 q-2 49 -55 49q-31 0 -52 -18t-21 -45zM121 -2q0 -25 18.5 -40.5t47.5 -15.5q35 0 59 19t24 47q0 17 -12 34t-25 27t-38 27q-33 -17 -53.5 -44t-20.5 -54z" />
<glyph unicode="&#x2089;" horiz-adv-x="399" d="M382 195q0 -117 -97.5 -197t-235.5 -86l-2 17q82 23 144 75t92 123q-38 -44 -103 -44q-49 0 -77.5 26t-28.5 70q0 62 49 107t122 45q64 0 100.5 -37.5t36.5 -98.5zM164 181q0 -61 50 -61q36 0 60.5 32t24.5 79q0 69 -49 69q-37 0 -61.5 -36t-24.5 -83z" />
<glyph unicode="&#x20ac;" horiz-adv-x="626" d="M501 231h-197v-8q0 -71 30.5 -109t85.5 -38q88 0 177 92l10 -8q-41 -78 -105 -124t-141 -46q-94 0 -145 58.5t-51 162.5q0 14 1 20h-84l18 49h70q4 37 16 82h-76l18 49h74q48 126 140 206.5t197 80.5q67 0 105 -32.5t38 -84.5q0 -45 -26 -76.5t-63 -31.5q-26 0 -47 14 q23 50 23 100q0 66 -50 66q-57 0 -107.5 -68.5t-80.5 -173.5h217l-19 -49h-210q-10 -54 -12 -82h213z" />
<glyph unicode="&#x2122;" horiz-adv-x="676" d="M453 460h-75v15l15 4q13 4 19 18l57 165l-26 12l5 14h78l32 -158l96 158h82l-1 -14l-31 -12l-13 -177l23 -10l-3 -15h-106l1 15l13 3q19 8 19 21l9 133l-104 -172h-28l-33 170l-50 -145l25 -10zM304 460h-107l1 15l17 5q13 4 16 19l2 12l34 155h-9q-25 0 -36 -1 q-6 -8 -38 -59h-12q-1 36 16 82h220q0 -34 -18 -82h-13q-10 54 -12 59q-11 1 -35 1h-9l-34 -155l-4 -26l25 -10z" />
<glyph unicode="&#x2202;" horiz-adv-x="616" d="M650 512q0 -128 -47.5 -247t-138 -196.5t-200.5 -77.5q-85 0 -134 47t-49 128q0 127 109 217t259 90q39 0 76 -10v22q0 93 -34.5 144.5t-101.5 51.5q-92 0 -182 -73l-8 10q37 56 103 98t140 42q104 0 156 -66t52 -180zM204 150q0 -51 22.5 -80t62.5 -29q58 0 109 59 t81 141.5t41 169.5q-27 10 -69 10q-106 0 -176.5 -81.5t-70.5 -189.5z" />
<glyph unicode="&#x220f;" horiz-adv-x="749" d="M204 -138h-184l-2 20l49 18q18 8 27.5 17t13.5 27l148 696l-72 28l4 20h629l2 -20l-49 -18q-35 -15 -41 -46l-149 -694l81 -28l-4 -20h-197l-7 8l164 770h-241l-163 -770z" />
<glyph unicode="&#x2211;" horiz-adv-x="601" d="M503 -138h-508l1 41l348 332l-184 412l17 41h492q-2 -95 -46 -208h-24q-23 89 -39 160q-36 4 -89 4h-175l162 -367l-390 -371h250q52 0 97 5q10 14 41.5 63t64.5 97h24q-2 -110 -42 -209z" />
<glyph unicode="&#x2212;" d="M564 311h-431l14 64q162 5 431 5l7 -8z" />
<glyph unicode="&#x221a;" horiz-adv-x="612" d="M107 498h195l65 -411l330 671l51 -20l-369 -738h-122l-80 449h-81z" />
<glyph unicode="&#x221e;" horiz-adv-x="846" d="M629 158q-58 0 -95 27t-64 91q-88 -118 -202 -118q-64 0 -101 40.5t-37 107.5q0 88 62 154t150 66q59 0 93.5 -26.5t64.5 -93.5q42 57 95 88.5t108 31.5q64 0 101 -40t37 -107q0 -88 -62 -154.5t-150 -66.5zM204 311q0 -41 21 -63.5t58 -22.5q43 0 89.5 30.5t76.5 77.5 q-22 63 -49.5 95t-69.5 32q-54 0 -90 -45t-36 -104zM688 459q-43 0 -88.5 -30t-77.5 -77q28 -67 53 -97.5t66 -30.5q54 0 90 45t36 104q0 41 -21 63.5t-58 22.5z" />
<glyph unicode="&#x222b;" horiz-adv-x="436" d="M305 -7q-4 -123 -68.5 -187t-156.5 -64q-60 0 -96.5 28t-36.5 66q0 29 19 46.5t46 22.5q23 -118 80 -118q38 0 63 48.5t28 128.5q3 93 7 282t6 261q4 123 68.5 187t157.5 64q59 0 95.5 -28t36.5 -66q0 -29 -19 -46.5t-46 -22.5q-23 118 -80 118q-38 0 -63 -48.5 t-28 -128.5q-2 -72 -6 -259.5t-7 -283.5z" />
<glyph unicode="&#x2248;" d="M256 449q-11 0 -72 -59l-34 26q81 105 126 105q20 0 120 -26t116 -26q11 0 72 59l35 -25q-82 -106 -126 -106q-21 0 -121.5 26t-115.5 26zM211 238q-11 0 -72 -59l-34 26q81 105 126 105q20 0 120 -26t116 -26q10 0 73 59l34 -25q-23 -30 -39 -48.5t-41.5 -38 t-45.5 -19.5q-21 0 -121.5 26t-115.5 26z" />
<glyph unicode="&#x2260;" d="M165 121l63 92h-115l14 63q41 1 147 3l90 131h-209l14 63q53 2 241 4l81 118l11 3l47 -31l-62 -89h113l6 -8l-21 -60h-145l-90 -130q80 1 208 1l6 -8l-21 -60h-239l-85 -122l-5 -1z" />
<glyph unicode="&#x2264;" horiz-adv-x="603" d="M162 429l478 187l-15 -75l-352 -138l294 -130l-15 -67q-364 162 -396 178l-3 6zM516 78h-431l14 64q162 5 432 5l6 -8z" />
<glyph unicode="&#x2265;" d="M594 393l-478 -187l15 75l353 137l-295 131l15 67q369 -164 397 -178l2 -6zM521 78h-431l14 64q162 5 432 5l6 -8z" />
<glyph unicode="&#x25ca;" horiz-adv-x="611" d="M110 329l8 37l281 323l82 3l144 -338l-8 -37l-283 -318l-82 -4zM299 53h3l254 293l-123 292l-252 -299z" />
<glyph unicode="&#x25fc;" horiz-adv-x="510" d="M0 510h510v-510h-510v510z" />
<glyph unicode="&#xa7b6;" horiz-adv-x="831" d="M334 0h-310q4 108 41 186h24l17 -60q7 -45 18 -75q31 -7 82 -7h67q-101 106 -101 244q0 165 114.5 287.5t278.5 122.5q108 0 169.5 -65t61.5 -174q0 -126 -65 -234t-176 -181h68q51 0 85 7q26 35 50 75l43 60h23q-2 -99 -37 -186h-311l-9 46q95 77 150 193t55 237 q0 83 -32 129.5t-92 46.5q-74 0 -134.5 -63.5t-90.5 -153t-30 -178.5q0 -124 71 -211z" />
<glyph unicode="&#xfb01;" horiz-adv-x="577" d="M204 8q-26 -126 -92 -196t-154 -70q-47 0 -76.5 19.5t-29.5 49.5q0 32 28 44q35 -46 79 -46t73 43.5t48 133.5l97 457h-67l2 17l74 27l5 22q23 110 98 179.5t171 69.5q62 0 102 -30t40 -75q0 -26 -24.5 -44t-62.5 -18q-31 104 -98 104q-20 0 -35.5 -9.5t-25 -22.5 t-18 -37.5t-12.5 -42t-10.5 -50.5t-10.5 -49h160q55 0 83.5 -21.5t28.5 -59.5q0 -11 -2.5 -28.5t-8.5 -44t-11.5 -49t-15 -62t-15.5 -65.5q-10 -54 -10 -64q0 -23 17 -23q27 0 84 68l9 -8q-28 -55 -69 -96t-87 -41q-36 0 -55.5 21.5t-19.5 59.5q0 25 12 83q11 49 26 113 t22 96.5t7 44.5q0 35 -45 35h-119z" />
<glyph unicode="&#xfb02;" horiz-adv-x="605" d="M204 8q-27 -126 -93 -196t-153 -70q-47 0 -76.5 19.5t-29.5 49.5q0 32 28 44q35 -46 79 -46t73 43.5t48 133.5l97 457h-67l2 17l74 27l5 22q22 109 99.5 179t171.5 70q46 0 76 -19q55 13 108 18l8 -9l-130 -594q-11 -59 -11 -64q0 -23 18 -23q26 0 83 68l9 -8 q-27 -55 -68 -96t-88 -41q-36 0 -55 21.5t-19 59.5q0 32 12 83l107 492q-38 49 -90 49q-58 0 -85 -75q-9 -27 -26 -106l-6 -30h117l-9 -41h-117z" />
<glyph unicode="&#xfb06;" horiz-adv-x="776" d="M398 139q0 -67 -51.5 -108t-142.5 -41q-68 0 -113 25t-45 68q0 31 22 54.5t56 35.5l10 -8q-5 -28 -2 -54q8 -39 29 -61.5t54 -22.5q31 0 50.5 19t19.5 52q0 27 -17.5 53t-43 48t-50.5 45.5t-42.5 55.5t-17.5 67q0 61 54.5 101t136.5 40q16 0 23 -1q19 94 91.5 158.5 t168.5 64.5q68 0 107.5 -32.5t39.5 -85.5q0 -71 -62 -128h163l-9 -41h-138l-58 -274q-6 -24 -6 -44q0 -55 43 -55q53 0 127 78l9 -7q-36 -67 -88.5 -109t-118.5 -42q-46 0 -70.5 29.5t-24.5 79.5q0 26 6 56l62 288h-74l3 20q58 17 91.5 52.5t33.5 79.5q0 35 -22 55.5 t-61 20.5q-64 0 -112 -48.5t-63 -121.5q38 -10 60 -30.5t22 -47.5t-18 -43.5t-45 -16.5q-28 0 -45.5 23.5t-17.5 64.5q0 11 1 16q-11 4 -25 4q-30 0 -50 -18.5t-20 -47.5q0 -27 17.5 -53.5t42.5 -49.5t50 -47t42.5 -54t17.5 -62z" />
<glyph horiz-adv-x="450" d="M448 29q-21 -43 -54 -75t-70 -32q-29 0 -45.5 17.5t-16.5 48.5q0 20 10 65l11 48h-2q-31 -72 -73.5 -125.5t-85.5 -53.5q-36 0 -58 30.5t-22 83.5q0 115 71 202.5t177 87.5q81 0 137 -29l-12 -39l-44 -205q-7 -35 -7 -49q0 -19 13 -19q21 0 63 51zM145 49q0 -51 25 -51 q29 0 69.5 72t62.5 139l16 67q-18 15 -45 15q-46 0 -87 -79.5t-41 -162.5z" />
<glyph horiz-adv-x="425" d="M339 326q37 0 56 -30t19 -79q0 -121 -63 -208t-167 -87q-79 0 -148 29l13 39l89 429l10 48l-56 20v9q80 21 160 26l6 -7l-21 -96q-19 -87 -68 -278h2q32 73 76 129t92 56zM286 250q-25 0 -64.5 -63.5t-56.5 -118.5l-21 -97q24 -14 52 -14q44 0 79.5 81t35.5 163 q0 49 -25 49z" />
<glyph horiz-adv-x="353" d="M262 326q47 0 76 -25t29 -65q0 -32 -19.5 -53t-46.5 -21q-18 0 -36 11q17 51 17 78q0 41 -31 41q-37 0 -69 -64.5t-32 -138.5q0 -101 73 -101q54 0 111 60l8 -7q-29 -55 -73.5 -87t-96.5 -32q-59 0 -92 39t-33 106q0 102 65.5 180.5t149.5 78.5z" />
<glyph horiz-adv-x="450" d="M371 53q-7 -37 -7 -50q0 -18 13 -18q19 0 64 51l7 -7q-21 -43 -54 -75t-70 -32q-30 0 -45.5 18t-15.5 50q0 27 10 63l12 59q-31 -75 -74.5 -132.5t-88.5 -57.5q-36 0 -58 30t-22 82q0 116 70.5 204t176.5 88q15 0 39 -2l23 95l10 47l-72 21v9q81 20 176 26l6 -7l-21 -96z M145 47q0 -49 25 -49q28 0 69 71.5t62 137.5l16 70q-17 16 -44 16q-47 0 -87.5 -80.5t-40.5 -165.5z" />
<glyph horiz-adv-x="360" d="M340 41q-29 -55 -73 -87t-96 -32q-57 0 -90 39.5t-33 106.5q0 101 65 179.5t149 78.5q45 0 73.5 -23.5t28.5 -61.5q0 -57 -54 -95.5t-141 -39.5h-17q0 -4 -0.5 -11t-0.5 -10q0 -46 19 -70.5t52 -24.5q54 0 110 58zM250 291q-31 0 -59 -47t-36 -112q53 4 87.5 39.5 t34.5 83.5q0 36 -27 36z" />
<glyph horiz-adv-x="235" d="M128 -63q-20 -99 -73 -154t-123 -55q-38 0 -62 15.5t-24 39.5q0 26 22 35q29 -34 62 -34q35 0 56.5 33t36.5 103l73 354h-53l3 13l57 22l4 19q17 84 75 139.5t128 55.5q39 0 64.5 -18t25.5 -44q0 -41 -42 -54q-41 63 -81 63q-11 0 -19 -3.5t-14.5 -12t-10.5 -16 t-7.5 -22.5t-5.5 -25t-5.5 -29.5t-5.5 -29.5l-5 -25h95l-6 -33h-96z" />
<glyph horiz-adv-x="359" d="M220 326q141 0 183 11q6 -9 6 -26q0 -36 -34 -36q-16 0 -91 23q54 -29 54 -90q0 -42 -17.5 -75.5t-42 -54t-49 -36t-42 -28t-17.5 -22.5q0 -12 40 -32q5 -3 7 -4q24 -13 37 -21.5t28.5 -21.5t22.5 -28t7 -33q0 -50 -53 -86.5t-140 -36.5q-76 0 -120 25.5t-44 63.5 q0 53 84 88l11 -9q-16 -23 -16 -41q0 -39 31.5 -68t78.5 -29q36 0 58.5 16t22.5 41q0 21 -18.5 37.5t-55.5 36.5q-25 13 -37 20.5t-23.5 21.5t-11.5 29q0 20 21 38t68 41q-55 1 -88.5 33.5t-33.5 83.5q0 70 50 119.5t124 49.5zM139 154q0 -81 41 -81q27 0 46 52.5t19 112.5 q-2 59 -37 59q-29 0 -49 -45.5t-20 -97.5z" />
<glyph horiz-adv-x="453" d="M253 522l6 -7l-21 -95q-31 -142 -70 -284q90 190 184 190q32 0 49.5 -19t17.5 -47q0 -33 -26.5 -135t-26.5 -122q0 -18 13 -18q22 0 64 51l8 -7q-21 -43 -54 -75t-70 -32q-30 0 -46.5 17.5t-16.5 48.5q0 30 25.5 123t25.5 118q0 26 -21 26q-28 0 -70.5 -67t-58.5 -120 l-29 -139q-77 -5 -88 -5q-12 0 -10 14l110 527l-56 22v9q62 18 161 26z" />
<glyph horiz-adv-x="258" d="M191 390q-21 0 -34.5 13t-13.5 35q0 29 21.5 50t50.5 21q20 0 33 -13t13 -34q0 -30 -21 -51t-49 -21zM45 214l-8 6q21 43 54 75t69 32q61 0 61 -66q0 -25 -24 -135t-24 -123q0 -18 14 -18q21 0 63 51l8 -7q-21 -43 -54 -75t-70 -32q-61 0 -61 67q0 26 24 133t24 125 q0 17 -13 17q-17 0 -63 -50z" />
<glyph horiz-adv-x="254" d="M178 390q-21 0 -34 12.5t-13 33.5q0 30 21 51.5t50 21.5q21 0 34.5 -13t13.5 -34q0 -30 -21.5 -51t-50.5 -21zM-25 -272q-37 0 -61 16t-24 39q0 24 23 35q28 -35 61 -35q66 0 94 137q64 312 64 326q0 18 -14 18q-18 0 -64 -50l-7 6q21 43 54 75t69 32q62 0 62 -65 q0 -17 -61 -325q-20 -99 -73 -154t-123 -55z" />
<glyph horiz-adv-x="434" d="M252 522l6 -7l-21 -96q-35 -156 -71 -286q88 193 189 193q35 0 54.5 -19t19.5 -48q0 -48 -40 -88t-89 -64q49 -122 73 -122q19 0 62 51l8 -7q-21 -43 -54.5 -75t-70.5 -32q-43 0 -69 52q-13 24 -41 108l3 9q49 25 82.5 63t33.5 73q0 29 -23 29q-32 0 -72.5 -56.5 t-67.5 -131.5l-29 -139l-44 -2q-42 -3 -44 -3q-12 0 -9 14l110 529l-56 20v9q80 21 160 26z" />
<glyph horiz-adv-x="240" d="M161 53q-9 -38 -8 -50q0 -18 14 -18q21 0 63 51l8 -7q-21 -43 -54 -75t-70 -32q-59 0 -61 66q-1 19 9 65l76 366l10 48l-56 20v9q80 21 160 26l6 -7l-21 -96z" />
<glyph horiz-adv-x="685" d="M43 213l-8 6q21 43 53.5 75t68.5 32q28 0 43 -15.5t15 -42.5q0 -25 -25 -127q91 185 178 185q28 0 44 -17.5t16 -45.5q0 -26 -28 -131l2 5q88 189 178 189q32 0 50.5 -19t18.5 -47q0 -35 -25.5 -137t-25.5 -120t13 -18q21 0 64 51l8 -7q-21 -43 -54 -75t-70 -32 q-30 0 -46.5 17.5t-16.5 48.5q0 30 24.5 124t24.5 120q0 23 -19 23q-29 0 -71 -68t-58 -123l-29 -135l-46 -2q-39 -3 -44 -3q-9 0 -9 10q0 5 1 8q63 265 63 290q0 23 -19 23q-29 0 -71 -67.5t-59 -122.5l-28 -136l-45 -2q-39 -3 -44 -3q-9 0 -9 10q0 5 1 8q61 252 61 302 q0 19 -13 19q-18 0 -64 -50z" />
<glyph horiz-adv-x="473" d="M43 212l-8 7q22 43 53.5 75t67.5 32q58 0 58 -60q0 -27 -26 -129q93 189 180 189q32 0 50 -19t18 -47q0 -34 -25 -134t-25 -120q0 -21 14 -21q21 0 63 51l8 -7q-21 -43 -54.5 -75t-71.5 -32q-30 0 -46 17.5t-16 48.5q0 29 24.5 120.5t24.5 118.5q0 28 -20 28 q-28 0 -69.5 -67t-58.5 -122l-28 -137l-46 -3q-30 -2 -43 -2q-10 0 -10 10q0 5 1 8q62 262 62 302q0 19 -14 19q-18 0 -63 -51z" />
<glyph horiz-adv-x="414" d="M397 178q0 -110 -64.5 -183t-148.5 -73q-61 0 -98.5 39.5t-37.5 107.5q0 104 65.5 180.5t148.5 76.5q65 0 100 -39.5t35 -108.5zM152 31q0 -76 40 -76t70.5 92t30.5 178q0 68 -37 68q-40 0 -72 -87.5t-32 -174.5z" />
<glyph horiz-adv-x="445" d="M70 -270q-26 -2 -44 -2q-12 0 -9 10l81 390q22 104 22 117q0 18 -14 18q-15 0 -63 -50l-8 6q21 44 53 75.5t68 31.5q29 0 44 -15.5t15 -42.5q0 -12 -4 -32.5t-11 -50.5t-10 -44h1q32 73 76 129t93 56q36 0 55 -30t19 -80q0 -120 -63 -207.5t-166 -87.5q-26 0 -50 3 l-40 -191zM307 250q-26 0 -66 -65.5t-57 -119.5l-20 -96q28 -15 52 -15q30 0 57.5 41t43 98t15.5 110q0 47 -25 47z" />
<glyph horiz-adv-x="439" d="M260 -270q-7 0 -23.5 -1t-19.5 -1q-11 0 -10 15l75 358h-1q-31 -72 -73.5 -125.5t-85.5 -53.5q-36 0 -58 30.5t-22 83.5q0 115 71 202.5t177 87.5q81 0 137 -29l-13 -39l-109 -525zM145 49q0 -51 25 -51q28 0 68 70t62 137l17 71q-18 15 -44 15q-46 0 -87 -79.5 t-41 -162.5z" />
<glyph horiz-adv-x="374" d="M122 -73q-39 -3 -44 -3q-12 0 -9 10l25 118q38 183 38 193q0 18 -13 18q-18 0 -64 -50l-8 6q21 43 53 75t68 32q28 0 43.5 -15.5t15.5 -42.5q0 -25 -27 -131q87 189 153 189q39 0 41 -42q0 -46 -31 -87q-30 24 -53 24q-33 0 -69.5 -57.5t-44.5 -100.5l-29 -134z" />
<glyph horiz-adv-x="354" d="M312 40q0 -53 -41.5 -85.5t-115.5 -32.5q-54 0 -90.5 19.5t-37.5 52.5q0 25 17.5 43.5t45.5 26.5l9 -6q-3 -18 -1 -42q17 -63 67 -63q23 0 37.5 14t14.5 38q0 21 -14.5 41t-35 37.5t-41 36t-34.5 43t-14 52.5q0 49 42.5 80t106.5 31q57 0 88.5 -19.5t31.5 -50.5 q0 -23 -15.5 -42t-40.5 -27l-9 6q1 21 -2 44q-13 59 -56 59q-22 0 -35.5 -13.5t-13.5 -35.5q0 -21 14 -41.5t34 -38.5t40 -36.5t34.5 -42t14.5 -48.5z" />
<glyph horiz-adv-x="296" d="M140 -78q-37 0 -57 23.5t-20 63.5q0 24 5 43l47 222h-57l1 13l64 29l109 113l14 -1l-26 -121h108l-7 -33h-108l-44 -210q-4 -17 -4 -34q0 -42 34 -42q41 0 97 60l8 -7q-27 -52 -69.5 -85.5t-94.5 -33.5z" />
<glyph horiz-adv-x="477" d="M475 29q-21 -43 -54.5 -75t-70.5 -32q-59 0 -61 66q-1 22 17 108h-2q-30 -72 -73 -123t-87 -51q-33 0 -52 20t-19 55q0 31 25 128t25 121q0 17 -14 17q-16 0 -63 -51l-8 7q21 43 54 75t70 32q30 0 46 -17.5t16 -47.5q0 -31 -24.5 -121t-22.5 -119q2 -23 19 -23 q28 0 70 69.5t65 146.5l23 107l45 3q26 2 44 2q11 0 9 -11l-54 -262q-8 -34 -8 -50q0 -18 14 -18q20 0 63 51z" />
<glyph horiz-adv-x="378" d="M156 -75l-61 4q8 150 8 170q0 94 -7.5 129t-26.5 35q-21 0 -62 -51l-8 6q22 44 56 76t70 32q72 0 72 -126q0 -95 -14 -215q48 69 76 146.5t28 132.5q0 27 -6 51q17 11 42 11q62 0 62 -60q0 -64 -70.5 -163.5t-158.5 -177.5z" />
<glyph horiz-adv-x="576" d="M583 268q0 -63 -71 -163t-159 -180l-61 4q9 134 8 170v34q-55 -128 -144 -208l-60 4q8 150 8 170q-1 95 -8.5 129.5t-26.5 34.5q-22 0 -61 -51l-9 7q22 44 55.5 75.5t70.5 31.5q72 0 73 -125q0 -85 -15 -217q101 145 109 289q0 21 -6 43q18 10 43 10q35 0 49.5 -27 t15.5 -93q0 -83 -15 -221q49 72 77.5 149t28.5 133q0 28 -5 48q15 11 41 11q62 0 62 -58z" />
<glyph horiz-adv-x="386" d="M280 63q16 -48 23.5 -63t16.5 -15q16 0 54 51l7 -7q-49 -107 -109 -107q-30 0 -44.5 23.5t-37.5 88.5q-6 19 -10 29l-14 41q-53 -83 -53 -143q0 -5 3 -32q-20 -9 -40 -9q-26 0 -42.5 12.5t-16.5 35.5q0 66 142 158l-18 54q-17 50 -25 66.5t-17 16.5q-18 0 -55 -50l-8 6 q20 44 50 75.5t63 31.5q27 0 42 -24.5t38 -89.5q7 -21 11 -32l11 -32q51 82 51 140q0 7 -3 31q20 9 40 9q26 0 42 -12.5t16 -35.5q0 -65 -138 -154z" />
<glyph horiz-adv-x="403" d="M134 326q81 0 81 -129q0 -119 -46 -252q67 69 99.5 152.5t32.5 159.5q0 33 -7 58q16 11 42 11q63 0 63 -76q0 -90 -66 -184.5t-182 -165.5q-34 -78 -78.5 -125t-97.5 -47q-35 0 -56 14.5t-21 37.5q-2 24 22 35q24 -31 49 -31q59 0 106 157q40 134 38 234q0 88 -35 88 q-21 0 -58 -51l-8 7q19 43 52.5 75t69.5 32z" />
<glyph horiz-adv-x="349" d="M99 -57q-44 0 -74 -21l-21 27q178 191 235 261q-71 22 -111 22q-23 0 -35.5 -11t-28.5 -42l-10 2q13 76 30.5 110.5t51.5 34.5q66 0 134 -76q31 41 54 76q38 -11 38 -38q1 -15 -7 -27t-29 -29q-13 -14 -220 -215q28 6 60 6q18 0 55.5 -4.5t47.5 -4.5q16 0 35 25 q11 15 20 30l10 -5q-17 -65 -26 -85q-22 -57 -54 -57q-14 0 -73.5 10.5t-81.5 10.5z" />
<glyph horiz-adv-x="449" d="M539 459q-21 -43 -54 -75t-70 -32q-29 0 -45.5 17.5t-16.5 48.5q0 20 10 65l11 48h-2q-31 -72 -73.5 -125.5t-85.5 -53.5q-36 0 -58 30.5t-22 82.5q0 116 71 203.5t177 87.5q79 0 137 -30l-12 -38l-44 -205q-7 -35 -7 -49q0 -19 13 -19q20 0 63 50zM236 479q0 -51 25 -51 q29 0 69.5 72t62.5 139l16 67q-18 15 -45 15q-46 0 -87 -79.5t-41 -162.5z" />
<glyph horiz-adv-x="424" d="M430 756q37 0 56 -30t19 -80q0 -120 -63 -207t-167 -87q-82 0 -148 29l13 39l89 429l10 48l-56 20v8q68 19 160 27l6 -7l-21 -96q-19 -87 -68 -278h2q32 73 76 129t92 56zM377 680q-25 0 -64 -63.5t-57 -118.5l-21 -97q24 -14 52 -14q44 0 79.5 81t35.5 163q0 49 -25 49z " />
<glyph horiz-adv-x="353" d="M354 756q47 0 76 -25.5t29 -64.5q0 -32 -19.5 -53.5t-46.5 -21.5q-19 0 -36 11q16 51 16 78q0 42 -31 42q-37 0 -68.5 -64.5t-31.5 -138.5q0 -101 73 -101q54 0 110 59l8 -6q-28 -55 -72 -87t-97 -32q-59 0 -92 38.5t-33 105.5q0 102 65.5 181t149.5 79z" />
<glyph horiz-adv-x="450" d="M462 483q-7 -37 -7 -51q0 -17 13 -17q18 0 64 50l7 -6q-21 -43 -54 -75t-70 -32q-61 0 -61 68q0 26 10 63l12 59q-31 -75 -74.5 -132.5t-88.5 -57.5q-36 0 -58 30t-22 82q0 116 70.5 204t176.5 88q21 0 39 -3l23 96l10 46l-72 22v8q77 21 176 27l6 -7l-21 -96zM236 477 q0 -49 25 -49q29 0 69.5 71.5t61.5 137.5l16 70q-17 16 -44 16q-47 0 -87.5 -80.5t-40.5 -165.5z" />
<glyph horiz-adv-x="359" d="M431 471q-29 -55 -73 -87t-96 -32q-57 0 -90 39.5t-33 105.5q0 101 65 180t149 79q45 0 73.5 -23.5t28.5 -62.5q0 -56 -54 -94.5t-141 -40.5h-17q0 -3 -0.5 -9.5t-0.5 -10.5q0 -46 19 -71t52 -25q54 0 110 58zM341 720q-31 0 -59 -47t-36 -111q53 3 87.5 38.5t34.5 84.5 q0 35 -27 35z" />
<glyph horiz-adv-x="235" d="M220 367q-21 -99 -74 -154t-123 -55q-38 0 -61.5 15.5t-23.5 39.5q-1 24 22 34q28 -33 62 -33q65 0 92 135l73 355h-52l3 13l57 22l3 19q17 84 75 139t128 55q40 0 65 -17.5t25 -43.5q0 -21 -12.5 -35.5t-29.5 -19.5q-40 64 -81 64q-11 0 -19 -3.5t-14 -11.5t-10.5 -16.5 t-8 -22.5t-5.5 -25t-5.5 -29.5t-5.5 -29.5l-5 -25h96l-7 -33h-96z" />
<glyph horiz-adv-x="359" d="M312 756q140 0 183 10q6 -12 6 -25q0 -36 -35 -36q-16 0 -91 23q54 -30 54 -91q0 -50 -26 -90t-57.5 -59.5t-57.5 -37t-26 -28.5q0 -12 38 -32q5 -2 8 -4q32 -18 49 -29t32 -31.5t15 -44.5q0 -50 -53.5 -86t-140.5 -36q-75 0 -119.5 25.5t-44.5 63.5q0 51 85 88l11 -10 q-17 -22 -17 -41q0 -39 31.5 -67.5t78.5 -28.5q37 0 59.5 15.5t22.5 41.5q-1 21 -19 37t-56 36q-24 13 -36.5 21t-24 21.5t-11.5 28.5q0 20 21 38t68 41q-55 2 -88.5 34t-33.5 84q0 70 50.5 119.5t124.5 49.5zM230 584q0 -82 41 -82q28 0 46.5 52.5t18.5 113.5q0 59 -37 59 q-29 0 -49 -46t-20 -97z" />
<glyph horiz-adv-x="452" d="M344 952l6 -7l-21 -96q-30 -138 -70 -283q90 190 184 190q32 0 49.5 -19t17.5 -47q0 -34 -26.5 -136t-26.5 -122q0 -17 13 -17q21 0 64 50l8 -6q-21 -43 -54 -75t-70 -32q-63 0 -63 66q0 29 25.5 122.5t25.5 118.5t-21 25q-28 0 -70.5 -67t-58.5 -120l-29 -138 q-57 -5 -88 -5q-12 0 -10 14l110 527l-56 22v8q67 19 161 27z" />
<glyph horiz-adv-x="255" d="M270 819q-21 0 -34 13t-13 34q0 30 21 51t50 21q21 0 34 -13t13 -34q0 -29 -21.5 -50.5t-49.5 -21.5zM67 158q-37 0 -61 15.5t-24 39.5q0 25 23 34q27 -34 61 -34q35 0 56.5 33t36.5 103q64 313 64 326q0 19 -14 19q-18 0 -63 -50l-7 5q21 44 53.5 76t69.5 32 q61 0 61 -66q0 -22 -61 -324q-20 -99 -72.5 -154t-122.5 -55z" />
<glyph horiz-adv-x="433" d="M343 952l6 -7l-21 -96q-34 -154 -71 -287q88 194 189 194q35 0 54.5 -19.5t19.5 -47.5q0 -48 -40 -88.5t-89 -63.5q49 -122 73 -122q19 0 62 50l8 -6q-21 -43 -54.5 -75t-70.5 -32q-39 0 -58.5 32t-48.5 119l-3 9l3 9q49 25 82.5 62.5t33.5 73.5q0 29 -23 29 q-32 0 -72.5 -56.5t-67.5 -132.5l-29 -138l-44 -3q-28 -2 -44 -2q-12 0 -9 14l110 528l-56 21v8q68 19 160 27z" />
<glyph horiz-adv-x="239" d="M252 483q-9 -38 -8 -51q0 -17 14 -17q20 0 63 50l8 -6q-21 -43 -54 -75t-70 -32q-59 0 -61 66q-1 19 9 65l76 366l10 48l-56 20v8q68 19 160 27l6 -7l-21 -96z" />
<glyph horiz-adv-x="685" d="M134 642l-8 7q23 43 55 75t67 32q28 0 43.5 -16t15.5 -42q0 -21 -26 -127q91 185 178 185q29 0 45 -18t16 -46q0 -25 -28 -130l2 5q88 189 178 189q32 0 50 -19t18 -47q0 -35 -25.5 -137.5t-25.5 -120.5q0 -17 14 -17q21 0 64 50l7 -6q-21 -43 -54 -75t-70 -32 q-63 0 -63 66q0 30 24.5 124t24.5 120q0 22 -19 22q-29 0 -71 -68t-58 -122l-29 -135l-46 -3q-26 -2 -43 -2q-10 0 -10 9q0 3 2 9q62 261 62 290q0 22 -19 22q-29 0 -70.5 -67t-58.5 -123l-28 -135l-46 -3q-26 -2 -44 -2q-9 0 -9 9q0 6 1 9q61 252 61 301q0 20 -13 20 q-19 0 -64 -51z" />
<glyph horiz-adv-x="413" d="M488 607q0 -109 -64.5 -182t-148.5 -73q-61 0 -98.5 39.5t-37.5 106.5q0 104 65.5 181t148.5 77q65 0 100 -40t35 -109zM243 461q0 -77 40 -77t70.5 92.5t30.5 177.5q0 69 -37 69q-40 0 -72 -88t-32 -174z" />
<glyph horiz-adv-x="445" d="M162 160q-26 -2 -44 -2q-11 0 -10 10l81 389q22 106 22 118q0 18 -13 18q-18 0 -63 -51l-9 7q56 107 121 107q29 0 44.5 -16t15.5 -42q0 -13 -26 -127h1q32 73 76.5 129t92.5 56q37 0 55.5 -30t18.5 -81q0 -120 -63 -207.5t-165 -87.5q-25 0 -51 3l-39 -190zM398 680 q-27 0 -66.5 -66t-55.5 -119l-20 -96q23 -15 52 -15q45 0 80 82.5t35 165.5q0 48 -25 48z" />
<glyph horiz-adv-x="438" d="M351 160q-26 -2 -43 -2q-12 0 -10 14l75 359h-1q-31 -72 -73.5 -125.5t-85.5 -53.5q-36 0 -58 30.5t-22 82.5q0 116 71 203.5t177 87.5q79 0 137 -30l-13 -38l-109 -525zM236 479q0 -51 25 -51q28 0 68 69.5t62 136.5l17 72q-18 15 -44 15q-46 0 -87 -79.5t-41 -162.5z " />
<glyph horiz-adv-x="374" d="M214 356q-26 -2 -44 -2q-5 0 -8 2.5t-2 6.5l25 119q38 177 38 193q0 18 -13 18q-17 0 -64 -51l-8 7q56 107 122 107q28 0 43 -16t15 -42q0 -33 -27 -131q87 189 153 189q20 0 30.5 -12t10.5 -31q0 -48 -31 -86q-29 23 -53 23q-32 0 -68.5 -56.5t-45.5 -100.5l-28 -134z " />
<glyph horiz-adv-x="354" d="M403 470q0 -54 -41 -86t-115 -32q-56 0 -92 19t-36 53q0 24 17.5 42.5t44.5 27.5l9 -6q-2 -28 0 -42q15 -63 66 -63q24 0 38 13.5t14 37.5q0 21 -14 41t-34.5 37.5t-41 36t-34.5 43.5t-14 53q0 48 42.5 79.5t105.5 31.5q57 0 88.5 -20t31.5 -51q0 -23 -15.5 -41.5 t-39.5 -26.5l-9 6q0 30 -2 43q-13 60 -56 60q-22 0 -36 -14t-14 -36q0 -25 21.5 -51.5t47 -46.5t47 -49t21.5 -59z" />
<glyph horiz-adv-x="297" d="M232 352q-37 0 -57 23.5t-20 62.5q0 24 5 43l47 223h-57l1 13l64 29l109 113l14 -1l-26 -121h108l-7 -33h-108l-44 -211q-4 -16 -4 -33q0 -42 34 -42q40 0 97 59l8 -6q-27 -52 -69.5 -85.5t-94.5 -33.5z" />
<glyph horiz-adv-x="476" d="M566 459q-21 -43 -54.5 -75t-70.5 -32q-59 0 -61 66q-1 22 17 108h-2q-30 -72 -72.5 -123t-87.5 -51q-33 0 -52 20t-19 55q0 31 25 128t25 120q0 18 -14 18q-16 0 -63 -51l-8 6q21 43 54 75.5t70 32.5q30 0 46 -17.5t16 -48.5t-24.5 -120.5t-22.5 -118.5q2 -23 19 -23 q28 0 70.5 69.5t64.5 146.5l23 107l45 2q39 3 44 3q10 0 9 -12l-54 -261q-8 -34 -8 -51t14 -17q20 0 63 50z" />
</font>
</defs>
</svg>
